osu file format v14

[General]
AudioFilename: audio.mp3
AudioLeadIn: 0
PreviewTime: 191139
Countdown: 0
SampleSet: Normal
StackLeniency: 0.4
Mode: 0
LetterboxInBreaks: 0
WidescreenStoryboard: 1

[Editor]
DistanceSpacing: 1.2
BeatDivisor: 4
GridSize: 8
TimelineZoom: 1.3

[Metadata]
Title:Twintail Dreamer!
TitleUnicode:ツインテール・ドリーマー!
Artist:Twin-Tails
ArtistUnicode:ツインテイルズ
Creator:Minorsonek
Version:Mathew's Hard
Source:俺、ツインテールになります。
Tags:ore twintail ni narimasu. gonna be the twin-tails!! ending full Sumire Uesaka Yuka Aisaka Chinatsu Akasaki twintails anime japanese Nyukai Captain Yasaija 714 RVMathew MaridiuS Seulgij walaowey
BeatmapID:1635735
BeatmapSetID:773026

[Difficulty]
HPDrainRate:5.5
CircleSize:4
OverallDifficulty:7
ApproachRate:8
SliderMultiplier:1.4
SliderTickRate:1

[Events]
//Background and Video events
0,0,"anime-1517497701521-1259.jpg",0,0
//Break Periods
2,83260,91148
2,136593,141754
2,170532,171602
//Storyboard Layer 0 (Background)
//Storyboard Layer 1 (Fail)
//Storyboard Layer 2 (Pass)
//Storyboard Layer 3 (Foreground)
//Storyboard Layer 4 (Overlay)
//Storyboard Sound Samples

[TimingPoints]
533,303.030303030303,4,1,2,50,1,0
533,-100,4,1,2,50,0,0
2048,-100,4,1,2,70,0,0
2805,-113.636363636364,4,1,2,60,0,0
4017,-113.636363636364,4,1,2,60,0,0
5229,-113.636363636364,4,1,2,60,0,0
5987,-113.636363636364,4,1,2,60,0,0
6442,-113.636363636364,4,1,2,60,0,0
6896,-100,4,1,2,70,0,0
7654,-100,4,1,2,70,0,0
12502,-100,4,1,2,70,0,0
22351,-113.636363636364,4,1,2,50,0,0
30684,-100,4,1,2,60,0,0
32048,-100,4,1,2,60,0,0
32351,-100,4,1,2,60,0,0
41745,-111.111111111111,4,1,2,50,0,0
49017,-100,4,1,2,60,0,0
49775,-100,4,1,2,60,0,0
51442,-100,4,1,2,60,0,0
51745,-100,4,1,2,60,0,0
52957,-100,4,1,2,30,0,0
53639,-100,4,1,2,5,0,0
53714,-90.9090909090909,4,1,2,70,0,1
54926,-90.9090909090909,4,1,3,70,0,1
55229,-90.9090909090909,4,1,2,70,0,1
56139,-90.9090909090909,4,1,3,70,0,1
56442,-90.9090909090909,4,1,2,70,0,1
57351,-90.9090909090909,4,1,3,70,0,1
57654,-90.9090909090909,4,1,2,70,0,1
58563,-90.9090909090909,4,1,3,70,0,1
58866,-90.9090909090909,4,1,2,70,0,1
59926,-90.9090909090909,4,1,3,70,0,1
60229,-90.9090909090909,4,1,2,70,0,1
60532,-90.9090909090909,4,1,3,70,0,1
60835,-90.9090909090909,4,1,2,70,0,1
61139,-90.9090909090909,4,1,2,70,0,1
63411,-90.9090909090909,4,1,2,70,0,1
64623,-90.9090909090909,4,1,3,70,0,1
64926,-90.9090909090909,4,1,2,70,0,1
65836,-90.9090909090909,4,1,3,70,0,1
66139,-90.9090909090909,4,1,2,70,0,1
67048,-90.9090909090909,4,1,3,70,0,1
67351,-90.9090909090909,4,1,2,70,0,1
68260,-90.9090909090909,4,1,3,70,0,1
68563,-90.9090909090909,4,1,2,70,0,1
70684,-90.9090909090909,4,1,3,70,0,1
70987,-90.9090909090909,4,1,2,70,0,1
73108,-100,4,1,2,70,0,0
82351,-100,4,1,2,60,0,0
90987,-100,4,1,2,60,0,0
92654,-100,4,1,2,60,0,0
92957,-100,4,1,2,60,0,0
102351,-111.111111111111,4,1,2,50,0,0
109623,-100,4,1,2,50,0,0
112048,-100,4,1,2,50,0,0
113563,-100,4,1,2,60,0,0
114320,-90.9090909090909,4,1,2,70,0,1
115532,-90.9090909090909,4,1,3,70,0,1
115835,-90.9090909090909,4,1,2,70,0,1
116745,-90.9090909090909,4,1,3,70,0,1
117048,-90.9090909090909,4,1,2,70,0,1
117957,-90.9090909090909,4,1,3,70,0,1
118260,-90.9090909090909,4,1,2,70,0,1
119169,-90.9090909090909,4,1,3,70,0,1
119472,-90.9090909090909,4,1,2,70,0,1
120532,-90.9090909090909,4,1,3,70,0,1
120835,-90.9090909090909,4,1,2,70,0,1
121138,-90.9090909090909,4,1,3,70,0,1
121441,-90.9090909090909,4,1,2,70,0,1
121745,-90.9090909090909,4,1,2,70,0,1
124017,-90.9090909090909,4,1,2,70,0,1
125229,-90.9090909090909,4,1,3,70,0,1
125532,-90.9090909090909,4,1,2,70,0,1
126442,-90.9090909090909,4,1,3,70,0,1
126745,-90.9090909090909,4,1,2,70,0,1
127654,-90.9090909090909,4,1,3,70,0,1
127957,-90.9090909090909,4,1,2,70,0,1
128866,-90.9090909090909,4,1,3,70,0,1
129169,-90.9090909090909,4,1,2,70,0,1
131290,-90.9090909090909,4,1,3,70,0,1
131593,-90.9090909090909,4,1,2,70,0,1
133714,-100,4,1,2,70,0,0
143411,-100,4,1,2,60,0,0
162957,-111.111111111111,4,1,2,50,0,0
170229,-100,4,1,2,40,0,0
172502,-200,4,2,2,50,0,0
190836,-100,4,2,2,50,0,0
191139,-100,4,1,2,50,0,0
191896,-90.9090909090909,4,1,2,70,0,1
193108,-90.9090909090909,4,1,3,70,0,1
193411,-90.9090909090909,4,1,2,70,0,1
194321,-90.9090909090909,4,1,3,70,0,1
194624,-90.9090909090909,4,1,2,70,0,1
195533,-90.9090909090909,4,1,3,70,0,1
195836,-90.9090909090909,4,1,2,70,0,1
196745,-90.9090909090909,4,1,3,70,0,1
197048,-90.9090909090909,4,1,2,70,0,1
198108,-90.9090909090909,4,1,3,70,0,1
198411,-90.9090909090909,4,1,2,70,0,1
198714,-90.9090909090909,4,1,3,70,0,1
199017,-90.9090909090909,4,1,2,70,0,1
199320,-90.9090909090909,4,1,2,70,0,1
201593,-90.9090909090909,4,1,2,70,0,1
202805,-90.9090909090909,4,1,3,70,0,1
203108,-90.9090909090909,4,1,2,70,0,1
204018,-90.9090909090909,4,1,3,70,0,1
204321,-90.9090909090909,4,1,2,70,0,1
205230,-90.9090909090909,4,1,3,70,0,1
205533,-90.9090909090909,4,1,2,70,0,1
206442,-90.9090909090909,4,1,3,70,0,1
206745,-90.9090909090909,4,1,2,70,0,1
208866,-90.9090909090909,4,1,3,70,0,1
209169,-90.9090909090909,4,1,2,70,0,1
211290,-90.9090909090909,4,1,2,70,0,0
215078,-117.647058823529,4,1,2,60,0,0
216139,-153.846153846154,4,1,2,60,0,0
217275,-153.846153846154,4,1,2,5,0,0
217351,-100,4,1,2,60,0,0
222351,-100,4,1,2,70,0,0
223411,-100,4,1,2,60,0,0
224775,-200,4,1,2,60,0,0

[Colours]
Combo1 : 184,184,171
Combo2 : 168,61,45
Combo3 : 211,216,48
Combo4 : 29,87,184

[HitObjects]
290,192,533,6,0,L|362:192,1,70,0|0,0:0|0:0,0:0:0:0:
438,161,836,1,0,0:0:0:0:
372,109,987,1,0,0:0:0:0:
168,257,1442,6,0,L|96:257,1,70,0|0,0:0|0:0,0:0:0:0:
22,226,1745,1,0,0:0:0:0:
86,174,1896,1,0,0:0:0:0:
21,119,2048,6,0,L|20:81,3,35,8|0|2|2,0:0|0:0|0:0|0:0,0:0:0:0:
31,58,2351,1,8,0:0:0:0:
113,33,2502,1,8,0:0:0:0:
113,33,2805,6,0,B|184:33|184:33|208:60|208:60|285:60,1,184.800005639649,4|0,0:0|0:0,0:0:0:0:
437,64,3563,1,0,0:0:0:0:
437,64,3714,2,0,B|437:120|437:120|429:136|429:136|429:200,1,123.200003759766,0|4,0:0|0:0,0:0:0:0:
256,325,4472,2,0,B|256:269|256:269|264:253|264:253|264:189,1,123.200003759766,0|0,0:0|0:0,0:0:0:0:
264,203,4926,1,0,0:0:0:0:
170,88,5229,6,0,P|120:145|201:154,1,184.800005639649,4|0,0:0|0:0,0:0:0:0:
330,95,5987,1,4,0:0:0:0:
330,95,6139,2,0,P|391:117|462:93,2,123.200003759766,0|2|0,0:0|0:0|0:0,0:0:0:0:
257,54,6896,2,0,P|239:46|215:43,3,35,8|0|0|0,0:0|0:0|0:0|0:0,0:0:0:0:
196,46,7199,2,0,P|212:121|173:167,1,140,8|0,0:0|0:0,0:0:0:0:
100,205,7654,6,0,P|80:270|135:304,1,140,4|2,0:0|0:0,0:0:0:0:
211,277,8108,2,0,P|246:268|302:287,1,70,8|2,0:0|0:0,0:0:0:0:
346,324,8411,1,8,0:0:0:0:
356,240,8563,1,2,0:0:0:0:
279,273,8714,2,0,P|273:237|283:200,1,70,8|2,0:0|0:0,0:0:0:0:
350,157,9017,6,0,P|383:146|409:124,1,70,8|2,0:0|0:0,0:0:0:0:
423,41,9320,2,0,P|397:17|364:5,1,70,8|2,0:0|0:0,0:0:0:0:
286,36,9623,2,0,P|278:69|284:104,1,70,8|8,0:0|0:3,0:0:0:0:
350,157,9926,1,8,0:0:0:0:
280,204,10078,6,0,P|208:179|154:215,1,140,4|2,0:0|0:0,0:0:0:0:
114,281,10533,2,0,P|117:212|56:161,1,140,8|8,0:0|0:0,0:0:0:0:
37,243,10987,1,2,0:0:0:0:
114,281,11139,2,0,L|194:281,1,70,8|2,0:0|0:0,0:0:0:0:
250,229,11442,6,0,L|320:229,1,70,8|2,0:0|0:0,0:0:0:0:
389,181,11745,1,8,0:0:0:0:
311,150,11896,1,2,0:0:0:0:
380,102,12048,2,0,P|443:125|462:207,1,140,8|8,0:0|0:0,0:0:0:0:
424,262,12502,6,0,B|360:278|344:246|280:262,1,140,4|2,0:0|0:0,0:0:0:0:
202,275,12957,2,0,P|164:224|186:146,1,140,8|2,0:0|0:0,0:0:0:0:
239,95,13411,1,2,0:0:0:0:
169,57,13563,1,8,0:0:0:0:
169,57,13714,6,0,B|96:57|96:57|48:104,1,140,0|2,0:0|0:0,0:0:0:0:
19,183,14169,2,0,P|15:219|40:270,1,70,8|0,0:0|0:0,0:0:0:0:
84,311,14472,2,0,P|120:315|171:290,1,70,2|2,0:0|0:0,0:0:0:0:
215,249,14775,1,8,0:0:0:0:
215,249,14926,6,0,P|255:197|214:120,1,140,2|2,0:0|0:0,0:0:0:0:
167,79,15381,2,0,P|220:101|296:64,1,140,8|2,0:0|0:0,0:0:0:0:
353,11,15836,1,2,0:0:0:0:
431,53,15987,1,8,0:0:0:0:
431,53,16139,6,0,B|473:110|473:110|451:196,1,140,2|2,0:0|0:0,0:0:0:0:
415,250,16593,2,0,B|373:193|373:193|390:125,1,140,8|2,0:0|0:0,0:0:0:0:
456,177,17048,1,2,0:0:0:0:
415,250,17199,1,8,0:0:0:0:
369,320,17351,6,0,B|336:274|336:274|225:274,1,140,4|2,0:0|0:0,0:0:0:0:
171,254,17805,2,0,P|158:223|170:188,1,70,8|0,0:0|0:0,0:0:0:0:
223,125,18108,2,0,P|233:92|220:60,1,70,2|2,0:0|0:0,0:0:0:0:
151,23,18411,1,8,0:0:0:0:
151,23,18563,6,0,P|203:38|292:23,1,140,2|2,0:0|0:0,0:0:0:0:
368,6,19017,2,0,P|358:47|376:93,1,70,8|0,0:0|0:0,0:0:0:0:
408,145,19320,1,2,0:0:0:0:
361,216,19472,1,2,0:0:0:0:
275,200,19623,1,8,0:0:0:0:
361,216,19775,6,0,P|352:275|415:308,1,140,2|2,0:0|0:0,0:0:0:0:
485,262,20229,2,0,P|507:194|475:107,1,140,8|2,0:0|0:0,0:0:0:0:
437,64,20684,1,2,0:0:0:0:
367,109,20836,1,8,0:0:0:0:
367,109,20987,6,0,P|297:116|229:102,1,140,2|2,0:0|0:0,0:0:0:0:
154,65,21442,2,0,P|118:60|83:65,1,70,8|0,0:0|0:0,0:0:0:0:
31,129,21745,2,0,P|29:156|31:179,3,35,8|0|0|0,0:0|0:0|0:0|0:0,0:0:0:0:
50,183,22048,2,0,P|70:222|55:272,1,70,8|0,0:0|0:0,0:0:0:0:
53,319,22351,6,0,P|101:287|186:312,1,123.200003759766,4|2,0:0|0:0,0:0:0:0:
223,338,22805,2,0,P|282:346|333:313,2,123.200003759766,0|0|0,0:0|0:0|0:0,0:0:0:0:
163,294,23563,6,0,P|132:239|162:171,1,123.200003759766,2|2,0:0|0:0,0:0:0:0:
275,109,24169,2,0,L|356:109,1,61.6000018798829,2|0,0:0|0:0,0:0:0:0:
348,182,24472,2,0,L|429:182,1,61.6000018798829,2|0,0:0|0:0,0:0:0:0:
464,232,24775,6,0,P|477:307|447:340,1,123.200003759766,2|2,0:0|0:0,0:0:0:0:
379,360,25229,2,0,P|305:367|254:349,2,123.200003759766,0|0|0,0:0|0:0|0:0,0:0:0:0:
449,338,25987,6,0,P|455:278|413:236,1,123.200003759766,2|2,0:0|0:0,0:0:0:0:
268,265,26593,2,0,L|187:265,1,61.6000018798829,2|0,0:0|0:0,0:0:0:0:
193,192,26896,2,0,L|254:192,1,61.6000018798829,2|0,0:0|0:0,0:0:0:0:
324,166,27199,6,0,P|338:106|305:52,1,123.200003759766,2|2,0:0|0:0,0:0:0:0:
267,116,27654,2,0,P|237:63|256:5,2,123.200003759766,0|0|0,0:0|0:0|0:0,0:0:0:0:
309,55,28411,5,2,0:0:0:0:
363,192,28714,2,0,L|506:192,2,123.200003759766,2|2|2,0:0|0:0|0:0,0:0:0:0:
293,167,29472,1,0,0:0:0:0:
250,227,29623,6,0,P|254:273|183:317,1,123.200003759766,2|2,0:0|0:0,0:0:0:0:
131,286,30078,2,0,P|117:254|123:213,1,61.6000018798829,0|2,0:0|0:0,0:0:0:0:
148,160,30381,2,0,P|203:134|212:59,1,123.200003759766,8|4,0:0|0:0,0:0:0:0:
60,35,30987,5,2,0:0:0:0:
60,35,31139,2,0,L|60:114,1,70,8|0,0:0|0:0,0:0:0:0:
9,172,31442,2,0,L|9:242,1,70,2|2,0:0|0:0,0:0:0:0:
69,301,31745,2,0,L|119:293,3,35,8|0|8|8,0:0|0:0|0:0|0:0,0:0:0:0:
145,288,32048,6,0,P|204:269|272:316,1,140,4|8,0:0|0:0,0:0:0:0:
323,369,32502,2,0,P|305:294|347:228,1,140,0|2,0:0|0:0,0:0:0:0:
397,187,32957,1,8,0:0:0:0:
458,130,33108,6,0,P|469:93|456:50,2,70,2|0|2,0:0|0:0|0:0,0:0:0:0:
397,187,33563,1,8,0:0:0:0:
327,141,33714,1,0,0:0:0:0:
256,187,33866,2,0,L|172:187,1,70,2|2,0:0|0:0,0:0:0:0:
182,103,34169,2,0,L|270:103,1,70,8|0,0:0|0:0,0:0:0:0:
327,141,34472,6,0,P|362:213|337:283,1,140,2|8,0:0|0:0,0:0:0:0:
287,326,34926,2,0,B|239:342|199:310|143:326,1,140,2|2,0:0|0:0,0:0:0:0:
72,361,35381,1,8,0:0:0:0:
15,300,35533,6,0,P|-3:240|65:207,1,140,2|2,0:0|0:0,0:0:0:0:
131,240,35987,1,8,0:0:0:0:
185,175,36139,1,0,0:0:0:0:
235,242,36290,2,0,P|233:276|258:316,1,70,2|2,0:0|0:0,0:0:0:0:
331,325,36593,2,0,P|332:290|317:259,1,70,8|0,0:0|0:0,0:0:0:0:
235,242,36896,6,0,P|200:185|235:129,1,140,2|8,0:0|0:0,0:0:0:0:
320,129,37351,2,0,L|473:129,1,140,2|2,0:0|0:0,0:0:0:0:
508,60,37805,1,8,0:0:0:0:
437,14,37957,6,0,L|297:14,1,140,2|2,0:0|0:0,0:0:0:0:
229,63,38411,2,0,P|264:123|234:184,1,140,8|2,0:0|0:0,0:0:0:0:
179,244,38866,1,2,0:0:0:0:
97,227,39017,2,0,L|83:157,1,70,8|0,0:0|0:0,0:0:0:0:
65,76,39320,6,0,P|139:95|201:62,1,140,2|8,0:0|0:0,0:0:0:0:
259,16,39775,2,0,P|317:52|385:42,1,140,2|2,0:0|0:0,0:0:0:0:
460,5,40229,1,8,0:0:0:0:
509,73,40381,6,0,L|472:215,1,140,2|2,0:0|0:0,0:0:0:0:
425,277,40836,1,8,0:0:0:0:
508,285,40987,1,2,0:0:0:0:
474,208,41139,2,0,L|388:208,1,70,8|2,0:0|0:0,0:0:0:0:
327,173,41442,2,0,P|312:141|318:100,1,70,8|2,0:0|0:0,0:0:0:0:
324,80,41669,1,2,0:0:0:0:
332,57,41745,6,0,P|271:74|207:42,1,125.999996154785,4|0,0:0|0:0,0:0:0:0:
150,13,42199,1,2,0:0:0:0:
98,68,42351,1,8,0:0:0:0:
98,68,42502,2,0,P|107:104|90:147,1,62.9999980773926,0|0,0:0|0:0,0:0:0:0:
127,199,42805,6,0,P|187:185|240:217,1,125.999996154785,0|8,0:0|0:0,0:0:0:0:
300,262,43260,2,0,L|363:262,1,62.9999980773926,2|2,0:0|0:0,0:0:0:0:
407,200,43563,2,0,L|407:137,1,62.9999980773926,8|2,0:0|0:0,0:0:0:0:
363,75,43866,2,0,L|300:75,1,62.9999980773926,0|2,0:0|0:0,0:0:0:0:
256,137,44169,6,0,P|269:200|234:266,1,125.999996154785,2|8,0:0|0:0,0:0:0:0:
190,306,44623,1,0,0:0:0:0:
124,268,44775,1,2,0:0:0:0:
124,268,44926,6,0,P|99:315|13:336,2,125.999996154785,2|8|2,0:0|0:0|0:0,0:0:0:0:
124,192,45684,2,0,P|140:135|106:80,1,125.999996154785,8|0,0:0|0:0,0:0:0:0:
67,145,46139,2,0,L|3:145,1,62.9999980773926,2|8,0:0|0:0,0:0:0:0:
0,220,46442,6,0,L|0:346,1,125.999996154785,4|2,0:0|0:0,0:0:0:0:
76,346,46896,2,0,L|76:209,2,125.999996154785,0|8|2,0:0|0:0|0:0,0:0:0:0:
152,346,47654,1,0,0:0:0:0:
227,346,47805,6,0,L|364:346,1,125.999996154785,2|0,0:0|0:0,0:0:0:0:
413,300,48260,1,2,0:0:0:0:
444,231,48411,2,0,P|457:174|419:112,1,125.999996154785,8|8,0:0|0:0,0:0:0:0:
366,71,48866,1,10,0:0:0:0:
345,61,48942,1,2,0:0:0:0:
320,61,49017,6,0,P|273:92|185:65,1,140,4|2,0:0|0:0,0:0:0:0:
123,32,49472,2,0,L|112:133,1,70,0|2,0:0|0:0,0:0:0:0:
41,62,49775,2,0,L|30:163,1,70,0|2,0:0|0:0,0:0:0:0:
23,215,50078,6,0,P|42:273|119:281,1,140,0|0,0:0|0:0,0:0:0:0:
183,238,50532,2,0,P|218:235|276:258,1,70,2|0,0:0|0:0,0:0:0:0:
329,289,50836,1,2,0:0:0:0:
329,289,50987,1,0,0:0:0:0:
403,246,51139,1,2,0:0:0:0:
403,246,51290,1,0,0:0:0:0:
358,175,51442,6,0,P|331:134|348:85,1,105,2|0,0:0|0:0,0:0:0:0:
362,60,51745,2,0,L|292:63,1,70,2|0,0:0|0:0,0:0:0:0:
226,116,52048,2,0,L|156:112,1,70,2|2,0:0|0:0,0:0:0:0:
79,78,52351,1,2,0:0:0:0:
2,45,52502,1,8,0:0:0:0:
2,45,52957,6,0,B|10:100|10:100|-3:118|-3:118|8:189,1,140,0|0,0:0|0:0,0:0:0:0:
88,197,53411,2,0,B|80:144|80:144|120:102,1,105,0|0,0:0|0:0,0:0:0:0:
144,116,53714,6,0,P|187:188|143:273,1,154.000004699707,4|2,0:0|0:0,0:0:0:0:
133,336,54169,2,0,L|285:307,1,154.000004699707,8|2,0:0|0:0,0:0:0:0:
346,239,54623,1,2,0:0:0:0:
431,280,54775,1,8,0:0:0:0:
471,197,54926,6,0,P|496:138|431:64,1,154.000004699707,10|2,0:0|0:0,0:0:0:0:
362,35,55381,2,0,L|200:35,1,154.000004699707,8|2,0:0|0:0,0:0:0:0:
241,120,55836,2,0,L|318:120,1,77.0000023498536,2|8,0:0|0:0,0:0:0:0:
389,179,56139,6,0,P|401:269|342:304,1,154.000004699707,10|2,0:0|0:0,0:0:0:0:
269,330,56593,2,0,P|234:309|195:307,1,77.0000023498536,8|0,0:0|0:0,0:0:0:0:
121,355,56896,1,2,0:0:0:0:
121,355,57048,2,0,L|34:353,1,77.0000023498536,2|0,0:0|0:0,0:0:0:0:
2,270,57351,2,0,L|-1:110,1,154.000004699707,2|10,0:0|0:0,0:0:0:0:
51,40,57805,6,0,P|74:68|78:134,1,77.0000023498536,8|0,0:0|0:0,0:0:0:0:
154,174,58108,1,2,0:0:0:0:
154,174,58260,2,0,L|236:142,1,77.0000023498536,2|8,0:0|0:0,0:0:0:0:
310,108,58563,6,0,P|303:176|383:222,1,154.000004699707,14|2,0:0|0:0,0:0:0:0:
450,183,59017,2,0,P|472:150|467:106,1,77.0000023498536,8|0,0:0|0:0,0:0:0:0:
403,50,59320,2,0,B|339:50|339:50|315:66|315:66|243:66,1,154.000004699707,2|8,0:0|0:0,0:0:0:0:
167,31,59775,1,0,0:0:0:0:
106,100,59926,6,0,P|147:163|116:241,2,154.000004699707,10|8|10,0:0|0:0|0:0,0:0:0:0:
27,51,60684,1,2,0:0:0:0:
17,143,60836,2,0,L|21:226,1,77.0000023498536,8|2,0:0|0:0,0:0:0:0:
49,308,61139,6,0,P|91:304|136:324,1,77.0000023498536,8|2,0:0|0:0,0:0:0:0:
207,365,61442,1,2,0:0:0:0:
207,365,61593,2,0,P|269:370|331:305,2,154.000004699707,12|8|10,0:0|0:0|0:0,0:0:0:0:
123,315,62351,6,0,P|83:243|129:170,1,154.000004699707,0|8,0:0|0:0,0:0:0:0:
174,117,62805,1,2,0:0:0:0:
262,146,62957,2,0,L|320:140,3,38.5000011749268,8|8|8|8,0:0|0:0|0:0|0:0,0:0:0:0:
328,128,63260,1,8,0:0:0:0:
405,177,63411,6,0,P|428:239|371:306,1,154.000004699707,4|2,0:0|0:0,0:0:0:0:
288,324,63866,2,0,L|122:325,1,154.000004699707,8|2,0:0|0:0,0:0:0:0:
55,277,64320,1,2,0:0:0:0:
134,229,64472,1,8,0:0:0:0:
65,167,64623,6,0,P|46:135|57:87,2,77.0000023498536,8|0|2,0:0|0:0|0:0,0:0:0:0:
134,229,65078,2,0,P|186:177|175:93,1,154.000004699707,8|2,0:0|0:0,0:0:0:0:
127,26,65532,2,0,P|165:32|215:19,1,77.0000023498536,2|8,0:0|0:0,0:0:0:0:
294,10,65836,6,0,P|295:102|353:117,1,154.000004699707,10|2,0:0|0:0,0:0:0:0:
429,90,66290,2,0,P|419:127|441:179,1,77.0000023498536,8|0,0:0|0:0,0:0:0:0:
485,236,66593,1,2,0:0:0:0:
485,236,66745,2,0,L|501:328,1,77.0000023498536,2|0,0:0|0:0,0:0:0:0:
427,371,67048,2,0,L|397:201,1,154.000004699707,2|10,0:0|0:0,0:0:0:0:
413,128,67502,6,0,P|371:131|336:152,1,77.0000023498536,8|2,0:0|0:0,0:0:0:0:
272,212,67805,2,0,L|210:212,3,38.5000011749268,8|0|2|0,0:0|0:0|0:0|0:0,0:0:0:0:
205,199,68108,1,8,0:0:0:0:
123,244,68260,6,0,P|94:310|162:323,1,154.000004699707,14|2,0:0|0:0,0:0:0:0:
220,262,68714,2,0,B|212:214|212:214|228:166|228:166|220:110,1,154.000004699707,8|2,0:0|0:0,0:0:0:0:
147,54,69169,1,2,0:0:0:0:
77,114,69320,6,0,P|61:173|130:243,2,154.000004699707,8|2|8,0:0|0:0|0:0,0:0:0:0:
147,54,70078,1,0,0:0:0:0:
227,99,70229,2,0,L|324:99,1,77.0000023498536,2|2,0:0|0:0,0:0:0:0:
389,59,70533,1,8,0:0:0:0:
389,59,70684,6,0,P|425:153|372:195,1,154.000004699707,10|2,0:0|0:0,0:0:0:0:
323,238,71139,2,0,P|286:226|238:235,1,77.0000023498536,8|0,0:0|0:0,0:0:0:0:
164,263,71442,1,2,0:0:0:0:
76,234,71593,1,2,0:0:0:0:
164,263,71745,2,0,P|158:221|187:168,1,77.0000023498536,8|0,0:0|0:0,0:0:0:0:
225,115,72048,6,0,P|286:145|365:115,1,154.000004699707,2|8,0:0|0:0,0:0:0:0:
434,59,72502,1,2,0:0:0:0:
501,122,72654,2,0,B|468:279,1,154.000004699707,8|8,0:0|0:0,0:0:0:0:
420,340,73108,6,0,B|356:356|340:324|276:340,1,140,4|2,0:0|0:0,0:0:0:0:
198,353,73563,2,0,P|160:302|182:224,1,140,8|2,0:0|0:0,0:0:0:0:
235,173,74017,1,2,0:0:0:0:
313,216,74169,1,8,0:0:0:0:
313,216,74320,6,0,P|378:232|434:193,1,140,0|2,0:0|0:0,0:0:0:0:
473,118,74775,2,0,P|470:81|443:52,1,70,8|0,0:0|0:0,0:0:0:0:
375,17,75078,2,0,P|341:6|307:10,1,70,2|2,0:0|0:0,0:0:0:0:
232,43,75381,1,8,0:0:0:0:
232,43,75533,6,0,P|213:103|277:154,1,140,2|2,0:0|0:0,0:0:0:0:
343,178,75987,2,0,P|391:223|373:287,1,140,8|2,0:0|0:0,0:0:0:0:
327,358,76442,1,2,0:0:0:0:
251,336,76593,1,8,0:0:0:0:
251,336,76745,6,0,B|194:378|194:378|108:356,1,140,2|2,0:0|0:0,0:0:0:0:
123,277,77199,2,0,B|55:294|55:294|-1:252,1,140,8|2,0:0|0:0,0:0:0:0:
73,212,77654,1,2,0:0:0:0:
100,135,77805,1,8,0:0:0:0:
100,135,77957,6,0,P|73:72|141:33,1,140,4|2,0:0|0:0,0:0:0:0:
203,19,78411,2,0,P|236:13|266:31,1,70,8|0,0:0|0:0,0:0:0:0:
330,86,78714,2,0,P|359:103|393:98,1,70,2|2,0:0|0:0,0:0:0:0:
471,62,79017,1,8,0:0:0:0:
471,62,79169,6,0,P|435:106|470:188,1,140,2|2,0:0|0:0,0:0:0:0:
485,259,79623,2,0,P|444:249|398:267,1,70,8|0,0:0|0:0,0:0:0:0:
344,296,79926,1,2,0:0:0:0:
272,252,80078,1,2,0:0:0:0:
344,210,80229,1,8,0:0:0:0:
272,252,80381,6,0,P|203:238|146:279,1,140,2|2,0:0|0:0,0:0:0:0:
97,341,80836,2,0,P|118:275|102:208,1,140,8|2,0:0|0:0,0:0:0:0:
74,129,81290,1,2,0:0:0:0:
160,150,81442,1,8,0:0:0:0:
160,150,81593,6,0,P|230:157|298:143,1,140,2|2,0:0|0:0,0:0:0:0:
379,122,82048,2,0,P|376:158|392:192,1,70,8|0,0:0|0:0,0:0:0:0:
468,218,82351,2,0,P|466:245|468:268,3,35,8|2|2|2,0:0|0:0|0:0|0:0,0:0:0:0:
487,272,82654,2,0,P|507:311|492:361,1,70,8|2,0:0|0:0,0:0:0:0:
433,380,82957,5,4,0:0:0:0:
396,63,92048,6,0,L|388:158,1,70,2|2,0:0|0:0,0:0:0:0:
328,190,92351,2,0,L|320:285,1,70,8|8,0:0|0:0,0:0:0:0:
308,284,92578,1,8,0:0:0:0:
285,301,92654,6,0,P|236:290|150:313,1,140,4|8,0:0|0:0,0:0:0:0:
76,350,93108,2,0,P|41:296|62:218,1,140,2|2,0:0|0:0,0:0:0:0:
111,162,93563,1,8,0:0:0:0:
59,96,93714,6,0,P|54:61|73:26,2,70,2|0|2,0:0|0:0|0:0,0:0:0:0:
111,162,94169,2,0,L|191:170,1,70,8|0,0:0|0:0,0:0:0:0:
255,130,94472,2,0,L|324:123,1,70,2|2,0:0|0:0,0:0:0:0:
408,111,94775,2,0,P|401:152|436:197,1,70,8|0,0:0|0:0,0:0:0:0:
458,247,95078,6,0,P|468:340|412:364,1,140,2|8,0:0|0:0,0:0:0:0:
358,383,95532,2,0,P|295:386|208:368,2,140,0|2|2,0:0|0:0|0:0,0:0:0:0:
438,360,96290,6,0,P|477:373|526:370,2,70,0|2|8,0:0|0:0|0:0,0:0:0:0:
375,304,96745,1,0,0:0:0:0:
311,249,96896,2,0,P|326:215|320:179,1,70,2|2,0:0|0:0,0:0:0:0:
272,115,97199,2,0,P|268:80|283:49,1,70,8|0,0:0|0:0,0:0:0:0:
363,23,97502,6,0,P|411:91|386:140,1,140,2|8,0:0|0:0,0:0:0:0:
321,183,97957,2,0,P|268:164|189:185,1,140,0|2,0:0|0:0,0:0:0:0:
112,217,98411,1,8,0:0:0:0:
38,175,98563,6,0,P|24:107|71:60,1,140,0|2,0:0|0:0,0:0:0:0:
153,51,99017,2,0,L|245:46,1,70,8|0,0:0|0:0,0:0:0:0:
263,121,99320,2,0,L|193:124,1,70,2|2,0:0|0:0,0:0:0:0:
164,204,99623,2,0,L|233:200,1,70,8|0,0:0|0:0,0:0:0:0:
316,218,99926,6,0,P|338:289|295:339,1,140,2|8,0:0|0:0,0:0:0:0:
220,361,100381,2,0,P|154:374|105:328,1,140,0|2,0:0|0:0,0:0:0:0:
62,256,100836,1,8,0:0:0:0:
129,206,100987,6,0,L|271:177,1,140,2|2,0:0|0:0,0:0:0:0:
341,139,101442,2,0,P|341:172|365:203,1,70,8|2,0:0|0:0,0:0:0:0:
422,260,101745,2,0,P|442:287|443:322,1,70,0|2,0:0|0:0,0:0:0:0:
371,365,102048,2,0,P|334:352|277:360,1,70,8|8,0:0|0:0,0:0:0:0:
225,361,102351,6,0,P|192:321|208:240,1,125.999996154785,4|0,0:0|0:0,0:0:0:0:
241,187,102805,1,2,0:0:0:0:
295,134,102957,1,8,0:0:0:0:
236,86,103108,2,0,P|227:50|244:15,1,62.9999980773926,0|2,0:0|0:0,0:0:0:0:
310,23,103411,6,0,P|368:46|428:30,1,125.999996154785,0|8,0:0|0:0,0:0:0:0:
497,60,103866,2,0,P|506:89|496:124,1,62.9999980773926,2|2,0:0|0:0,0:0:0:0:
436,163,104169,2,0,P|428:193|437:223,1,62.9999980773926,8|2,0:0|0:0,0:0:0:0:
507,252,104472,2,0,P|514:221|505:191,1,62.9999980773926,0|0,0:0|0:0,0:0:0:0:
437,223,104775,6,0,P|386:206|318:237,1,125.999996154785,0|8,0:0|0:0,0:0:0:0:
263,280,105229,1,0,0:0:0:0:
212,224,105381,1,2,0:0:0:0:
235,152,105532,6,0,P|299:152|335:104,2,125.999996154785,2|8|2,0:0|0:0|0:0,0:0:0:0:
174,107,106290,2,0,P|178:164|113:224,1,125.999996154785,8|2,0:0|0:0,0:0:0:0:
70,252,106745,2,0,P|68:287|79:322,1,62.9999980773926,2|8,0:0|0:0,0:0:0:0:
140,353,107048,6,0,L|266:353,1,125.999996154785,4|2,0:0|0:0,0:0:0:0:
266,278,107502,2,0,L|140:278,2,125.999996154785,0|8|2,0:0|0:0|0:0,0:0:0:0:
318,223,108260,1,0,0:0:0:0:
264,170,108411,6,0,L|264:33,1,125.999996154785,2|2,0:0|0:0,0:0:0:0:
200,3,108866,1,0,0:0:0:0:
132,35,109017,2,0,P|103:90|117:149,1,125.999996154785,8|8,0:0|0:0,0:0:0:0:
168,206,109472,1,8,0:0:0:0:
173,228,109548,1,8,0:0:0:0:
170,252,109623,6,0,P|134:250|85:261,2,70,4|0|0,0:0|0:0|0:0,0:0:0:0:
246,288,110078,2,0,B|294:272|334:304|390:288,1,140,0|0,0:0|0:0,0:0:0:0:
456,244,110532,1,0,0:0:0:0:
456,244,110684,6,0,P|474:176|413:118,1,140,0|0,0:0|0:0,0:0:0:0:
356,93,111139,2,0,P|319:103|267:95,1,70,2|0,0:0|0:0,0:0:0:0:
210,66,111442,1,2,0:0:0:0:
279,18,111593,1,0,0:0:0:0:
287,101,111745,1,2,0:0:0:0:
218,148,111896,1,0,0:0:0:0:
291,190,112048,6,0,P|301:242|265:282,1,105,2|0,0:0|0:0,0:0:0:0:
247,296,112351,2,0,P|215:286|152:294,1,70,0|0,0:0|0:0,0:0:0:0:
95,291,112654,2,0,P|78:252|96:205,1,70,0|0,0:0|0:0,0:0:0:0:
124,154,112957,1,0,0:0:0:0:
124,154,113108,1,0,0:0:0:0:
289,183,113411,5,0,0:0:0:0:
259,262,113563,2,0,L|161:262,1,70,8|8,0:0|0:0,0:0:0:0:
108,288,113866,1,2,0:0:0:0:
62,217,114017,2,0,P|56:201|54:180,3,35,8|8|8|8,0:3|0:3|0:3|0:3,0:0:0:0:
64,157,114320,6,0,P|134:172|216:122,1,154.000004699707,4|2,0:0|0:0,0:0:0:0:
284,88,114775,2,0,P|295:159|370:190,1,154.000004699707,8|2,0:0|0:0,0:0:0:0:
454,172,115229,1,2,0:0:0:0:
496,255,115381,1,8,0:0:0:0:
421,308,115532,6,0,P|360:288|302:348,1,154.000004699707,10|2,0:0|0:0,0:0:0:0:
209,345,115987,2,0,P|161:289|90:307,1,154.000004699707,8|2,0:0|0:0,0:0:0:0:
7,349,116442,2,0,L|15:272,1,77.0000023498536,2|8,0:0|0:0,0:0:0:0:
28,181,116745,6,0,P|95:175|125:97,1,154.000004699707,10|2,0:0|0:0,0:0:0:0:
77,24,117199,2,0,P|129:68|214:49,1,154.000004699707,8|2,0:0|0:0,0:0:0:0:
291,12,117654,1,2,0:0:0:0:
364,76,117805,1,8,0:0:0:0:
364,76,117957,6,0,P|383:147|330:207,1,154.000004699707,10|2,0:0|0:0,0:0:0:0:
257,251,118411,2,0,P|248:327|317:347,1,154.000004699707,8|2,0:0|0:0,0:0:0:0:
386,296,118866,1,2,0:0:0:0:
470,333,119017,1,8,0:0:0:0:
503,246,119169,6,0,L|509:76,1,154.000004699707,14|2,0:0|0:0,0:0:0:0:
429,45,119623,2,0,L|423:198,2,154.000004699707,8|2|8,0:0|0:0|0:0,0:0:0:0:
341,15,120381,1,0,0:0:0:0:
277,81,120532,6,0,L|176:73,1,77.0000023498536,10|2,0:0|0:0,0:0:0:0:
151,154,120836,2,0,L|227:160,1,77.0000023498536,8|0,0:0|0:0,0:0:0:0:
302,215,121139,2,0,P|319:249|316:316,2,77.0000023498536,10|2|8,0:0|0:0|0:0,0:0:0:0:
227,160,121593,1,2,0:0:0:0:
279,83,121745,6,0,P|318:97|367:90,1,77.0000023498536,8|2,0:0|0:0,0:0:0:0:
438,54,122048,1,2,0:0:0:0:
438,54,122199,2,0,B|430:107|430:107|440:150|440:150|428:227,1,154.000004699707,12|8,0:0|0:0,0:0:0:0:
402,294,122654,1,2,0:0:0:0:
338,228,122805,6,0,P|275:253|310:311,1,154.000004699707,10|2,0:0|0:0,0:0:0:0:
402,294,123260,2,0,P|425:262|424:215,1,77.0000023498536,8|2,0:0|0:0,0:0:0:0:
392,139,123563,2,0,P|385:115|392:89,3,38.5000011749268,8|8|8|8,0:0|0:0|0:0|0:0,0:0:0:0:
395,72,123866,1,8,0:0:0:0:
321,17,124017,6,0,P|256:57|160:37,1,154.000004699707,4|2,0:0|0:0,0:0:0:0:
92,24,124472,2,0,P|49:93|104:165,1,154.000004699707,8|2,0:0|0:0,0:0:0:0:
156,201,124926,1,2,0:0:0:0:
244,172,125078,1,8,0:0:0:0:
295,249,125229,6,0,P|302:291|287:331,2,77.0000023498536,8|0|2,0:0|0:0|0:0,0:0:0:0:
244,172,125684,2,0,P|303:207|381:174,1,154.000004699707,8|2,0:0|0:0,0:0:0:0:
441,110,126139,2,0,P|451:83|436:27,1,77.0000023498536,2|8,0:0|0:0,0:0:0:0:
354,8,126442,6,0,P|308:46|215:32,1,154.000004699707,10|2,0:0|0:0,0:0:0:0:
129,15,126896,2,0,P|151:90|90:136,1,154.000004699707,8|2,0:0|0:0,0:0:0:0:
13,166,127351,1,2,0:0:0:0:
83,225,127502,1,8,0:0:0:0:
100,134,127654,6,0,B|156:134|156:134|188:118|188:118|268:118,1,154.000004699707,10|2,0:0|0:0,0:0:0:0:
297,197,128108,2,0,B|234:197|234:197|202:213|202:213|146:213,1,154.000004699707,8|8,0:0|0:0,0:0:0:0:
71,266,128563,1,2,0:0:0:0:
136,338,128714,1,8,0:0:0:0:
136,338,128866,6,0,P|179:283|126:203,1,154.000004699707,14|2,0:0|0:0,0:0:0:0:
70,163,129320,2,0,P|37:97|81:38,1,154.000004699707,8|2,0:0|0:0,0:0:0:0:
171,14,129775,1,2,0:0:0:0:
227,87,129926,2,0,L|320:83,1,77.0000023498536,8|0,0:0|0:0,0:0:0:0:
382,133,130229,6,0,L|458:136,1,77.0000023498536,2|0,0:0|0:0,0:0:0:0:
498,220,130532,2,0,L|422:217,1,77.0000023498536,8|0,0:0|0:0,0:0:0:0:
377,299,130836,2,0,L|301:296,1,77.0000023498536,2|2,0:0|0:0,0:0:0:0:
211,292,131139,1,8,0:0:0:0:
211,292,131290,6,0,P|168:247|188:136,1,154.000004699707,10|2,0:0|0:0,0:0:0:0:
229,88,131745,2,0,P|245:56|232:-8,2,77.0000023498536,8|0|2,0:0|0:0|0:0,0:0:0:0:
170,159,132199,1,2,0:0:0:0:
84,125,132351,6,0,P|48:49|96:0,2,154.000004699707,8|2|8,0:0|0:0|0:0,0:0:0:0:
170,159,133108,1,2,0:0:0:0:
236,224,133260,2,0,L|230:269,3,38.5000011749268,8|8|8|8,0:0|0:0|0:0|0:0,0:0:0:0:
213,287,133563,1,8,0:0:0:0:
256,358,133714,5,4,0:0:0:0:
256,192,133866,12,2,136290,0:0:0:0:
393,58,142654,6,0,P|376:86|382:143,1,70,8|2,0:0|0:0,0:0:0:0:
398,212,142957,1,8,0:0:0:0:
398,212,143033,1,0,0:0:0:0:
398,212,143108,2,0,L|389:265,3,35,8|8|2|0,0:0|0:0|0:0|0:0,0:0:0:0:
383,273,143411,6,0,P|317:254|237:268,1,140,4|2,0:0|0:0,0:0:0:0:
167,291,143866,1,8,0:0:0:0:
228,348,144017,1,0,0:0:0:0:
247,263,144169,2,0,L|241:188,1,70,2|2,0:0|0:0,0:0:0:0:
295,128,144472,2,0,L|300:58,1,70,8|2,0:0|0:0,0:0:0:0:
375,19,144775,5,0,0:0:0:0:
372,102,144926,1,2,0:0:0:0:
300,58,145078,1,8,0:0:0:0:
231,31,145229,1,0,0:0:0:0:
231,31,145305,1,0,0:0:0:0:
231,31,145381,2,0,P|195:52|144:45,1,70,2|2,0:0|0:0,0:0:0:0:
87,27,145684,1,8,0:0:0:0:
20,78,145836,6,0,P|14:119|40:167,1,70,2|2,0:0|0:2,0:0:0:0:
83,204,146139,1,2,0:0:0:0:
162,178,146290,2,0,L|251:186,1,70,8|0,0:0|0:0,0:0:0:0:
309,151,146593,2,0,L|345:81,2,70,2|2|8,0:0|0:0|0:0,0:0:0:0:
295,234,147048,6,0,P|342:290|414:269,1,140,2|2,0:0|0:0,0:0:0:0:
471,233,147502,1,8,0:0:0:0:
471,233,147654,2,0,P|501:174|470:110,1,140,0|2,0:0|0:0,0:0:0:0:
412,53,148108,1,8,0:0:0:0:
334,85,148260,6,0,L|249:77,1,70,4|0,0:0|0:0,0:0:0:0:
185,66,148563,1,2,0:0:0:0:
185,66,148714,2,0,L|192:143,1,70,8|0,0:0|0:0,0:0:0:0:
229,211,149017,2,0,L|222:280,1,70,2|2,0:0|0:0,0:0:0:0:
147,314,149320,1,8,0:0:0:0:
147,314,149472,6,0,P|111:252|138:177,1,140,2|2,0:0|0:0,0:0:0:0:
191,135,149926,2,0,P|226:141|276:117,1,70,8|0,0:0|0:0,0:0:0:0:
335,96,150229,1,2,0:0:0:0:
413,127,150381,1,2,0:0:0:0:
335,96,150533,1,8,0:0:0:0:
258,131,150684,6,0,P|293:189|277:255,1,140,2|2,0:0|0:0,0:0:0:0:
215,312,151139,2,0,P|158:272|69:292,1,140,8|2,0:0|0:0,0:0:0:0:
13,310,151593,1,2,0:0:0:0:
90,278,151745,1,8,0:0:0:0:
26,232,151896,6,0,P|1:161|41:92,1,140,2|2,0:0|0:0,0:0:0:0:
101,68,152351,2,0,P|135:79|179:73,1,70,8|0,0:0|0:0,0:0:0:0:
241,32,152654,2,0,P|275:29|308:40,1,70,8|8,0:0|0:3,0:0:0:0:
333,53,152881,1,0,0:0:0:0:
347,76,152957,1,8,0:0:0:0:
391,147,153108,6,0,P|400:214|355:264,1,140,4|2,0:0|0:0,0:0:0:0:
328,271,153487,2,0,P|306:275|280:269,3,35,0|8|0|0,0:0|0:0|0:0|0:0,0:0:0:0:
211,256,153866,2,0,L|220:316,4,35,2|0|2|0|8,0:0|0:0|0:0|0:0|0:0,0:0:0:0:
131,231,154320,6,0,L|138:282,4,35,2|0|0|0|2,0:0|0:0|0:0|0:0|0:0,0:0:0:0:
84,161,154775,1,8,0:0:0:0:
107,83,154926,1,2,0:2:0:0:
107,83,155078,2,0,P|142:95|197:81,1,70,2|2,0:0|0:0,0:0:0:0:
239,38,155381,1,8,0:0:0:0:
309,93,155533,1,2,0:0:0:0:
309,93,155684,6,0,P|295:129|304:164,1,70,0|2,0:0|0:0,0:0:0:0:
353,225,155987,2,0,P|297:194|224:222,1,140,8|2,0:0|0:0,0:0:0:0:
167,274,156442,1,2,0:0:0:0:
89,243,156593,2,0,L|77:161,1,70,8|2,0:0|0:0,0:0:0:0:
9,221,156896,6,0,L|19:290,1,70,0|2,0:0|0:0,0:0:0:0:
80,348,157199,2,0,B|130:352|130:352|166:341|166:341|227:345,1,140,8|2,0:0|0:0,0:0:0:0:
302,350,157654,1,2,0:0:0:0:
353,284,157805,1,8,0:0:0:0:
312,210,157957,6,0,P|273:153|317:88,1,140,4|2,0:0|0:0,0:0:0:0:
363,38,158411,2,0,P|395:46|438:38,1,70,8|0,0:0|0:0,0:0:0:0:
512,16,158714,2,0,L|497:89,1,70,2|2,0:0|0:0,0:0:0:0:
458,163,159017,1,8,0:0:0:0:
458,163,159169,6,0,P|401:126|318:161,1,140,2|2,0:0|0:0,0:0:0:0:
263,190,159623,2,0,P|197:172|140:210,1,140,8|2,0:0|0:0,0:0:0:0:
81,270,160078,1,2,0:0:0:0:
6,231,160229,1,8,0:0:0:0:
30,150,160381,6,0,P|8:87|69:31,1,140,4|2,0:0|0:0,0:0:0:0:
135,37,160836,2,0,P|168:43|216:33,1,70,10|8,0:0|0:3,0:0:0:0:
230,29,161063,1,8,0:3:0:0:
258,32,161139,2,0,P|269:68|257:113,1,70,2|8,0:0|0:3,0:0:0:0:
226,174,161442,1,8,0:0:0:0:
290,235,161593,1,4,0:0:0:0:
290,235,161745,6,0,L|389:226,1,70,8|2,0:0|0:0,0:0:0:0:
413,163,162048,2,0,L|343:156,1,70,8|2,0:0|0:0,0:0:0:0:
265,125,162351,2,0,L|195:131,1,70,8|2,0:3|0:0,0:0:0:0:
121,171,162654,2,0,L|51:164,1,70,2|0,0:0|0:0,0:0:0:0:
0,108,162957,6,0,P|36:170|21:236,1,125.999996154785,4|0,0:0|0:0,0:0:0:0:
1,291,163411,1,2,0:0:0:0:
63,334,163563,1,8,0:0:0:0:
125,291,163714,2,0,P|161:282|212:291,1,62.9999980773926,0|2,0:0|0:0,0:0:0:0:
250,324,164017,6,0,P|227:266|252:209,1,125.999996154785,0|8,0:0|0:0,0:0:0:0:
311,164,164472,2,0,L|374:164,1,62.9999980773926,2|2,0:0|0:0,0:0:0:0:
434,118,164775,2,0,L|434:48,1,62.9999980773926,8|2,0:0|0:0,0:0:0:0:
374,8,165078,2,0,L|311:8,1,62.9999980773926,0|8,0:0|0:0,0:0:0:0:
237,27,165381,6,0,P|213:84|235:141,1,125.999996154785,2|8,0:0|0:0,0:0:0:0:
311,164,165836,1,0,0:0:0:0:
282,234,165987,1,2,0:0:0:0:
282,234,166139,2,0,P|265:287|304:346,1,125.999996154785,2|8,0:0|0:0,0:0:0:0:
374,349,166593,6,0,P|405:353|441:338,1,62.9999980773926,0|2,0:0|0:0,0:0:0:0:
495,297,166896,2,0,P|512:244|473:185,1,125.999996154785,8|2,0:0|0:0,0:0:0:0:
420,137,167351,2,0,L|355:137,1,62.9999980773926,2|8,0:0|0:0,0:0:0:0:
281,137,167654,6,0,L|281:263,1,125.999996154785,4|2,0:0|0:0,0:0:0:0:
205,263,168108,2,0,L|205:137,2,125.999996154785,0|8|2,0:0|0:0|0:0,0:0:0:0:
205,339,168866,1,0,0:0:0:0:
138,305,169017,6,0,L|1:305,1,125.999996154785,2|2,0:0|0:0,0:0:0:0:
0,235,169472,1,0,0:0:0:0:
0,235,169623,2,0,P|-13:180|30:123,1,125.999996154785,8|8,0:0|0:0,0:0:0:0:
99,98,170078,1,10,0:0:0:0:
99,98,170154,1,0,0:0:0:0:
99,98,170229,5,4,0:0:0:0:
256,304,172502,6,0,L|334:304,1,70,4|0,0:0|0:0,0:0:0:0:
368,304,172957,2,0,P|390:264|391:232,1,70,0|0,0:0|0:0,0:0:0:0:
382,199,173411,2,0,P|386:158|406:133,1,70,0|2,0:0|0:0,0:0:0:0:
503,212,174169,2,0,P|499:253|479:278,1,70,0|0,0:0|0:0,0:0:0:0:
454,306,174623,1,0,0:0:0:0:
370,298,174926,6,0,L|294:291,1,70,2|0,0:0|0:0,0:0:0:0:
261,307,175381,2,0,L|185:313,1,70,0|0,0:0|0:0,0:0:0:0:
150,302,175836,2,0,P|134:272|145:229,1,70,0|2,0:0|0:0,0:0:0:0:
41,159,176593,2,0,P|57:191|52:229,1,70,0|0,0:0|0:0,0:0:0:0:
27,256,177048,1,0,0:0:0:0:
55,335,177351,6,0,P|108:318|167:321,1,105,2|0,0:0|0:0,0:0:0:0:
235,349,178108,2,0,P|287:349|308:340,1,70,0|0,0:0|0:0,0:0:0:0:
361,282,178714,2,0,P|371:247|356:201,2,70,2|0|2,0:0|0:0|0:0,0:0:0:0:
303,343,179623,1,0,0:0:0:0:
234,293,179926,6,0,L|151:286,1,70,2|0,0:0|0:0,0:0:0:0:
126,267,180381,2,0,P|107:237|109:193,2,70,0|0|2,0:0|0:0|0:0,0:0:0:0:
242,315,181442,2,0,P|276:298|316:301,1,70,0|0,0:0|0:0,0:0:0:0:
347,309,181896,1,0,0:0:0:0:
418,264,182199,6,0,P|433:223|424:188,1,70,2|0,0:0|0:0,0:0:0:0:
410,160,182654,2,0,P|377:173|330:162,1,70,0|0,0:0|0:0,0:0:0:0:
307,146,183108,2,0,P|259:138|229:145,1,70,0|2,0:0|0:0,0:0:0:0:
127,201,183866,2,0,P|126:252|130:277,1,70,0|0,0:0|0:0,0:0:0:0:
135,312,184320,2,0,P|166:307|181:310,1,35,0|0,0:0|0:0,0:0:0:0:
210,316,184623,6,0,P|255:267|240:222,1,105,2|0,0:0|0:0,0:0:0:0:
206,161,185381,1,0,0:0:0:0:
206,161,185532,2,0,P|187:113|191:88,2,70,0|2|0,0:0|0:0|0:0,0:0:0:0:
223,199,186290,2,0,L|153:202,1,70,0|0,0:0|0:0,0:0:0:0:
110,274,186896,1,0,0:0:0:0:
110,274,187048,6,0,P|68:211|111:125,1,175,2|0,0:0|0:0,0:0:0:0:
186,102,188108,1,0,0:0:0:0:
186,102,188411,2,0,L|270:106,1,70,0|0,0:0|0:0,0:0:0:0:
331,69,189017,2,0,L|415:65,1,70,2|0,0:0|0:0,0:0:0:0:
440,50,189472,1,2,0:0:0:0:
256,192,189623,12,0,190836,0:0:0:0:
171,316,191139,6,0,P|216:365|282:352,1,140,0|0,0:0|0:0,0:0:0:0:
358,318,191593,1,0,0:0:0:0:
448,157,191896,6,0,P|378:172|296:122,1,154.000004699707,4|2,0:0|0:0,0:0:0:0:
228,88,192351,2,0,P|217:159|142:190,1,154.000004699707,8|2,0:0|0:0,0:0:0:0:
58,172,192805,1,2,0:0:0:0:
16,255,192957,1,8,0:0:0:0:
91,308,193108,6,0,P|152:288|210:348,1,154.000004699707,10|2,0:0|0:0,0:0:0:0:
303,345,193563,2,0,P|351:289|422:307,1,154.000004699707,8|2,0:0|0:0,0:0:0:0:
505,349,194017,2,0,L|497:272,1,77.0000023498536,2|8,0:0|0:0,0:0:0:0:
484,181,194320,6,0,P|417:175|387:97,1,154.000004699707,10|2,0:0|0:0,0:0:0:0:
435,24,194775,2,0,P|383:68|298:49,1,154.000004699707,8|2,0:0|0:0,0:0:0:0:
221,12,195229,1,2,0:0:0:0:
148,76,195381,1,8,0:0:0:0:
148,76,195532,6,0,P|129:147|174:207,1,154.000004699707,10|2,0:0|0:0,0:0:0:0:
226,127,195987,2,0,P|302:118|322:187,1,154.000004699707,8|2,0:0|0:0,0:0:0:0:
256,242,196442,1,2,0:0:0:0:
174,207,196593,1,8,0:0:0:0:
98,260,196745,6,0,P|85:319|164:367,1,154.000004699707,14|2,0:0|0:0,0:0:0:0:
238,333,197199,2,0,B|294:328|294:328|334:341|334:341|395:335,2,154.000004699707,8|2|8,0:0|0:0|0:0,0:0:0:0:
153,368,197957,1,0,0:0:0:0:
76,317,198108,6,0,P|96:288|77:231,1,77.0000023498536,10|2,0:0|0:0,0:0:0:0:
41,170,198411,2,0,P|35:132|56:101,1,77.0000023498536,8|0,0:0|0:0,0:0:0:0:
134,49,198714,2,0,P|184:41|235:63,2,77.0000023498536,10|2|8,0:0|0:0|0:0,0:0:0:0:
56,101,199169,1,2,0:0:0:0:
129,157,199320,6,0,P|161:182|180:234,1,77.0000023498536,8|2,0:0|0:0,0:0:0:0:
198,310,199623,1,2,0:0:0:0:
198,310,199775,1,12,0:0:0:0:
372,370,200078,1,8,0:0:0:0:
360,185,200381,6,0,P|297:159|332:101,1,154.000004699707,10|2,0:0|0:0,0:0:0:0:
422,127,200836,2,0,P|444:163|442:206,1,77.0000023498536,8|2,0:0|0:0,0:0:0:0:
423,287,201139,2,0,P|416:311|397:329,3,38.5000011749268,8|8|8|8,0:0|0:0|0:0|0:0,0:0:0:0:
386,342,201442,1,8,0:0:0:0:
296,322,201593,6,0,P|246:256|282:188,1,154.000004699707,4|2,0:0|0:0,0:0:0:0:
316,116,202048,2,0,P|227:122|170:96,1,154.000004699707,8|2,0:0|0:0,0:0:0:0:
93,43,202502,1,2,0:0:0:0:
20,100,202654,1,8,0:0:0:0:
95,152,202805,6,0,P|112:193|105:236,2,77.0000023498536,8|0|2,0:0|0:0|0:0,0:0:0:0:
20,100,203260,2,0,P|-9:168|19:241,1,154.000004699707,8|2,0:0|0:0,0:0:0:0:
73,314,203714,2,0,P|104:303|157:315,1,77.0000023498536,2|8,0:0|0:0,0:0:0:0:
228,354,204017,6,0,P|299:368|368:320,1,154.000004699707,10|2,0:0|0:0,0:0:0:0:
397,239,204472,2,0,P|407:166|345:126,1,154.000004699707,8|2,0:0|0:0,0:0:0:0:
267,175,204926,1,2,0:0:0:0:
203,107,205078,1,8,0:0:0:0:
278,53,205229,6,0,B|340:53|340:53|372:37|372:37|428:37,1,154.000004699707,10|2,0:0|0:0,0:0:0:0:
496,99,205684,2,0,B|496:162|496:162|480:194|480:194|480:250,1,154.000004699707,8|8,0:0|0:0,0:0:0:0:
427,325,206139,1,2,0:0:0:0:
352,281,206290,1,8,0:0:0:0:
352,281,206442,6,0,P|286:253|206:285,1,154.000004699707,14|2,0:0|0:0,0:0:0:0:
145,343,206896,2,0,P|178:277|134:218,1,154.000004699707,8|2,0:0|0:0,0:0:0:0:
57,168,207351,1,2,0:0:0:0:
129,111,207502,2,0,L|205:114,1,77.0000023498536,8|0,0:0|0:0,0:0:0:0:
292,148,207805,6,0,L|368:145,1,77.0000023498536,2|0,0:0|0:0,0:0:0:0:
459,125,208108,1,8,0:0:0:0:
396,56,208260,1,0,0:0:0:0:
368,144,208411,2,0,P|362:184|371:220,1,77.0000023498536,2|2,0:0|0:0,0:0:0:0:
429,297,208714,1,8,0:0:0:0:
429,297,208866,6,0,P|384:254|273:274,1,154.000004699707,10|2,0:0|0:0,0:0:0:0:
222,312,209320,2,0,P|238:344|225:408,2,77.0000023498536,8|0|2,0:0|0:0|0:0,0:0:0:0:
137,275,209775,1,2,0:0:0:0:
75,205,209926,6,0,P|71:120|135:80,2,154.000004699707,8|2|8,0:0|0:0|0:0,0:0:0:0:
137,275,210684,1,2,0:0:0:0:
222,312,210836,2,0,P|254:296|287:297,3,38.5000011749268,8|8|8|8,0:0|0:0|0:0|0:0,0:0:0:0:
287,294,211139,1,8,0:0:0:0:
377,312,211290,6,0,P|419:252|394:163,1,154.000004699707,4|2,0:0|0:0,0:0:0:0:
339,111,211745,2,0,P|299:121|247:110,1,77.0000023498536,8|2,0:0|0:0,0:0:0:0:
191,59,212048,2,0,P|152:54|115:64,1,77.0000023498536,8|2,0:0|0:0,0:0:0:0:
38,116,212351,2,0,P|60:155|58:209,1,77.0000023498536,8|2,0:0|0:0,0:0:0:0:
19,268,212654,6,0,P|17:329|106:384,2,154.000004699707,8|8|8,0:0|0:0|0:0,0:0:0:0:
62,186,213411,1,8,0:3:0:0:
152,222,213563,1,8,0:0:0:0:
152,222,213714,6,0,P|220:240|290:193,1,154.000004699707,4|2,0:0|0:0,0:0:0:0:
339,120,214169,2,0,P|351:83|340:40,1,77.0000023498536,8|2,0:0|0:0,0:0:0:0:
262,2,214472,2,0,P|250:38|257:75,1,77.0000023498536,8|2,0:0|0:0,0:0:0:0:
339,120,214775,2,0,P|382:165|369:221,1,115.50000352478,8|2,0:0|0:0,0:0:0:0:
359,238,215078,6,0,B|318:253|276:225|228:239,2,119.000002269745,0|0|0,0:0|0:0|0:0,0:0:0:0:
397,78,216139,6,0,P|496:157|356:236,1,341.249984378815,0|0,0:0|0:0,0:0:0:0:
331,230,217351,6,0,B|267:246|251:214|187:230,1,140,4|2,0:0|0:0,0:0:0:0:
112,252,217805,2,0,P|74:201|96:123,1,140,8|2,0:0|0:0,0:0:0:0:
145,67,218260,1,2,0:0:0:0:
228,96,218411,1,8,0:0:0:0:
228,96,218563,6,0,P|266:151|250:217,1,140,0|2,0:0|0:0,0:0:0:0:
199,283,219017,2,0,P|195:319|220:370,1,70,8|0,0:0|0:0,0:0:0:0:
283,383,219320,2,0,P|319:387|370:362,1,70,2|2,0:0|0:0,0:0:0:0:
428,340,219623,1,8,0:0:0:0:
428,340,219775,6,0,P|468:288|427:211,1,140,2|2,0:0|0:0,0:0:0:0:
382,168,220229,2,0,P|329:190|253:153,1,140,8|2,0:0|0:0,0:0:0:0:
187,111,220684,1,2,0:0:0:0:
127,170,220836,1,8,0:0:0:0:
127,170,220987,6,0,B|169:227|169:227|147:313,1,140,2|2,0:0|0:0,0:0:0:0:
96,357,221442,2,0,B|157:321|157:321|222:345,1,140,8|2,0:0|0:0,0:0:0:0:
301,373,221896,1,2,0:0:0:0:
377,336,222048,2,0,P|409:343|470:329,1,70,8|2,0:0|0:0,0:0:0:0:
470,325,222275,1,2,0:0:0:0:
483,300,222351,6,0,P|489:268|478:210,1,70,8|2,0:0|0:0,0:0:0:0:
458,156,222654,1,2,0:0:0:0:
458,156,222805,2,0,P|424:163|384:159,1,70,8|2,0:0|0:0,0:0:0:0:
311,128,223108,1,2,0:0:0:0:
256,192,223260,1,8,0:0:0:0:
256,192,223411,5,4,0:0:0:0:
256,192,223563,12,8,224775,0:0:0:0:
