osu file format v14

[General]
AudioFilename: audio.mp3
AudioLeadIn: 1500
PreviewTime: 52669
Countdown: 0
SampleSet: Soft
StackLeniency: 0.2
Mode: 0
LetterboxInBreaks: 0
WidescreenStoryboard: 0

[Editor]
DistanceSpacing: 0.5
BeatDivisor: 4
GridSize: 16
TimelineZoom: 1.3

[Metadata]
Title:Twintail Dreamer!
TitleUnicode:ツインテール・ドリーマー!
Artist:Twin-Tails
ArtistUnicode:ツインテイルズ
Creator:Koiyuki
Version:Extra
Source:俺、ツインテールになります。
Tags:Twintails Ore, Twintail Ni Narimasu. Gonna be the Twin-Tails!! テイルレッド Tail Red 上坂すみれ Uesaka Sumire Tail Blue 相坂優歌 Aisaka Yuuka Tail Yellow 赤﨑千夏 Akasaki Chinatsu Ending tv size
BeatmapID:1718931
BeatmapSetID:819902

[Difficulty]
HPDrainRate:6.5
CircleSize:4.5
OverallDifficulty:8.5
ApproachRate:9.3
SliderMultiplier:1.6
SliderTickRate:1

[Events]
//Background and Video events
0,0,"twintailBG.jpg",0,0
//Break Periods
//Storyboard Layer 0 (Background)
//Storyboard Layer 1 (Fail)
//Storyboard Layer 2 (Pass)
//Storyboard Layer 3 (Foreground)
//Storyboard Sound Samples

[TimingPoints]
397,303.030303030303,4,2,1,50,1,0
1912,-100,4,1,1,50,0,0
2972,-100,4,2,0,50,0,0
6760,-100,4,1,1,50,0,0
7518,-90.9090909090909,4,1,1,50,0,0
7821,-100,4,1,1,50,0,0
9942,-90.9090909090909,4,1,1,50,0,0
10245,-100,4,1,1,50,0,0
22215,-125,4,2,1,50,0,0
31609,-125,4,2,1,40,0,0
31912,-100,4,2,1,50,0,0
41609,-125,4,2,0,50,0,0
48578,-125,4,1,1,40,0,0
48881,-100,4,2,1,50,0,0
50775,-100,4,2,1,10,0,0
50851,-100,4,2,1,50,0,0
50927,-100,4,2,1,10,0,0
51003,-100,4,2,1,50,0,0
51078,-100,4,2,1,10,0,0
51154,-100,4,2,1,50,0,0
51230,-100,4,2,1,10,0,0
51306,-100,4,2,1,50,0,0
52821,-125,4,2,1,50,0,0
53578,-90.9090909090909,4,1,1,50,0,1
76760,-100,4,1,1,50,0,0
76836,-133.333333333333,4,2,1,50,0,0
78578,-100,4,2,1,50,0,0
79033,-100,4,1,1,50,0,0
85093,-200,4,1,1,50,0,0
85112,-200,4,2,1,20,0,0
86684,-100,4,3,1,50,0,0

[Colours]
Combo1 : 128,255,255
Combo2 : 255,0,0
Combo3 : 0,128,255
Combo4 : 255,255,0

[HitObjects]
32,309,397,5,0,0:0:0:0:
118,285,548,1,0,0:0:0:0:
140,198,700,1,0,0:0:0:0:
182,348,851,1,0,0:0:0:0:
182,348,1306,5,0,0:0:0:0:
140,198,1457,1,0,0:0:0:0:
32,309,1609,1,0,0:0:0:0:
118,285,1760,1,0,0:0:0:0:
76,135,1912,5,0,0:0:0:0:
84,126,1987,1,0,0:0:0:0:
92,117,2063,1,8,0:3:0:0:
337,156,2215,1,4,0:3:0:0:
182,348,2366,1,4,0:3:0:0:
139,198,2669,6,0,P|185:135|167:59,1,160,4|0,1:2|0:0,0:0:0:0:
62,207,3124,2,0,P|102:210|140:198,1,80,2|0,0:0|0:0,0:0:0:0:
214,151,3427,1,0,0:0:0:0:
301,156,3578,2,0,L|380:160,1,80,0|0,0:0|0:0,0:0:0:0:
460,165,3881,6,0,L|301:156,1,160,0|0,1:0|0:0,0:0:0:0:
464,87,4336,2,0,P|470:126|460:165,1,80,2|0,0:0|0:0,0:0:0:0:
380,202,4639,1,0,0:0:0:0:
436,269,4790,2,0,L|442:348,1,80,0|0,0:0|0:0,0:0:0:0:
442,349,5093,6,0,P|457:274|407:215,1,160,4|0,1:2|0:0,0:0:0:0:
275,281,5548,2,0,L|355:285,1,80,2|0,0:0|0:0,0:0:0:0:
214,151,5851,1,0,1:0:0:0:
134,348,6003,2,0,L|214:344,1,80,0|0,0:0|0:0,0:0:0:0:
288,192,6306,6,0,P|224:235|150:212,1,160,4|0,1:2|0:0,0:0:0:0:
264,34,6760,1,8,0:0:0:0:
413,91,6912,1,8,0:0:0:0:
288,192,7063,6,0,L|228:188,1,40,4|0,0:0|0:0,0:0:0:0:
264,34,7215,2,0,L|286:0,1,40,8|0,0:0|0:0,0:0:0:0:
413,91,7366,2,0,L|430:126,1,40,4|0,0:0|0:0,0:0:0:0:
340,273,7518,6,0,L|143:259,1,176.000005371094,4|0,0:0|0:0,0:0:0:0:
96,294,7972,6,0,P|135:287|164:260,1,80,8|0,0:0|0:0,0:0:0:0:
108,72,8275,2,0,P|128:106|162:126,1,80,8|0,0:0|0:0,0:0:0:0:
324,15,8578,2,0,P|297:44|289:82,1,80,8|0,0:0|0:0,0:0:0:0:
445,202,8881,2,0,P|409:185|370:190,1,80,8|0,0:0|0:0,0:0:0:0:
301,376,9184,2,0,P|306:337|290:300,1,80,8|0,0:0|0:0,0:0:0:0:
289,82,9487,5,8,0:3:0:0:
298,120,9562,1,0,0:0:0:0:
288,158,9638,1,8,0:3:0:0:
260,187,9714,1,0,0:0:0:0:
222,199,9790,1,8,0:0:0:0:
184,191,9865,1,0,0:0:0:0:
154,166,9942,6,0,L|329:178,1,176.000005371094,4|0,0:0|0:0,0:0:0:0:
324,15,10396,6,0,P|297:44|289:82,1,80,8|0,0:0|0:0,0:0:0:0:
108,72,10699,2,0,P|128:106|162:126,1,80,8|0,0:0|0:0,0:0:0:0:
96,294,11003,2,0,P|135:287|164:260,1,80,8|0,0:0|0:0,0:0:0:0:
301,376,11305,2,0,P|306:337|290:300,1,80,8|0,0:0|0:0,0:0:0:0:
445,202,11609,2,0,P|409:185|370:190,1,80,8|0,0:0|0:0,0:0:0:0:
163,260,11912,5,8,0:0:0:0:
137,230,11987,1,0,0:0:0:0:
99,218,12063,1,8,0:0:0:0:
60,227,12139,1,0,0:0:0:0:
31,254,12215,1,8,0:0:0:0:
20,292,12290,1,0,0:0:0:0:
29,330,12366,6,0,B|37:274|37:274|27:229|27:229|35:170,1,160,6|0,0:0|0:0,0:0:0:0:
48,96,12821,2,0,P|50:135|34:172,1,80,10|0,0:0|0:0,0:0:0:0:
29,330,13124,1,0,0:0:0:0:
111,299,13275,1,0,0:0:0:0:
181,351,13427,1,8,0:0:0:0:
34,172,13578,6,0,B|53:150|56:114|48:96|48:96|84:66|131:105,1,160,2|0,0:0|0:0,0:0:0:0:
259,160,14033,2,0,L|338:151,1,80,8|0,0:0|0:0,0:0:0:0:
172,169,14336,2,0,L|195:219,2,40,2|0|0,0:0|0:0|0:0,0:0:0:0:
290,73,14639,1,10,0:0:0:0:
426,140,14790,6,0,P|485:97|451:31,1,160,6|0,0:0|0:0,0:0:0:0:
338,151,15245,2,0,L|259:160,1,80,10|0,0:0|0:0,0:0:0:0:
451,31,15548,1,0,0:0:0:0:
505,101,15700,1,0,0:0:0:0:
499,188,15851,1,0,0:0:0:0:
259,160,16003,6,0,B|337:151|337:151|377:183|362:221,1,160,2|0,0:0|0:0,0:0:0:0:
172,281,16457,2,0,P|169:242|185:206,1,80,8|0,0:0|0:0,0:0:0:0:
331,304,16760,2,0,L|339:349,2,40,2|0|0,0:0|0:0|0:0,0:0:0:0:
259,160,17063,1,8,0:0:0:0:
172,281,17215,6,0,P|96:272|42:327,1,160,6|0,0:0|0:0,0:0:0:0:
180,193,17669,2,0,L|170:113,1,80,10|0,0:0|0:0,0:0:0:0:
42,326,17972,1,0,0:0:0:0:
125,355,18124,1,0,0:0:0:0:
172,281,18275,1,8,0:0:0:0:
170,113,18427,6,0,P|143:70|188:109,1,160,0|0,0:0|0:0,0:0:0:0:
259,160,18881,1,10,0:0:0:0:
83,127,19033,1,0,0:0:0:0:
259,160,19184,2,0,L|355:147,1,80,2|2,0:0|0:0,0:0:0:0:
200,94,19487,1,8,0:0:0:0:
54,209,19639,6,0,P|0:156|9:79,1,160,2|0,0:0|0:0,0:0:0:0:
259,160,20093,2,0,P|240:233|168:263,1,160,10|2,0:0|0:0,0:0:0:0:
83,127,20548,1,0,0:0:0:0:
173,175,20699,1,8,0:0:0:0:
286,76,20851,6,0,B|345:81|345:81|391:65|391:65|455:70,1,160,2|0,0:0|0:0,0:0:0:0:
199,93,21306,2,0,P|199:50|218:19,1,80,8|0,0:0|0:0,0:0:0:0:
403,148,21609,1,8,0:0:0:0:
401,159,21684,1,0,0:0:0:0:
399,170,21760,1,8,0:0:0:0:
397,181,21836,1,0,0:0:0:0:
395,192,21912,5,8,0:0:0:0:
434,196,21987,1,0,0:0:0:0:
467,218,22063,1,0,0:0:0:0:
486,253,22139,1,0,0:0:0:0:
486,292,22215,6,0,L|475:372,1,64,4|0,1:2|0:0,0:0:0:0:
395,192,22518,1,0,1:0:0:0:
404,274,22669,2,0,P|350:294|286:266,1,128,0|0,0:0|0:0,0:0:0:0:
208,241,23124,1,0,1:0:0:0:
91,248,23275,6,0,P|148:222|208:241,1,128,0|0,0:0|0:0,0:0:0:0:
287,267,23730,1,0,1:0:0:0:
155,305,23882,1,0,0:0:0:0:
297,257,24033,2,0,L|290:179,1,64,0|0,0:0|0:0,0:0:0:0:
165,315,24336,2,0,L|172:393,1,64,0|0,1:0|0:0,0:0:0:0:
307,246,24639,6,0,P|318:184|279:128,1,128,0|0,0:0|1:0,0:0:0:0:
175,196,25093,2,0,L|239:201,1,64,0|0,0:0|0:0,0:0:0:0:
310,53,25397,2,0,L|246:57,1,64,0|0,0:0|1:0,0:0:0:0:
111,192,25700,6,0,L|239:201,1,128,0|0,0:0|0:0,0:0:0:0:
247,57,26154,1,0,1:0:0:0:
284,131,26306,1,0,0:0:0:0:
215,59,26457,1,0,0:0:0:0:
315,134,26609,1,0,0:0:0:0:
183,61,26760,1,0,1:0:0:0:
347,136,26912,1,0,3:3:0:0:
150,64,27063,6,0,P|120:74|83:72,1,64,4|0,1:2|0:0,0:0:0:0:
17,30,27366,1,0,1:0:0:0:
52,181,27518,2,0,P|106:152|166:168,1,128,0|0,0:0|0:0,0:0:0:0:
200,244,27972,1,0,1:0:0:0:
106,362,28124,6,0,L|117:235,1,128,0|0,0:0|0:0,0:0:0:0:
38,125,28578,1,0,1:0:0:0:
166,167,28730,1,0,0:0:0:0:
38,208,28881,1,0,0:0:0:0:
117,99,29033,1,0,0:0:0:0:
117,234,29184,1,0,1:0:0:0:
117,234,29487,6,0,P|178:246|230:213,1,128,0|0,0:0|1:0,0:0:0:0:
228,68,29942,2,0,P|228:100|240:130,1,64,0|0,0:0|0:0,0:0:0:0:
381,147,30245,1,8,1:0:0:0:
306,180,30397,1,0,1:0:0:0:
447,196,30548,6,0,P|463:136|432:82,1,128,0|0,1:0|0:0,0:0:0:0:
371,231,31003,2,0,L|380:308,1,64,0|0,1:0|0:0,0:0:0:0:
431,81,31306,2,0,L|438:17,1,64,0|0,0:0|0:0,0:0:0:0:
447,196,31609,1,0,1:0:0:0:
450,227,31684,1,0,1:0:0:0:
454,259,31760,1,0,1:0:0:0:
458,291,31836,1,0,1:0:0:0:
461,323,31912,6,0,L|470:243,1,80,0|0,1:0|0:0,0:0:0:0:
431,81,32215,1,8,1:0:0:0:
371,231,32366,2,0,P|296:215|238:265,1,160,0|0,0:0|0:0,0:0:0:0:
371,231,32821,1,8,1:0:0:0:
238,265,32972,6,0,P|162:282|104:232,1,160,0|0,0:0|0:0,0:0:0:0:
178,115,33427,2,0,L|184:195,1,80,8|0,1:0|0:0,0:0:0:0:
113,56,33730,1,0,1:0:0:0:
263,90,33881,1,0,0:0:0:0:
184,195,34033,1,8,1:0:0:0:
197,31,34184,1,0,0:0:0:0:
36,103,34336,6,0,P|24:63|32:19,1,80,0|0,1:0|0:0,0:0:0:0:
178,115,34639,1,8,1:0:0:0:
104,232,34790,2,0,P|124:306|79:369,1,160,0|0,0:0|0:0,0:0:0:0:
38,291,35245,1,8,1:0:0:0:
210,321,35396,6,0,P|155:376|79:369,1,160,0|0,0:0|0:0,0:0:0:0:
184,195,35851,2,0,L|263:199,1,80,8|0,1:0|0:0,0:0:0:0:
105,154,36154,1,0,1:0:0:0:
263,90,36306,1,0,0:0:0:0:
234,231,36457,2,0,L|155:227,1,80,8|0,1:0|0:0,0:0:0:0:
188,72,36760,6,0,P|263:90|323:42,1,160,0|8,1:0|1:0,0:0:0:0:
486,163,37215,2,0,P|429:111|353:125,1,160,0|0,0:0|0:0,0:0:0:0:
405,195,37669,1,8,1:0:0:0:
452,27,37821,6,0,P|379:51|353:124,1,160,0|0,0:0|0:0,0:0:0:0:
395,274,38275,2,0,L|405:195,1,80,8|0,1:0|0:0,0:0:0:0:
353,124,38578,1,0,1:0:0:0:
486,163,38730,1,0,0:0:0:0:
353,124,38881,1,8,1:0:0:0:
486,163,39033,1,0,0:0:0:0:
392,281,39184,6,0,L|312:289,1,80,0|0,1:0|0:0,0:0:0:0:
379,367,39487,1,8,1:0:0:0:
405,194,39639,2,0,P|329:208|271:157,1,160,0|0,0:0|0:0,0:0:0:0:
405,194,40093,1,8,1:0:0:0:
271,157,40245,6,0,P|194:142|137:194,1,160,0|0,0:0|0:0,0:0:0:0:
120,352,40700,1,8,1:0:0:0:
218,227,40851,1,0,0:0:0:0:
58,205,41003,5,8,1:0:0:0:
130,267,41154,1,0,0:0:0:0:
218,227,41306,1,8,1:0:0:0:
290,289,41457,1,0,0:0:0:0:
146,165,41609,6,0,B|156:112|156:112|132:76|143:41,1,128,0|2,0:0|0:0,0:0:0:0:
280,53,42215,2,0,L|217:61,1,64,0|0,1:0|0:0,0:0:0:0:
362,39,42518,1,0,0:0:0:0:
209,156,42669,6,0,L|146:164,1,64,2|0,0:0|0:0,0:0:0:0:
290,142,42972,1,2,0:0:0:0:
216,61,43124,1,0,0:0:0:0:
300,162,43275,1,0,0:0:0:0:
333,57,43427,1,0,1:0:0:0:
310,182,43578,1,0,0:0:0:0:
417,158,43730,1,0,0:0:0:0:
320,202,43881,1,2,0:0:0:0:
492,123,44033,6,0,P|494:185|453:232,1,128,0|0,0:0|1:0,0:0:0:0:
453,232,44639,1,0,0:0:0:0:
489,306,44790,2,0,L|484:371,1,64,0|2,0:0|0:0,0:0:0:0:
330,222,45093,6,0,L|320:94,1,128,0|0,1:0|0:0,0:0:0:0:
330,222,45548,1,0,1:0:0:0:
433,242,45700,1,0,0:0:0:0:
278,287,45851,1,0,0:0:0:0:
413,252,46003,1,0,0:0:0:0:
226,352,46154,1,0,1:0:0:0:
166,197,46306,6,0,B|121:191|121:191|84:202|84:202|23:192,1,128,2|0,0:0|0:0,0:0:0:0:
196,275,46760,1,0,0:0:0:0:
330,222,46912,1,0,0:0:0:0:
226,352,47063,1,0,1:0:0:0:
248,210,47215,1,0,0:0:0:0:
278,287,47366,1,2,0:0:0:0:
166,197,47518,1,0,0:0:0:0:
300,145,47669,6,0,B|308:111|308:111|304:63,1,64,0|0,0:0|0:0,0:0:0:0:
196,275,47972,2,0,B|188:309|188:309|192:357,1,64,2|0,0:0|0:0,0:0:0:0:
330,222,48275,1,0,1:0:0:0:
166,197,48427,1,0,0:0:0:0:
244,24,48578,1,0,0:0:0:0:
221,46,48653,1,0,0:0:0:0:
191,57,48729,1,0,0:0:0:0:
159,54,48805,1,0,0:0:0:0:
131,38,48881,5,0,0:0:0:0:
305,82,49033,2,0,L|396:73,1,80,0|2,0:0|0:0,0:0:0:0:
473,65,49336,1,0,0:0:0:0:
295,92,49639,6,0,L|385:82,1,80,2|0,0:0|0:0,0:0:0:0:
463,75,49942,1,2,0:0:0:0:
285,102,50093,6,0,L|375:92,1,80,0|0,0:0|0:0,0:0:0:0:
131,38,50396,2,0,L|40:28,1,80,2|0,0:0|0:0,0:0:0:0:
89,234,50700,6,0,L|126:217,1,40,0|0,0:0|0:0,0:0:0:0:
275,112,50851,6,0,L|271:152,1,40,0|0,0:0|0:0,0:0:0:0:
255,326,51003,6,0,L|216:314,1,40,2|0,0:0|0:0,0:0:0:0:
141,120,51154,6,0,L|137:81,1,40,0|0,0:0|0:0,0:0:0:0:
409,104,51306,5,0,0:0:0:0:
382,221,51457,1,0,0:0:0:0:
263,239,51609,1,2,0:0:0:0:
425,139,51760,5,0,0:0:0:0:
316,255,51911,1,0,0:0:0:0:
167,197,52063,1,2,0:0:0:0:
442,175,52215,5,2,0:0:0:0:
71,155,52366,1,4,0:2:0:0:
71,155,52821,6,0,P|89:112|78:65,1,96,0|0,0:0|0:0,0:0:0:0:
45,39,53124,1,0,0:0:0:0:
217,86,53275,1,0,0:0:0:0:
217,86,53578,6,0,P|300:91|347:21,1,176.000005371094,2|2,0:0|0:0,0:0:0:0:
459,211,54033,2,0,L|371:218,1,88.000002685547,8|0,0:0|0:0,0:0:0:0:
217,86,54336,2,0,L|305:93,1,88.000002685547,2|0,0:0|0:0,0:0:0:0:
391,98,54639,1,8,0:0:0:0:
362,305,54790,6,0,P|291:262|291:177,1,176.000005371094,2|0,0:0|0:0,0:0:0:0:
443,269,55245,2,0,B|445:316|445:316|433:366,1,88.000002685547,8|0,0:0|0:0,0:0:0:0:
371,217,55548,1,0,0:0:0:0:
391,98,55700,1,0,0:0:0:0:
451,173,55851,1,8,0:0:0:0:
291,261,56003,6,0,B|233:259|233:259|176:280|176:280|118:277,1,176.000005371094,2|2,0:0|0:0,0:0:0:0:
41,134,56457,2,0,P|84:135|118:162,1,88.000002685547,8|0,0:0|0:0,0:0:0:0:
291,261,56760,2,0,P|256:287|213:289,1,88.000002685547,2|0,0:0|0:0,0:0:0:0:
50,222,57063,1,10,0:0:0:0:
119,377,57215,6,0,L|136:202,1,176.000005371094,2|0,0:0|0:0,0:0:0:0:
30,50,57669,2,0,P|24:93|40:133,1,88.000002685547,10|0,0:0|0:0,0:0:0:0:
222,181,57972,1,2,0:0:0:0:
112,84,58124,1,0,0:0:0:0:
50,222,58275,1,8,0:0:0:0:
307,160,58427,6,0,B|371:166|371:166|411:188|411:188|476:195,1,176.000005371094,2|0,0:0|0:0,0:0:0:0:
222,181,58881,2,0,B|224:137|224:137|245:98,1,88.000002685547,8|0,0:0|0:0,0:0:0:0:
491,281,59184,2,0,L|403:271,1,88.000002685547,2|0,0:0|0:0,0:0:0:0:
330,74,59487,2,0,L|417:83,1,88.000002685547,10|0,0:0|0:0,0:0:0:0:
222,181,59790,5,2,0:0:0:0:
267,13,59942,1,0,0:0:0:0:
307,160,60093,1,10,0:0:0:0:
137,202,60245,1,0,0:0:0:0:
403,271,60396,5,2,0:0:0:0:
267,13,60548,1,0,0:0:0:0:
177,349,60700,1,10,0:0:0:0:
307,160,60851,1,0,0:0:0:0:
112,284,61003,6,0,P|51:227|71:145,1,176.000005371094,10|4,0:0|0:3,0:0:0:0:
440,238,61457,1,10,0:0:0:0:
28,262,61760,1,0,0:0:0:0:
484,122,62063,1,4,0:0:0:0:
137,202,62366,5,0,0:0:0:0:
198,138,62518,2,0,L|192:48,1,88.000002685547,8|0,0:0|0:0,0:0:0:0:
71,145,62821,1,8,0:0:0:0:
71,145,62896,1,0,0:0:0:0:
71,145,62972,1,8,0:0:0:0:
50,183,63047,1,0,0:0:0:0:
51,227,63123,1,8,0:0:0:0:
74,264,63199,1,0,0:0:0:0:
112,284,63275,6,0,B|177:280|177:280|220:256|220:256|281:252,1,176.000005371094,2|0,0:0|0:0,0:0:0:0:
389,376,63730,2,0,P|348:363|323:329,1,88.000002685547,8|0,0:0|0:0,0:0:0:0:
112,284,64033,2,0,P|153:271|178:236,1,88.000002685547,2|0,0:0|0:0,0:0:0:0:
192,50,64336,1,8,0:0:0:0:
212,135,64487,6,0,P|131:110|106:29,1,176.000005371094,2|2,0:0|0:0,0:0:0:0:
277,75,64942,2,0,L|364:66,1,88.000002685547,8|0,0:0|0:0,0:0:0:0:
487,216,65245,1,2,0:0:0:0:
428,152,65396,1,0,0:0:0:0:
464,300,65548,1,8,0:0:0:0:
511,130,65700,6,0,L|336:149,1,176.000005371094,2|0,0:0|0:0,0:0:0:0:
295,299,66154,2,0,P|339:302|378:322,1,88.000002685547,8|0,0:0|0:0,0:0:0:0:
510,130,66457,2,0,P|472:150|428:152,1,88.000002685547,2|2,0:0|0:0,0:0:0:0:
464,300,66760,1,8,0:0:0:0:
336,148,66912,6,0,B|278:122|278:122|131:138,1,176.000005371094,2|0,0:0|0:0,0:0:0:0:
38,204,67366,1,10,0:0:0:0:
144,136,67518,1,0,0:0:0:0:
67,287,67669,1,8,0:0:0:0:
122,138,67821,1,8,0:0:0:0:
97,371,67972,1,8,0:0:0:0:
100,141,68124,6,0,P|121:222|66:287,1,176.000005371094,2|0,0:0|0:0,0:0:0:0:
411,242,68578,2,0,P|390:161|445:96,1,176.000005371094,8|2,0:0|0:0,0:0:0:0:
484,293,69033,1,0,0:0:0:0:
390,163,69184,2,0,L|295:172,1,88.000002685547,8|0,0:0|0:0,0:0:0:0:
67,287,69487,6,0,B|130:257|130:257|252:270,1,176.000005371094,2|8,0:0|0:0,0:0:0:0:
304,348,69942,1,0,0:0:0:0:
484,293,70093,2,0,L|389:302,1,88.000002685547,2|0,0:0|0:0,0:0:0:0:
304,348,70396,1,8,0:0:0:0:
485,204,70548,6,0,L|295:222,1,176.000005371094,2|0,0:0|0:0,0:0:0:0:
100,141,71003,2,0,P|100:97|123:60,1,88.000002685547,8|0,0:0|0:0,0:0:0:0:
235,268,71306,2,0,P|235:311|211:348,1,88.000002685547,0|0,0:0|0:0,0:0:0:0:
185,122,71609,2,0,L|272:113,1,88.000002685547,8|0,0:0|0:0,0:0:0:0:
149,284,71912,6,0,L|62:275,1,88.000002685547,0|0,0:0|0:0,0:0:0:0:
320,220,72215,2,0,L|407:211,1,88.000002685547,8|0,0:0|0:0,0:0:0:0:
122,60,72518,1,8,0:0:0:0:
100,97,72593,1,0,0:0:0:0:
98,141,72669,1,8,0:0:0:0:
118,180,72745,1,0,0:0:0:0:
153,204,72821,1,8,0:0:0:0:
197,208,72896,1,0,0:0:0:0:
237,191,72972,6,0,L|28:169,1,176.000005371094,2|0,0:0|0:0,0:0:0:0:
211,347,73427,5,8,0:0:0:0:
394,54,73578,1,0,0:0:0:0:
208,325,73730,5,8,0:0:0:0:
438,131,73881,1,0,0:0:0:0:
206,303,74033,5,8,0:0:0:0:
428,219,74184,1,0,0:0:0:0:
204,281,74336,5,8,0:0:0:0:
370,285,74487,1,0,0:0:0:0:
201,259,74639,6,0,P|164:281|120:282,1,88.000002685547,8|0,0:0|0:0,0:0:0:0:
320,357,74942,1,8,0:3:0:0:
361,371,75017,1,0,0:0:0:0:
404,365,75093,1,8,0:3:0:0:
439,338,75169,1,0,0:0:0:0:
456,298,75245,1,8,0:0:0:0:
452,255,75320,1,0,0:0:0:0:
427,218,75396,6,0,P|360:170|363:84,1,176.000005371094,0|0,0:0|0:0,0:0:0:0:
438,131,75851,5,8,0:0:0:0:
185,122,76003,1,0,0:0:0:0:
363,83,76154,5,8,0:0:0:0:
163,125,76306,1,0,0:0:0:0:
289,35,76457,5,8,0:0:0:0:
141,128,76609,1,0,0:0:0:0:
163,125,76685,1,0,0:0:0:0:
185,122,76760,5,4,0:0:0:0:
111,152,77063,1,0,0:0:0:0:
36,120,77366,2,0,P|76:78|135:74,1,120.000004577637,0|0,0:0|0:0,0:0:0:0:
179,193,77821,6,0,P|74:223|36:120,1,240.000009155274,0|0,0:0|0:0,0:0:0:0:
179,193,78578,6,0,P|124:251|48:237,1,160,0|0,0:0|0:0,0:0:0:0:
179,192,79033,6,0,P|230:136|307:146,1,160,2|2,0:0|0:0,0:0:0:0:
449,194,79487,2,0,P|412:208|373:203,1,80,10|0,0:0|0:0,0:0:0:0:
179,192,79790,1,0,0:0:0:0:
242,253,79942,1,0,0:0:0:0:
222,338,80093,1,10,0:0:0:0:
373,203,80245,6,0,B|402:214|432:208|449:195|449:195|475:156|515:154,1,160,2|2,0:0|0:0,0:0:0:0:
300,300,80700,2,0,P|278:267|242:253,1,80,8|0,0:0|0:0,0:0:0:0:
330,126,81003,2,0,L|326:86,2,40,2|0|0,0:0|0:0|0:0,0:0:0:0:
449,194,81306,1,8,0:0:0:0:
251,166,81457,6,0,L|235:6,1,160,2|2,0:0|0:0,0:0:0:0:
163,160,81912,2,0,P|169:199|195:232,1,80,10|0,0:0|0:0,0:0:0:0:
235,6,82215,1,0,0:0:0:0:
159,51,82366,1,0,0:0:0:0:
73,29,82518,1,10,0:0:0:0:
193,231,82669,6,0,B|161:203|163:160|163:160|151:214|87:234,1,160,2|2,0:0|0:0,0:0:0:0:
251,165,83124,2,0,L|342:156,1,80,8|0,0:0|0:0,0:0:0:0:
77,142,83427,2,0,L|13:135,2,40,2|0|0,0:0|0:0|0:0,0:0:0:0:
278,249,83730,2,0,L|369:240,1,80,10|0,0:0|0:0,0:0:0:0:
508,108,84033,5,2,0:0:0:0:
439,276,84184,1,0,0:0:0:0:
439,276,84336,1,0,0:0:0:0:
500,126,84487,5,2,0:0:0:0:
278,249,84639,1,0,0:0:0:0:
278,249,84790,1,0,0:0:0:0:
492,144,84942,5,2,0:0:0:0:
116,221,85093,2,0,B|214:189|184:35|41:46|7:130|38:191|38:191|45:220|43:250|13:274,1,420,4|8,0:0|0:3,0:0:0:0:
98,156,86760,2,0,L|94:114,1,40,0|0,0:0|0:0,0:0:0:0:
