osu file format v14

[General]
AudioFilename: twintail.mp3
AudioLeadIn: 0
PreviewTime: 52826
Countdown: 0
SampleSet: Soft
StackLeniency: 0.7
Mode: 0
LetterboxInBreaks: 0
WidescreenStoryboard: 0

[Editor]
Bookmarks: 12371,22220,31917,37220,41614,53583,63280,72977,85098
DistanceSpacing: 1
BeatDivisor: 4
GridSize: 4
TimelineZoom: 1.6

[Metadata]
Title:Twintail Dreamer!
TitleUnicode:ツインテール・ドリーマー!
Artist:Twin-Tails
ArtistUnicode:ツインテイルズ
Creator:Giralda
Version:Easy
Source:俺、ツインテールになります。
Tags:twintails ore twintail ni narimasu. gonna be the twin-tails!! テイルレッド 上坂すみれ uesaka sumire tail blue 相坂優歌 aisaka yuuka テイルブル テイルイエロー tail yellow 赤崎千夏 chinatsu akasaki TV Size captin1 jonathanlfj mythol meiikyuu lunarsakuya apaffy nyquill rlc trust byakugan243 kibbleru
BeatmapID:727587
BeatmapSetID:317171

[Difficulty]
HPDrainRate:2
CircleSize:3
OverallDifficulty:3
ApproachRate:3
SliderMultiplier:0.899999999999999
SliderTickRate:1

[Events]
//Background and Video events
0,0,"BG.jpg",0,0
Video,-141,"video.avi"
//Break Periods
//Storyboard Layer 0 (Background)
//Storyboard Layer 1 (Fail)
//Storyboard Layer 2 (Pass)
//Storyboard Layer 3 (Foreground)
//Storyboard Sound Samples

[TimingPoints]
402,303.030303030303,4,2,1,60,1,0
21614,-100,4,2,1,60,0,0
53583,-100,4,2,2,65,0,1
77826,-100,4,2,2,35,0,0
79038,-100,4,2,2,45,0,0

[Colours]
Combo1 : 253,235,130
Combo2 : 255,83,83
Combo3 : 70,163,255

[HitObjects]
67,75,1917,5,8,0:0:0:0:
124,144,2220,2,0,P|189:155|246:122,1,135,2|4,0:0|0:0,0:0:0:0:
315,237,3129,2,0,P|372:203|437:214,1,135,0|0,0:0|0:0,0:0:0:0:
388,290,3886,1,4,0:0:0:0:
263,343,4341,6,0,L|128:335,1,135,0|0,0:0|0:0,0:0:0:0:
47,294,5098,2,0,P|26:230|43:166,1,135,6|0,0:0|0:0,0:0:0:0:
112,109,5856,1,6,0:0:0:0:
217,191,6311,6,0,P|274:157|339:168,1,135,4|8,0:0|0:0,0:0:0:0:
290,243,7068,1,0,0:0:0:0:
422,217,7523,2,0,B|441:232|450:260|450:260|461:179|461:179|500:153|500:153|503:107,1,225,4|8,0:0|0:0,0:0:0:0:
434,46,8583,1,8,0:0:0:0:
353,87,8886,6,0,L|265:73,1,89.9999999999999,0|8,0:0|0:0,0:0:0:0:
174,71,9492,2,0,P|152:134|167:199,1,135,2|4,0:0|0:0,0:0:0:0:
299,228,10401,2,0,L|388:223,2,89.9999999999999,8|10|8,0:0|0:0|0:0,0:0:0:0:
241,297,11311,6,0,L|151:292,1,89.9999999999999,10|8,0:0|0:0,0:0:0:0:
82,349,11917,2,0,P|60:286|89:228,1,135,8|4,0:0|0:0,0:0:0:0:
205,160,12826,5,8,0:0:0:0:
294,156,13129,2,0,L|439:153,2,135,0|0|8,0:0|0:0|0:0,0:0:0:0:
205,160,14341,6,0,P|180:98|203:37,2,135,0|0|8,0:0|0:0|0:0,0:0:0:0:
132,212,15553,2,0,B|120:301|120:301|133:344,2,135,0|0|8,0:0|0:0|0:0,0:0:0:0:
93,130,16765,6,0,P|146:168|211:158,2,135,0|0|8,0:0|0:0|0:0,0:0:0:0:
18,78,17977,2,0,L|10:212,1,135,0|0,0:0|0:0,0:0:0:0:
80,328,18886,1,8,0:0:0:0:
151,273,19189,2,0,L|207:265,1,45,0|0,0:0|0:0,0:0:0:0:
260,332,19644,2,0,B|300:339|352:308|352:308|362:344|362:344|409:314|448:327,1,225,0|0,0:0|0:0,0:0:0:0:
472,195,20856,6,0,P|405:208|338:212,1,135,0|8,0:0|0:0,0:0:0:0:
259,255,21614,2,0,P|217:238|172:234,1,89.9999999999999,8|8,0:0|0:0,0:0:0:0:
100,180,22220,6,0,P|85:137|90:93,1,89.9999999999999,4|2,0:0|0:0,0:0:0:0:
165,43,22826,2,0,B|207:30|207:30|253:44,1,89.9999999999999,2|2,0:0|0:0,0:0:0:0:
331,89,23432,2,0,B|375:102|375:102|417:89,1,89.9999999999999,0|2,0:0|0:0,0:0:0:0:
464,165,24038,1,2,0:0:0:0:
429,248,24341,1,2,0:0:0:0:
341,223,24644,6,0,P|299:211|254:216,1,89.9999999999999,0|2,0:0|0:0,0:0:0:0:
185,274,25250,2,0,B|143:292|143:292|99:282,1,89.9999999999999,2|2,0:0|0:0,0:0:0:0:
30,224,25856,1,0,0:0:0:0:
105,107,26462,2,0,P|158:121|192:143,1,89.9999999999999,2|2,0:0|0:0,0:0:0:0:
236,63,27068,6,0,P|279:53|323:57,1,89.9999999999999,0|2,0:0|0:0,0:0:0:0:
392,115,27674,2,0,B|373:157|373:157|387:199,1,89.9999999999999,2|2,0:0|0:0,0:0:0:0:
329,267,28280,2,0,B|348:309|348:309|334:351,1,89.9999999999999,0|2,0:0|0:0,0:0:0:0:
236,358,28886,1,2,0:0:0:0:
168,298,29189,1,2,0:0:0:0:
236,239,29492,6,0,P|253:174|241:108,1,135,0|0,0:0|0:0,0:0:0:0:
150,96,30250,2,0,P|106:98|61:91,2,89.9999999999999,8|4|0,0:0|0:0|0:0,0:0:0:0:
279,53,31311,2,0,P|321:67|366:67,1,89.9999999999999,2|8,0:0|0:0,0:0:0:0:
438,122,31917,6,0,P|457:186|454:253,1,135,0|0,0:0|0:0,0:0:0:0:
392,319,32674,1,0,0:0:0:0:
309,283,32977,2,0,P|244:271|189:308,1,135,0|8,0:0|0:0,0:0:0:0:
111,353,33735,2,0,L|93:258,1,89.9999999999999,0|8,0:0|0:0,0:0:0:0:
77,176,34341,5,0,0:0:0:0:
122,98,34644,2,0,P|176:60|240:75,1,135,8|0,0:0|0:0,0:0:0:0:
284,153,35401,2,0,P|337:190|401:175,1,135,0|8,0:0|0:0,0:0:0:0:
486,145,36159,6,0,L|499:236,1,89.9999999999999,0|8,0:0|0:0,0:0:0:0:
445,306,36765,2,0,P|382:325|323:295,1,135,4|0,0:2|0:0,0:0:0:0:
254,237,37523,1,0,0:0:0:0:
181,183,37826,2,0,B|127:149|127:149|56:160,1,135,0|8,0:0|0:0,0:0:0:0:
34,73,38583,2,0,L|133:57,1,89.9999999999999,0|8,0:0|0:0,0:0:0:0:
206,87,39189,6,0,P|260:126|326:120,1,135,0|0,0:0|0:0,0:0:0:0:
411,90,39947,2,0,L|427:178,1,89.9999999999999,0|0,0:0|0:0,0:0:0:0:
369,300,40705,2,0,L|275:286,1,89.9999999999999,8|0,0:0|0:0,0:0:0:0:
188,276,41311,1,8,0:0:0:0:
113,325,41614,6,0,P|80:243|108:159,1,180,4|8,0:0|0:0,0:0:0:0:
229,101,42674,2,0,L|363:94,1,135,0|0,0:0|0:0,0:0:0:0:
442,137,43432,2,0,L|460:236,1,89.9999999999999,8|0,0:0|0:0,0:0:0:0:
369,242,44038,6,0,L|351:341,1,89.9999999999999,0|8,0:0|2:0,0:0:0:0:
268,360,44644,2,0,P|202:364|151:310,2,135,0|8|8,0:0|0:0|0:0,0:0:0:0:
232,277,45856,2,0,L|215:142,1,135,0|4,0:0|0:2,0:0:0:0:
127,40,46765,6,0,L|30:28,2,89.9999999999999,0|8|0,0:0|0:0|0:0,0:0:0:0:
214,60,47674,2,0,L|309:47,1,89.9999999999999,0|0,0:0|0:0,0:0:0:0:
386,82,48280,1,8,0:0:0:0:
427,161,48583,1,8,0:0:0:0:
383,239,48886,6,0,P|296:219|206:210,1,180,0|0,1:0|1:0,0:0:0:0:
140,271,49795,1,0,1:0:0:0:
176,353,50098,2,0,B|203:330|203:330|350:322,1,180,0|2,1:0|1:0,0:0:0:0:
436,335,51008,1,2,1:0:0:0:
480,256,51311,2,0,P|495:214|498:170,1,89.9999999999999,0|0,1:0|1:0,0:0:0:0:
463,87,51917,1,0,1:0:0:0:
377,59,52220,2,0,L|332:55,1,45,0|8,1:0|1:2,0:0:0:0:
226,137,52826,6,0,P|162:154|105:120,1,135,2|2,0:0|0:0,0:0:0:0:
22,85,53583,2,0,B|12:175|12:175|30:216,1,135,4|8,1:0|0:0,0:0:0:0:
97,275,54341,2,0,L|231:263,1,135,0|4,1:0|1:2,0:0:0:0:
361,303,55250,6,0,L|374:209,1,89.9999999999999,10|2,0:1|1:1,0:0:0:0:
386,79,56008,2,0,P|336:35|270:34,2,135,4|8|2,1:1|0:0|1:2,0:0:0:0:
305,118,57220,2,0,L|170:119,1,135,4|10,1:2|0:1,0:0:0:0:
98,174,57977,6,0,B|84:263|84:263|101:304,2,135,2|4|8,1:1|1:0|0:0,0:0:0:0:
174,221,59189,2,0,L|270:213,1,89.9999999999999,0|8,1:0|0:0,0:0:0:0:
293,298,59795,2,0,L|382:305,1,89.9999999999999,0|12,1:0|0:2,0:0:0:0:
461,347,60401,2,0,L|476:248,1,89.9999999999999,0|12,1:0|0:2,0:0:0:0:
466,166,61008,6,0,P|414:127|348:133,1,135,4|12,1:2|0:0,0:0:0:0:
270,178,61765,1,10,0:1:0:0:
188,215,62068,2,0,L|53:203,1,135,6|2,1:1|1:1,0:0:0:0:
12,283,62826,1,2,1:1:0:0:
125,354,63280,6,0,P|182:319|247:330,1,135,4|8,1:1|0:0,0:0:0:0:
316,272,64038,2,0,L|460:275,2,135,0|6|10,1:0|1:0|1:0,0:0:0:0:
257,203,65250,1,2,1:0:0:0:
133,148,65705,6,0,P|113:211|134:275,2,135,4|8|2,1:0|0:0|0:0,0:0:0:0:
212,105,66917,2,0,B|277:90|283:122|345:104,1,135,6|10,1:0|1:0,0:0:0:0:
424,147,67674,2,0,B|442:234|442:234|436:279,1,135,10|4,1:0|1:0,0:0:0:0:
313,335,68583,6,0,P|233:295|145:305,1,180,8|8,0:0|0:0,0:0:0:0:
72,252,69492,2,0,L|64:156,1,89.9999999999999,4|8,0:0|0:0,0:0:0:0:
111,86,70098,2,0,P|171:57|236:69,2,135,2|4|8,1:2|0:0|0:0,0:0:0:0:
182,142,71311,6,0,L|184:231,1,89.9999999999999,0|10,1:0|0:0,0:0:0:0:
202,320,71917,2,0,P|237:347|281:349,1,89.9999999999999,0|8,1:0|0:0,0:0:0:0:
364,314,72523,2,0,L|498:300,2,135,0|4|8,1:0|0:0|0:0,0:0:0:0:
295,251,73735,6,0,P|283:207|282:162,1,89.9999999999999,8|8,0:0|0:0,0:0:0:0:
322,82,74341,2,0,L|226:68,1,89.9999999999999,8|8,0:0|0:0,0:0:0:0:
154,112,74947,2,0,B|66:124|66:124|22:109,1,135,8|4,0:0|0:0,0:0:0:0:
8,243,75856,1,8,0:0:0:0:
67,310,76159,2,0,L|168:299,1,89.9999999999999,8|8,0:0|0:0,0:0:0:0:
223,239,76765,2,0,L|312:248,1,89.9999999999999,4|0,0:0|0:0,0:0:0:0:
393,210,77371,6,0,P|421:149|400:87,1,135,2|0,0:0|0:0,0:0:0:0:
39,105,79038,6,0,P|95:140|160:126,1,135,4|8,0:0|0:0,0:0:0:0:
242,90,79795,2,0,L|376:80,2,135,0|0|8,0:0|0:0|0:0,0:0:0:0:
269,175,81008,2,0,B|291:264|291:264|288:307,1,135,2|0,0:0|0:0,0:0:0:0:
162,354,81917,6,0,P|76:361|29:289,2,180,8|0|8,0:0|0:0|0:0,0:0:0:0:
118,276,83432,2,0,L|105:181,1,89.9999999999999,2|0,0:0|0:0,0:0:0:0:
146,106,84038,2,0,L|289:95,2,135,4|8|8,0:0|0:0|0:0,0:0:0:0:
256,192,85098,12,4,86765,3:0:0:0:
