osu file format v14

[General]
AudioFilename: audio.mp3
AudioLeadIn: 0
PreviewTime: 52826
Countdown: 1
SampleSet: Normal
StackLeniency: 0.7
Mode: 0
LetterboxInBreaks: 0
WidescreenStoryboard: 0

[Editor]
DistanceSpacing: 0.8
BeatDivisor: 4
GridSize: 4
TimelineZoom: 1

[Metadata]
Title:Twintail Dreamer!
TitleUnicode:ツインテール・ドリーマー!
Artist:Twin-Tails
ArtistUnicode:Twin-Tails
Creator:Akane Hime
Version:Blazer Blade!
Source:俺、ツインテールになります。
Tags:
BeatmapID:1908863
BeatmapSetID:913855

[Difficulty]
HPDrainRate:7
CircleSize:4
OverallDifficulty:8
ApproachRate:9
SliderMultiplier:1.4
SliderTickRate:1

[Events]
//Background and Video events
0,0,"bg.jpg",0,0
//Break Periods
//Storyboard Layer 0 (Background)
//Storyboard Layer 1 (Fail)
//Storyboard Layer 2 (Pass)
//Storyboard Layer 3 (Foreground)
//Storyboard Sound Samples

[TimingPoints]
402,303.030303030303,4,1,0,100,1,0
3129,-133.333333333333,4,1,0,100,0,0
11008,-66.6666666666667,4,1,0,100,0,0
19644,-133.333333333333,4,1,0,100,0,0
41008,-100,4,1,0,100,0,0
50856,-66.6666666666667,4,1,0,100,0,0
53583,-80,4,1,0,100,0,1
56008,-50,4,1,0,100,0,1
58886,-100,4,1,0,100,0,1
71614,-66.6666666666667,4,1,0,100,0,1
71917,-57.1428571428571,4,1,0,100,0,1
72523,-66.6666666666667,4,1,0,100,0,1
73811,-80,4,1,0,100,0,1
77371,-100,4,1,0,100,0,1
77826,-250,4,1,0,100,0,1
79038,-80,4,1,0,100,0,1
79189,-100,4,1,0,100,0,0

[Colours]
Combo1 : 255,222,34
Combo2 : 202,0,5
Combo3 : 18,124,255

[HitObjects]
59,100,1917,6,0,L|128:113,2,70
210,165,2371,1,0,0:0:0:0:
121,217,2674,2,0,P|198:273|256:255,1,140
328,221,3129,2,0,L|388:182,1,52.5000020027161
229,77,3432,2,0,L|177:67,2,52.5000020027161
81,116,3886,2,0,P|42:157|35:206,1,105.000004005432
309,48,4341,6,0,P|331:63|363:66,2,52.5000020027161
456,135,4795,1,0,0:0:0:0:
323,164,5098,2,0,P|343:206|391:248,1,105.000004005432
259,253,5553,1,0,0:0:0:0:
319,329,5856,1,0,0:0:0:0:
112,289,6008,1,0,0:0:0:0:
79,206,6311,6,0,P|66:155|71:98,1,105.000004005432
151,38,6765,1,0,0:0:0:0:
205,138,7068,2,0,P|263:172|310:184,1,105.000004005432
288,86,7523,1,0,0:0:0:0:
435,87,7674,1,0,0:0:0:0:
362,207,7826,1,0,0:0:0:0:
363,32,7977,5,0,0:0:0:0:
459,161,8129,1,0,0:0:0:0:
270,161,8280,2,0,L|220:128,1,52.5000020027161
38,140,8583,6,0,P|53:118|73:101,1,52.5000020027161
186,226,8886,6,0,P|171:204|152:187,1,52.5000020027161
46,319,9189,6,0,P|61:297|81:280,1,52.5000020027161
248,104,9492,6,0,P|283:73|306:62,1,52.5000020027161
269,196,9795,5,0,0:0:0:0:
398,132,9947,1,0,0:3:0:0:
366,280,10098,1,0,0:3:0:0:
307,117,10250,1,0,0:0:0:0:
441,220,10401,2,0,P|469:236|487:256,1,52.5000020027161
482,250,10629,1,0,0:0:0:0:
482,250,10705,1,0,0:0:0:0:
28,153,11008,6,0,P|43:103|79:65,1,105.000004005432
191,241,11311,6,0,P|176:191|141:153,1,105.000004005432
29,338,11614,6,0,P|44:288|80:250,1,105.000004005432
254,107,11917,5,0,0:0:0:0:
287,96,11992,1,0,0:0:0:0:
322,95,12068,1,0,0:0:0:0:
357,101,12144,1,0,0:0:0:0:
389,116,12220,1,0,0:0:0:0:
416,138,12295,1,0,0:0:0:0:
438,165,12371,2,0,P|471:220|493:261,1,105.000004005432
335,237,12674,5,0,0:0:0:0:
261,323,12826,2,0,P|195:311|156:292,1,105.000004005432
209,194,13129,2,0,P|154:166|106:177,1,105.000004005432
24,284,13432,1,0,0:0:0:0:
27,119,13583,2,0,P|72:80|120:72,1,105.000004005432
219,73,13886,1,0,0:0:0:0:
127,171,14038,2,0,P|206:199|230:199,1,105.000004005432
342,73,14341,6,0,P|396:91|422:137,1,105.000004005432
326,166,14644,1,0,0:0:0:0:
399,247,14795,2,0,L|452:339,1,105.000004005432
303,269,15098,1,0,0:0:0:0:
279,369,15250,2,0,P|214:338|205:291,1,105.000004005432
85,238,15553,2,0,P|137:188|184:196,1,105.000004005432
65,111,15856,1,0,0:0:0:0:
160,57,16008,2,0,P|215:38|269:37,1,105.000004005432
232,135,16311,5,0,0:0:0:0:
332,126,16462,2,0,P|325:177|292:216,1,105.000004005432
334,34,16765,2,0,P|390:38|420:79,1,105.000004005432
427,198,17068,1,0,0:0:0:0:
337,294,17220,2,0,L|197:339,1,105.000004005432
237,326,17447,1,0,0:0:0:0:
237,326,17523,1,0,0:0:0:0:
110,314,17674,6,0,P|81:270|69:218,1,105.000004005432
130,120,17977,2,0,P|159:164|171:216,1,105.000004005432
190,298,18280,1,0,0:0:0:0:
308,128,18432,2,0,P|296:179|268:223,1,105.000004005432
63,273,18735,5,0,0:0:0:0:
145,167,18886,1,0,0:0:0:0:
206,326,19038,1,0,0:0:0:0:
46,172,19189,2,0,P|63:107|106:67,1,105.000004005432
145,167,19492,1,0,0:0:0:0:
219,51,19644,6,0,L|281:50,1,52.5000020027161
318,146,19947,6,0,L|253:146,1,52.5000020027161
428,169,20250,1,0,0:0:0:0:
490,59,20402,1,0,0:0:0:0:
365,47,20554,1,0,0:0:0:0:
428,169,20705,2,0,L|427:240,1,52.5000020027161
421,238,20932,5,0,0:0:0:0:
404,258,21007,1,0,0:0:0:0:
384,275,21083,1,0,0:0:0:0:
362,289,21159,1,0,0:0:0:0:
338,299,21235,1,0,0:0:0:0:
312,306,21310,1,0,0:0:0:0:
286,309,21386,1,0,0:0:0:0:
260,307,21462,1,0,0:0:0:0:
73,200,21614,5,0,0:0:0:0:
73,200,21917,1,0,0:0:0:0:
73,200,22220,2,0,P|52:151|57:130,1,52.5000020027161
67,71,22523,1,0,0:0:0:0:
134,127,22674,2,0,P|166:133|191:129,1,52.5000020027161
223,54,22977,2,0,P|256:49|281:55,1,52.5000020027161
336,142,23280,2,0,P|344:173|331:248,1,105.000004005432
332,244,23735,1,0,0:0:0:0:
332,244,23886,1,0,0:0:0:0:
210,339,24038,6,0,P|175:323|155:300,1,52.5000020027161
133,222,24341,2,0,P|163:219|195:226,1,52.5000020027161
271,268,24644,2,0,P|299:246|314:222,1,52.5000020027161
345,154,24947,1,0,0:0:0:0:
345,154,25098,1,0,0:0:0:0:
345,154,25402,1,0,0:0:0:0:
345,154,25705,2,0,P|339:111|329:86,1,52.5000020027161
435,72,26008,1,0,0:0:0:0:
272,31,26159,2,0,P|246:56|239:80,1,52.5000020027161
116,65,26462,6,0,P|95:90|81:125,1,52.5000020027161
176,142,26765,2,0,P|188:172|187:204,1,52.5000020027161
93,238,27068,2,0,P|87:268|91:297,1,52.5000020027161
186,334,27371,1,0,0:0:0:0:
324,279,27523,1,0,0:0:0:0:
324,279,27826,1,0,0:0:0:0:
324,279,28129,2,0,P|356:250|367:234,1,52.5000020027161
166,252,28432,1,0,0:0:0:0:
101,112,28583,6,0,L|172:99,1,52.5000020027161
208,187,28886,2,0,P|239:183|273:164,1,52.5000020027161
296,84,29189,2,0,L|352:74,1,52.5000020027161
426,141,29492,2,0,P|447:180|451:210,1,52.5000020027161
448,187,29795,1,0,0:0:0:0:
448,187,29947,1,0,0:0:0:0:
353,317,30250,6,0,L|278:317,1,52.5000020027161
127,232,30553,1,0,0:0:0:0:
304,234,30704,1,0,0:0:0:0:
162,333,30856,1,0,0:0:0:0:
218,176,31007,1,0,0:0:0:0:
345,337,31159,1,0,0:0:0:0:
427,314,31311,6,0,P|453:272|454:251,1,52.5000020027161
367,242,31614,6,0,P|341:200|340:179,1,52.5000020027161
441,182,31917,6,0,P|467:140|468:119,1,52.5000020027161
343,106,32220,5,0,0:0:0:0:
454,57,32371,2,0,P|417:37|387:32,1,52.5000020027161
238,36,32674,5,0,0:0:0:0:
238,36,32977,2,0,P|188:33|162:35,1,52.5000020027161
156,126,33280,1,0,0:0:0:0:
58,83,33432,2,0,P|45:114|42:146,1,52.5000020027161
107,201,33735,6,0,P|119:231|118:263,1,52.5000020027161
27,256,34038,2,0,P|21:286|25:315,1,52.5000020027161
116,346,34341,2,0,P|142:345|166:336,1,52.5000020027161
204,226,34644,1,0,0:0:0:0:
345,328,34795,1,0,0:0:0:0:
345,328,35098,1,0,0:0:0:0:
345,328,35401,2,0,P|380:298|391:276,1,52.5000020027161
300,196,35705,1,0,0:0:0:0:
459,157,35856,1,0,0:0:0:0:
348,67,36159,6,0,P|315:60|291:59,1,52.5000020027161
210,127,36462,2,0,P|240:144|265:151,1,52.5000020027161
189,30,36765,2,0,P|157:42|129:57,1,52.5000020027161
210,127,37068,1,0,0:0:0:0:
80,130,37220,2,0,P|64:157|46:182,1,52.5000020027161
160,219,37523,2,0,P|192:246|204:260,1,52.5000020027161
77,298,37826,2,0,P|123:347|172:349,1,105.000004005432
157,351,38280,1,0,0:0:0:0:
157,351,38583,1,0,0:0:0:0:
301,329,38886,6,0,P|296:282|304:258,1,52.5000020027161
365,212,39189,2,0,P|378:249|377:270,1,52.5000020027161
261,176,39492,1,0,0:0:0:0:
396,86,39644,1,0,0:0:0:0:
396,86,39947,1,0,0:0:0:0:
396,86,40250,2,0,P|361:62|334:52,1,52.5000020027161
194,133,40553,1,0,0:0:0:0:
321,216,40705,1,0,0:0:0:0:
351,60,40856,1,0,0:0:0:0:
201,62,41008,6,0,P|153:57|121:57,1,70
29,93,41311,2,0,P|54:121|96:149,1,70
180,145,41614,2,0,P|164:186|143:211,1,70
56,252,41917,2,0,P|85:286|115:301,1,70
208,283,42220,1,0,0:0:0:0:
271,186,42371,2,0,P|308:227|317:250,1,70
284,338,42674,2,0,P|335:342|376:332,1,70
353,339,42901,1,0,0:0:0:0:
353,339,42977,1,0,0:0:0:0:
423,267,43129,6,0,P|386:256|350:232,1,70
409,159,43432,2,0,P|372:142|333:147,1,70
270,202,43735,2,0,P|251:165|251:135,1,70
315,72,44038,2,0,P|256:47|232:50,1,70
152,96,44341,2,0,P|148:57|160:27,1,70
56,106,44644,2,0,P|61:142|96:186,1,70
166,212,44947,1,0,0:0:0:0:
83,276,45098,2,0,P|124:306|160:315,1,70
141,311,45326,1,0,0:0:0:0:
141,311,45401,1,0,0:0:0:0:
241,344,45553,6,0,P|285:320|299:291,1,70
212,251,45856,1,0,0:0:0:0:
119,195,46008,2,0,P|161:161|201:146,1,70
268,173,46311,2,0,P|275:125|255:99,1,70
265,108,46538,1,0,0:0:0:0:
265,108,46614,1,0,0:0:0:0:
195,45,46765,2,0,P|226:28|261:28,1,70
360,73,47068,2,0,P|378:112|370:156,1,70
295,180,47371,2,0,P|342:225|372:232,1,70
442,193,47674,2,0,P|448:237|421:280,1,70
359,323,47977,6,0,P|407:351|443:355,1,70
267,347,48280,2,0,P|264:308|281:260,1,70
374,211,48583,1,0,0:0:0:0:
349,185,48658,1,0,0:0:0:0:
320,166,48734,1,0,0:0:0:0:
287,155,48810,1,0,0:0:0:0:
252,151,48886,2,0,P|207:151|118:186,1,140
75,265,49341,2,0,P|36:223|31:193,1,70
61,93,49644,5,0,0:0:0:0:
252,121,49795,1,0,0:0:0:0:
111,250,49947,1,0,0:0:0:0:
166,38,50098,1,0,0:0:0:0:
230,234,50250,1,0,0:0:0:0:
32,178,50401,1,0,0:0:0:0:
261,56,50553,2,0,P|308:40|351:46,1,70
471,137,50856,6,0,L|425:110,1,52.5000020027161
285,175,51008,6,0,L|330:148,1,52.5000020027161
454,242,51159,6,0,L|409:216,1,52.5000020027161
322,286,51311,6,0,P|252:311|216:305,1,105.000004005432
72,268,51614,1,0,0:0:0:0:
165,57,51765,1,0,0:0:0:0:
228,285,51917,1,0,0:0:0:0:
21,83,52068,1,0,0:0:0:0:
343,96,52220,1,0,0:0:0:0:
30,193,52371,1,0,0:0:0:0:
345,242,52523,1,0,0:0:0:0:
106,55,52674,1,0,0:0:0:0:
376,68,52826,6,0,P|411:123|426:169,1,105.000004005432
435,194,53129,1,0,0:0:0:0:
202,104,53280,1,0,0:0:0:0:
202,104,53583,6,0,P|134:68|41:138,1,175
138,183,54038,2,0,P|199:210|227:201,1,87.5
300,167,54341,1,0,0:0:0:0:
300,167,54492,2,0,P|322:110|305:67,1,87.5
185,42,54795,2,0,P|151:72|139:117,1,87.5
139,112,55023,1,0,0:0:0:0:
139,112,55098,1,0,0:0:0:0:
211,201,55250,5,0,0:0:0:0:
362,87,55401,1,0,0:0:0:0:
372,267,55553,1,0,0:0:0:0:
258,59,55705,1,0,0:0:0:0:
450,146,55856,1,0,0:0:0:0:
154,276,56008,2,0,P|119:148|126:127,1,140
120,145,56235,1,0,0:0:0:0:
120,145,56311,1,0,0:0:0:0:
259,64,56462,6,0,P|335:53|402:72,1,140
462,157,56765,1,0,0:0:0:0:
277,197,56917,1,0,0:0:0:0:
434,322,57068,1,0,0:0:0:0:
155,322,57220,1,0,0:0:0:0:
360,236,57371,1,0,0:0:0:0:
45,249,57523,1,0,0:0:0:0:
49,137,57674,6,0,P|141:88|181:78,1,140
272,113,57977,1,0,0:0:0:0:
178,170,58129,2,0,P|240:215|307:213,1,140
368,119,58432,2,0,P|419:185|415:258,1,140
420,238,58659,1,0,0:0:0:0:
420,238,58735,1,0,0:0:0:0:
108,294,58886,6,0,P|82:257|75:206,1,70
141,147,59189,6,0,P|162:174|173:207,1,70
44,121,59492,6,0,P|66:81|109:53,1,70
200,60,59795,5,0,0:0:0:0:
396,108,59947,1,0,0:0:0:0:
236,238,60098,1,0,0:0:0:0:
309,29,60250,1,0,0:0:0:0:
433,237,60401,1,0,0:0:0:0:
175,117,60553,1,0,0:0:0:0:
445,100,60705,1,0,0:0:0:0:
445,100,61008,5,0,0:0:0:0:
320,185,61311,1,0,0:0:0:0:
479,325,61462,1,0,0:0:0:0:
479,325,61765,1,0,0:0:0:0:
479,325,62068,2,0,P|445:304|393:300,1,70
380,291,62371,1,0,0:0:0:0:
269,311,62523,5,0,0:0:0:0:
236,323,62598,1,0,0:0:0:0:
201,328,62674,1,0,0:0:0:0:
167,326,62750,1,0,0:0:0:0:
133,315,62826,1,0,0:0:0:0:
102,299,62901,5,0,0:0:0:0:
77,274,62977,1,0,0:0:0:0:
57,246,63053,1,0,0:0:0:0:
44,213,63129,1,0,0:0:0:0:
38,179,63204,1,0,0:0:0:0:
40,144,63280,2,0,P|57:97|83:76,1,70
140,34,63583,1,0,0:0:0:0:
296,126,63735,1,0,0:0:0:0:
127,192,63886,1,0,0:0:0:0:
267,24,64038,5,0,0:0:0:0:
313,243,64189,1,0,0:0:0:0:
140,110,64341,1,0,0:0:0:0:
366,117,64492,2,0,P|415:142|438:177,1,70
424,152,64720,1,0,0:0:0:0:
424,152,64795,1,0,0:0:0:0:
173,320,64947,6,0,P|138:295|119:259,1,70
108,179,65250,1,0,0:0:0:0:
202,146,65401,2,0,P|170:106|122:93,1,70
274,241,65705,2,0,P|333:248|425:210,1,140
228,54,66159,6,0,P|262:60|295:74,1,70
213,149,66462,1,0,0:0:0:0:
213,149,66614,1,0,0:0:0:0:
104,188,66765,2,0,P|95:155|102:121,2,70
141,303,67220,1,0,0:0:0:0:
269,322,67371,6,0,P|311:278|325:250,1,70
345,148,67674,1,0,0:0:0:0:
410,312,67826,1,0,0:0:0:0:
463,100,67977,1,0,0:0:0:0:
344,35,68129,2,0,P|288:23|249:26,1,70
105,103,68432,5,0,0:0:0:0:
216,236,68583,1,0,0:0:0:0:
47,172,68735,1,0,0:0:0:0:
254,151,68886,2,0,P|295:156|338:171,1,70
114,85,69189,5,0,0:0:0:0:
394,233,69341,1,0,0:0:0:0:
105,223,69492,5,0,0:0:0:0:
381,117,69644,1,0,0:0:0:0:
174,26,69795,5,0,0:0:0:0:
309,310,69947,1,0,0:0:0:0:
286,27,70098,5,0,0:0:0:0:
150,345,70250,1,0,0:0:0:0:
137,22,70401,5,0,0:0:0:0:
249,350,70553,1,0,0:0:0:0:
183,32,70705,1,0,0:0:0:0:
213,36,70780,1,0,0:0:0:0:
242,46,70856,1,0,0:0:0:0:
268,60,70932,1,0,0:0:0:0:
292,79,71008,5,0,0:0:0:0:
311,102,71083,1,0,0:0:0:0:
326,128,71159,1,0,0:0:0:0:
336,156,71235,1,0,0:0:0:0:
342,187,71311,2,0,P|335:227|316:263,1,70
92,303,71614,6,0,B|65:268|65:268|70:202,1,105.000004005432
114,123,71917,2,0,B|197:132|197:132|166:190,1,122.500001168251
204,266,72220,2,0,B|186:301|186:301|269:310,1,122.500001168251
420,232,72523,2,0,B|424:171|424:171|393:133,1,105.000004005432
378,117,72750,1,0,0:0:0:0:
354,95,72825,1,0,0:0:0:0:
326,79,72901,5,0,0:0:0:0:
296,69,72977,1,0,0:0:0:0:
269,63,73053,1,0,0:0:0:0:
237,59,73129,1,0,0:0:0:0:
201,64,73205,5,0,0:0:0:0:
144,79,73280,1,0,0:0:0:0:
99,116,73356,1,0,0:0:0:0:
73,168,73432,1,0,0:0:0:0:
71,227,73508,1,0,0:0:0:0:
93,281,73583,1,0,0:0:0:0:
136,321,73659,1,0,0:0:0:0:
184,333,73735,2,0,L|289:317,1,105.000004005432
427,116,74038,5,0,0:0:0:0:
67,96,74189,1,0,0:0:0:0:
392,29,74341,5,0,0:0:0:0:
86,218,74492,1,0,0:0:0:0:
228,30,74644,5,0,0:0:0:0:
415,319,74795,1,0,0:0:0:0:
426,138,74947,2,0,P|371:99|323:88,1,87.5
260,95,75250,1,0,0:0:0:0:
289,189,75401,6,0,P|362:218|389:242,1,87.5
436,282,75705,2,0,P|392:312|331:296,1,87.5
289,189,76008,2,0,P|329:135|376:122,1,87.5
451,87,76311,1,0,0:0:0:0:
387,214,76462,5,0,0:0:0:0:
387,214,76765,1,0,0:0:0:0:
387,214,77068,1,0,0:0:0:0:
387,214,77371,2,0,P|367:159|285:101,1,140
114,34,77826,2,0,L|113:240,1,196
227,80,79038,6,0,P|293:73|318:87,1,87.5
386,139,79341,1,0,0:0:0:0:
280,169,79492,2,0,P|308:220|343:236,1,70
444,223,79795,2,0,P|432:274|408:289,1,70
308,304,80098,1,0,0:0:0:0:
231,350,80250,2,0,P|199:337|178:310,1,70
159,217,80553,1,0,0:0:0:0:
262,200,80705,2,0,P|244:156|209:136,1,70
58,213,81008,6,0,L|43:114,1,70
134,97,81311,1,0,0:0:0:0:
60,47,81462,2,0,P|96:19|139:8,1,70
222,53,81765,1,0,0:0:0:0:
243,147,81917,6,0,P|233:199|213:229,1,70
114,175,82220,2,0,P|112:243|128:267,1,70
205,321,82523,1,0,0:0:0:0:
317,251,82674,2,0,P|330:203|329:165,1,70
243,102,82977,1,0,0:0:0:0:
376,50,83129,2,0,P|403:89|413:119,1,70
303,127,83432,6,0,P|270:164|247:195,3,70
169,278,84038,5,0,0:0:0:0:
225,51,84189,1,0,0:0:0:0:
330,333,84341,1,0,0:0:0:0:
126,173,84492,5,0,0:0:0:0:
341,38,84644,1,0,0:0:0:0:
216,323,84795,1,0,0:0:0:0:
49,50,84947,5,0,0:0:0:0:
401,186,85098,1,0,0:0:0:0:
59,329,85250,1,0,0:0:0:0:
256,192,85401,12,0,87068,0:0:0:0:
