osu file format v14

[General]
AudioFilename: audio.ogg
AudioLeadIn: 0
PreviewTime: 56468
Countdown: 0
SampleSet: Soft
StackLeniency: 0.3
Mode: 0
LetterboxInBreaks: 0
WidescreenStoryboard: 1

[Editor]
DistanceSpacing: 1.3
BeatDivisor: 4
GridSize: 16
TimelineZoom: 3.599999

[Metadata]
Title:Valley of the Vale
TitleUnicode:Valley of the Vale
Artist:Twilight Force
ArtistUnicode:Twilight Force
Creator:nebuwua
Version:Werhakon's Extreme
Source:
Tags:roupus dcs nymphe awfulness gabdu09 dabbe_01 sh4rq_ sh3rg_ werhakon gloryhammer symphonic melodic power metal adventure epic fantasy english nuclear blast records dawn of the dragonstar born borne Christer Björn Mikael Lundkvist Johan Philip Michael Lindh Eldhrimnir Daniel Beckman Gustaf Hansfeldt Aerendir Anders Joakim Johansson Alessandro Conti Ylva Eriksson Lynd Blackwald De'Azsh Allyon
BeatmapID:3975714
BeatmapSetID:1913010

[Difficulty]
HPDrainRate:5.5
CircleSize:4
OverallDifficulty:9.7
ApproachRate:9.7
SliderMultiplier:2
SliderTickRate:1

[Events]
//Background and Video events
0,0,"votvupscl.jpg",0,0
//Break Periods
2,157800,159631
//Storyboard Layer 0 (Background)
//Storyboard Layer 1 (Fail)
//Storyboard Layer 2 (Pass)
//Storyboard Layer 3 (Foreground)
//Storyboard Layer 4 (Overlay)
//Storyboard Sound Samples

[TimingPoints]
3495,315.789473684211,4,2,1,60,1,0
3495,-133.333333333333,4,2,1,60,0,0
4600,-100,4,2,1,5,0,0
4758,-100,4,2,1,60,0,0
5310,-100,4,2,1,5,0,0
5389,-100,4,2,1,60,0,0
5863,-100,4,2,1,5,0,0
6021,-133.333333333333,4,2,1,60,0,0
7126,-100,4,2,1,5,0,0
7284,-133.333333333333,4,2,2,60,0,0
8389,-100,4,2,1,5,0,0
8547,-133.333333333333,4,2,2,60,0,0
9100,-100,4,2,1,5,0,0
9179,-133.333333333333,4,2,2,60,0,0
9652,-100,4,2,1,5,0,0
9810,-100,4,2,1,60,0,0
11073,-100,4,2,2,60,0,0
11705,-100,4,2,1,60,0,0
12337,-100,4,2,3,60,0,0
12652,-100,4,2,4,60,0,0
12810,-100,4,2,1,30,0,0
12889,-100,4,2,1,45,0,0
12968,-100,4,2,1,60,0,0
13284,-100,4,2,5,60,0,0
13521,-100,4,2,1,5,0,0
13600,-100,4,2,2,60,0,0
13916,-90.9090909090909,4,2,1,60,0,0
16126,-90.9090909090909,4,2,2,60,0,0
16442,-90.9090909090909,4,2,1,60,0,0
18652,-90.9090909090909,4,2,2,60,0,0
18968,-90.9090909090909,4,2,1,60,0,0
21179,-90.9090909090909,4,2,2,60,0,0
21495,-90.9090909090909,4,2,1,60,0,0
23705,-90.9090909090909,4,2,4,60,0,0
24968,-133.333333333333,4,2,2,60,0,0
26073,-100,4,2,1,5,0,0
26231,-100,4,2,2,60,0,0
26547,-100,4,2,1,60,0,0
26784,-100,4,2,1,5,0,0
26863,-100,4,2,1,60,0,0
27021,-100,4,2,1,5,0,0
27100,-100,4,2,1,60,0,0
28284,-100,4,2,1,5,0,0
28363,-100,4,2,1,60,0,0
29310,-100,4,2,1,5,0,0
29389,-100,4,2,1,60,0,0
30100,-100,4,2,1,5,0,0
30179,-100,4,2,1,60,0,0
30731,-100,4,2,1,5,0,0
30810,-100,4,2,1,60,0,0
31284,-83.3333333333333,4,2,1,60,0,0
31758,-100,4,2,1,60,0,0
31837,-100,4,2,1,5,0,0
31916,-100,4,2,1,60,0,0
32547,-83.3333333333333,4,2,1,60,0,0
33100,-100,4,2,1,5,0,0
33179,-83.3333333333333,4,2,1,60,0,0
33337,-100,4,2,1,5,0,0
33416,-100,4,2,1,60,0,0
33810,-90.9090909090909,4,2,1,60,0,0
34205,-90.9090909090909,4,2,1,5,0,0
34284,-90.9090909090909,4,2,1,60,0,0
34442,-90.9090909090909,4,2,3,60,0,0
34758,-80,4,2,4,60,0,0
35073,-90.9090909090909,4,2,1,60,0,0
35468,-90.9090909090909,4,2,1,5,0,0
35547,-90.9090909090909,4,2,1,60,0,0
35705,-90.9090909090909,4,2,6,60,0,0
36021,-90.9090909090909,4,2,7,60,0,0
36337,-90.9090909090909,4,2,2,60,0,0
36652,-90.9090909090909,4,2,1,60,0,0
37126,-100,4,2,1,60,0,0
45652,-133.333333333333,4,2,1,60,0,0
45810,-133.333333333333,4,2,3,60,0,0
45889,-133.333333333333,4,2,3,5,0,0
45968,-133.333333333333,4,2,8,60,0,0
46047,-133.333333333333,4,2,8,5,0,0
46126,-200,4,2,4,60,0,0
46205,-200,4,2,4,5,0,0
46284,-200,4,2,5,60,0,0
46363,-200,4,2,5,5,0,0
46442,-200,4,2,2,60,0,0
46600,-90.9090909090909,4,2,2,60,0,0
46836,-90.9090909090909,4,2,1,60,0,0
49521,-90.9090909090909,4,2,1,5,0,0
49600,-90.9090909090909,4,2,1,60,0,0
50152,-90.9090909090909,4,2,1,5,0,0
50231,-90.9090909090909,4,2,1,60,0,0
52126,-80,4,2,1,60,0,0
53389,-80,4,2,2,60,0,0
54021,-80,4,2,1,60,0,0
54100,-80,4,2,9,60,0,0
54652,-80,4,2,6,60,0,0
55284,-80,4,2,9,60,0,0
55442,-80,4,2,6,60,0,0
55600,-80,4,2,7,60,0,0
55758,-80,4,2,5,60,0,0
55916,-1000,4,2,2,60,0,0
56231,-1000,4,2,2,5,0,0
56547,-1000,4,2,2,70,0,1
56863,-1000,4,2,1,70,0,1
57021,-90.9090909090909,4,2,1,70,0,1
61284,-90.9090909090909,4,2,6,70,0,1
61442,-90.9090909090909,4,2,2,70,0,1
62863,-90.9090909090909,4,2,10,70,0,1
63495,-90.9090909090909,4,2,2,70,0,1
64126,-90.9090909090909,4,2,1,70,0,1
65389,-90.9090909090909,4,2,9,70,0,1
65705,-90.9090909090909,4,2,6,70,0,1
66021,-133.333333333333,4,2,9,70,0,1
66179,-133.333333333333,4,2,6,70,0,1
66337,-133.333333333333,4,2,7,70,0,1
66495,-133.333333333333,4,2,5,70,0,1
66652,-133.333333333333,4,2,2,70,0,1
66968,-133.333333333333,4,2,1,70,0,1
67126,-133.333333333333,4,2,2,70,0,1
67284,-133.333333333333,4,2,1,70,0,1
67442,-133.333333333333,4,2,2,70,0,1
67600,-133.333333333333,4,2,1,70,0,1
67758,-90.9090909090909,4,2,2,70,0,1
67916,-90.9090909090909,4,2,1,70,0,1
68073,-90.9090909090909,4,2,2,70,0,1
68231,-90.9090909090909,4,2,1,70,0,1
68389,-90.9090909090909,4,2,2,70,0,1
68547,-90.9090909090909,4,2,1,70,0,1
68705,-90.9090909090909,4,2,2,70,0,1
68863,-90.9090909090909,4,2,1,70,0,1
69021,-90.9090909090909,4,2,2,70,0,1
71073,-90.9090909090909,4,2,1,70,0,1
71705,-90.9090909090909,4,2,2,70,0,1
72021,-90.9090909090909,4,2,1,70,0,1
72179,-90.9090909090909,4,2,2,70,0,1
72337,-90.9090909090909,4,2,1,70,0,1
72495,-90.9090909090909,4,2,2,70,0,1
72652,-90.9090909090909,4,2,1,70,0,1
72810,-90.9090909090909,4,2,2,70,0,1
72968,-90.9090909090909,4,2,1,70,0,1
73442,-90.9090909090909,4,2,2,70,0,1
73600,-90.9090909090909,4,2,1,70,0,1
73758,-90.9090909090909,4,2,2,70,0,1
73916,-90.9090909090909,4,2,1,70,0,1
74073,-90.9090909090909,4,2,2,70,0,1
74231,-90.9090909090909,4,2,11,70,0,0
74547,-100,4,2,11,70,0,0
74863,-111.111111111111,4,2,9,70,0,0
75179,-125,4,2,9,70,0,0
75495,-142.857142857143,4,2,11,70,0,0
75810,-166.666666666666,4,2,9,70,0,0
76126,-100,4,2,12,70,0,0
76231,-100,4,2,1,5,0,0
76337,-100,4,2,4,70,0,0
76442,-100,4,2,4,5,0,0
76547,-100,4,2,5,70,0,0
76652,-100,4,2,5,5,0,0
76758,-100,4,2,2,60,0,0
77074,-100,4,2,50,60,0,0
77079,-100,4,2,2,60,0,0
77547,-100,4,2,2,5,0,0
77705,-100,4,2,2,60,0,0
77863,-100,4,2,2,5,0,0
78021,-100,4,2,1,60,0,0
78337,-100,4,2,50,60,0,0
78342,-100,4,2,1,60,0,0
78652,-100,4,2,2,60,0,0
78810,-100,4,2,2,5,0,0
78968,-100,4,2,2,60,0,0
79126,-100,4,2,2,5,0,0
79284,-100,4,2,1,60,0,0
79521,-100,4,2,1,5,0,0
79600,-100,4,2,1,60,0,0
79679,-100,4,2,1,5,0,0
79758,-100,4,2,1,60,0,0
79837,-100,4,2,1,5,0,0
79916,-100,4,2,2,60,0,0
80073,-100,4,2,2,5,0,0
80231,-100,4,2,2,60,0,0
80389,-100,4,2,2,5,0,0
80547,-100,4,2,1,60,0,0
80705,-100,4,2,8,60,0,0
80863,-100,4,2,1,5,0,0
81021,-100,4,2,8,60,0,0
81179,-100,4,2,13,60,0,0
81337,-100,4,2,1,5,0,0
81495,-100,4,2,4,60,0,0
81810,-100,4,2,1,60,0,0
82442,-100,4,2,2,60,0,0
82600,-100,4,2,1,5,0,0
82758,-100,4,2,2,60,0,0
82916,-100,4,2,6,60,0,0
83073,-100,4,2,1,60,0,0
83389,-100,4,2,7,60,0,0
83547,-100,4,2,5,60,0,0
83705,-100,4,2,2,60,0,0
83863,-100,4,2,1,5,0,0
84021,-100,4,2,2,60,0,0
84495,-100,4,2,1,5,0,0
84652,-100,4,2,7,60,0,0
84810,-100,4,2,5,60,0,0
84968,-100,4,2,8,60,0,0
85284,-100,4,2,4,60,0,0
85600,-100,4,2,2,30,0,0
85916,-100,4,2,2,40,0,0
86231,-100,4,2,2,50,0,0
86547,-100,4,2,2,60,0,0
86863,-100,4,2,2,70,0,0
87179,-100,4,2,1,60,0,0
87416,-100,4,2,1,5,0,0
87495,-100,4,2,1,60,0,0
87652,-100,4,2,1,5,0,0
87731,-100,4,2,1,60,0,0
88916,-100,4,2,1,5,0,0
88995,-100,4,2,1,60,0,0
89942,-100,4,2,1,5,0,0
90021,-80,4,2,69,60,0,0
90257,-80,4,2,1,60,0,0
90968,-80,4,2,4,60,0,0
91205,-100,4,2,1,5,0,0
91284,-100,4,2,1,60,0,0
91600,-100,4,2,4,60,0,0
91837,-100,4,2,1,5,0,0
91916,-83.3333333333333,4,2,1,60,0,0
92389,-100,4,2,1,60,0,0
92468,-100,4,2,1,5,0,0
92547,-100,4,2,1,60,0,0
92705,-100,4,2,1,5,0,0
92784,-100,4,2,1,60,0,0
93179,-83.3333333333333,4,2,1,60,0,0
93731,-83.3333333333333,4,2,1,5,0,0
93810,-83.3333333333333,4,2,1,60,0,0
93968,-83.3333333333333,4,2,1,5,0,0
94047,-83.3333333333333,4,2,1,60,0,0
94442,-90.9090909090909,4,2,1,60,0,0
94837,-90.9090909090909,4,2,1,5,0,0
94916,-90.9090909090909,4,2,1,60,0,0
94995,-90.9090909090909,4,2,1,5,0,0
95073,-90.9090909090909,4,2,3,60,0,0
95389,-90.9090909090909,4,2,4,60,0,0
95705,-90.9090909090909,4,2,1,60,0,0
96100,-90.9090909090909,4,2,1,5,0,0
96179,-90.9090909090909,4,2,1,60,0,0
96337,-90.9090909090909,4,2,6,60,0,0
96652,-90.9090909090909,4,2,7,60,0,0
96968,-90.9090909090909,4,2,2,60,0,0
97126,-100,4,2,2,60,0,0
97284,-100,4,2,1,60,0,0
105810,-133.333333333333,4,2,1,60,0,0
106442,-133.333333333333,4,2,3,60,0,0
106521,-133.333333333333,4,2,3,5,0,0
106600,-133.333333333333,4,2,8,60,0,0
106679,-133.333333333333,4,2,8,5,0,0
106758,-200,4,2,4,60,0,0
106837,-200,4,2,4,5,0,0
106916,-200,4,2,5,60,0,0
106995,-200,4,2,5,5,0,0
107073,-200,4,2,2,60,0,0
107231,-90.9090909090909,4,2,2,60,0,0
107467,-90.9090909090909,4,2,1,60,0,0
110152,-90.9090909090909,4,2,1,5,0,0
110231,-90.9090909090909,4,2,1,60,0,0
110783,-90.9090909090909,4,2,1,5,0,0
110862,-90.9090909090909,4,2,1,60,0,0
112758,-80,4,2,1,60,0,0
114021,-80,4,2,2,60,0,0
114652,-80,4,2,1,60,0,0
114731,-80,4,2,11,60,0,0
114968,-80,4,2,9,60,0,0
115284,-80,4,2,6,60,0,0
115916,-80,4,2,14,60,0,0
115995,-80,4,2,9,60,0,0
116231,-80,4,2,15,60,0,0
116310,-80,4,2,6,60,0,0
116547,-1000,4,2,13,60,0,0
116863,-1000,4,2,13,5,0,0
117179,-1000,4,2,2,70,0,1
117495,-1000,4,2,1,70,0,1
117652,-90.9090909090909,4,2,1,70,0,1
121916,-90.9090909090909,4,2,6,70,0,1
122073,-90.9090909090909,4,2,2,70,0,1
123495,-90.9090909090909,4,2,10,70,0,1
124126,-90.9090909090909,4,2,2,70,0,1
124758,-90.9090909090909,4,2,1,70,0,1
126021,-90.9090909090909,4,2,9,70,0,1
126337,-90.9090909090909,4,2,6,70,0,1
126652,-90.9090909090909,4,2,9,70,0,1
126810,-90.9090909090909,4,2,6,70,0,1
126968,-133.333333333333,4,2,7,70,0,1
127126,-133.333333333333,4,2,5,70,0,1
127284,-133.333333333333,4,2,2,70,0,1
127600,-133.333333333333,4,2,1,70,0,1
127758,-133.333333333333,4,2,2,70,0,1
127916,-133.333333333333,4,2,1,70,0,1
128073,-133.333333333333,4,2,2,70,0,1
128231,-133.333333333333,4,2,1,70,0,1
128389,-90.9090909090909,4,2,2,70,0,1
128547,-90.9090909090909,4,2,1,70,0,1
128705,-90.9090909090909,4,2,2,70,0,1
128863,-90.9090909090909,4,2,1,70,0,1
129021,-90.9090909090909,4,2,2,70,0,1
129179,-90.9090909090909,4,2,1,70,0,1
129337,-90.9090909090909,4,2,2,70,0,1
129495,-90.9090909090909,4,2,1,70,0,1
129652,-90.9090909090909,4,2,2,70,0,1
131705,-90.9090909090909,4,2,1,70,0,1
132337,-90.9090909090909,4,2,2,70,0,1
132652,-90.9090909090909,4,2,1,70,0,1
132810,-90.9090909090909,4,2,2,70,0,1
132968,-90.9090909090909,4,2,1,70,0,1
133126,-90.9090909090909,4,2,2,70,0,1
133284,-90.9090909090909,4,2,1,70,0,1
133442,-90.9090909090909,4,2,2,70,0,1
133600,-90.9090909090909,4,2,1,70,0,1
134073,-90.9090909090909,4,2,2,70,0,1
134231,-90.9090909090909,4,2,1,70,0,1
134389,-90.9090909090909,4,2,2,70,0,1
134547,-90.9090909090909,4,2,1,70,0,1
134705,-90.9090909090909,4,2,2,70,0,1
134863,-90.9090909090909,4,2,11,70,0,0
135179,-100,4,2,9,70,0,0
135495,-111.111111111111,4,2,6,70,0,0
135810,-125,4,2,7,70,0,0
136126,-125,4,2,1,70,0,0
136441,-125,4,2,1,60,0,0
136521,-125,4,2,6,70,0,0
136758,-125,4,2,12,70,0,0
137073,-125,4,2,5,70,0,0
137389,-100,4,2,1,60,0,0
137705,-100,4,2,1,5,0,0
137863,-100,4,2,1,60,0,0
138021,-100,4,2,4,60,0,0
138258,-100,4,2,1,5,0,0
138337,-100,4,2,9,60,0,0
138495,-100,4,2,6,60,0,0
138652,-100,4,2,3,60,0,0
138810,-100,4,2,13,60,0,0
138967,-100,4,2,1,60,0,0
139521,-100,4,2,1,5,0,0
139600,-100,4,2,7,60,0,0
139758,-100,4,2,5,60,0,0
139916,-133.333333333333,4,2,2,60,0,0
140232,-133.333333333333,4,2,50,60,0,0
140237,-133.333333333333,4,2,2,60,0,0
140863,-133.333333333333,4,2,50,60,0,0
140868,-133.333333333333,4,2,2,60,0,0
141179,-133.333333333333,4,2,1,60,0,0
141495,-133.333333333333,4,2,50,60,0,0
141500,-133.333333333333,4,2,1,60,0,0
141810,-133.333333333333,4,2,2,60,0,0
142442,-133.333333333333,4,2,1,60,0,0
142600,-133.333333333333,4,2,1,5,0,0
142758,-133.333333333333,4,2,1,60,0,0
142916,-133.333333333333,4,2,1,5,0,0
143073,-133.333333333333,4,2,2,60,0,0
143231,-133.333333333333,4,2,2,5,0,0
143389,-133.333333333333,4,2,2,60,0,0
143547,-133.333333333333,4,2,2,5,0,0
143705,-133.333333333333,4,2,1,60,0,0
143863,-133.333333333333,4,2,3,60,0,0
144337,-133.333333333333,4,2,13,60,0,0
144495,-133.333333333333,4,2,6,60,0,0
144652,-133.333333333333,4,2,7,60,0,0
144968,-100,4,2,2,60,0,0
145284,-100,4,2,50,60,0,0
145289,-100,4,2,2,60,0,0
145916,-133.333333333333,4,2,2,60,0,0
146073,-133.333333333333,4,2,2,5,0,0
146231,-100,4,2,1,60,0,0
146547,-100,4,2,50,60,0,0
146552,-100,4,2,1,60,0,0
146784,-100,4,2,1,5,0,0
146863,-133.333333333333,4,2,2,60,0,0
147021,-133.333333333333,4,2,2,5,0,0
147179,-133.333333333333,4,2,2,60,0,0
147337,-133.333333333333,4,2,2,5,0,0
147495,-100,4,2,1,60,0,0
147811,-100,4,2,50,60,0,0
147816,-100,4,2,1,60,0,0
148126,-100,4,2,2,60,0,0
148442,-133.333333333333,4,2,2,60,0,0
148521,-133.333333333333,4,2,2,5,0,0
148600,-133.333333333333,4,2,2,60,0,0
148679,-133.333333333333,4,2,2,5,0,0
148758,-133.333333333333,4,2,2,45,0,0
148916,-133.333333333333,4,2,13,60,0,0
149389,-133.333333333333,4,2,11,60,0,0
149442,-133.333333333333,4,2,11,5,0,0
149705,-133.333333333333,4,2,9,60,0,0
149784,-133.333333333333,4,2,9,5,0,0
149863,-133.333333333333,4,2,9,60,0,0
149942,-133.333333333333,4,2,9,5,0,0
150021,-133.333333333333,4,2,1,60,0,0
150337,-133.333333333333,4,2,2,60,0,0
150652,-133.333333333333,4,2,13,60,0,0
150889,-133.333333333333,4,2,13,5,0,0
150968,-133.333333333333,4,2,2,60,0,0
151284,-100,4,2,1,60,0,0
151521,-100,4,2,1,5,0,0
151600,-100,4,2,2,60,0,0
151837,-100,4,2,1,60,0,0
151916,-133.333333333333,4,2,3,60,0,0
152073,-133.333333333333,4,2,3,5,0,0
152152,-133.333333333333,4,2,1,60,0,0
152388,-133.333333333333,4,2,2,60,0,0
152547,-100,4,2,2,60,0,0
152784,-100,4,2,2,5,0,0
152863,-100,4,2,2,60,0,0
153179,-100,4,2,13,60,0,0
153416,-100,4,2,13,5,0,0
153495,-100,4,2,2,60,0,0
153652,-133.333333333333,4,2,1,60,0,0
153731,-133.333333333333,4,2,1,5,0,0
153810,-133.333333333333,4,2,1,60,0,0
154442,-133.333333333333,4,2,13,60,0,0
154758,-133.333333333333,4,2,8,60,0,0
154916,-133.333333333333,4,2,5,60,0,0
155073,-100,4,2,2,60,0,0
155389,-100,4,3,53,60,0,0
155394,-100,4,2,2,60,0,0
155705,-133.333333333333,4,2,2,60,0,0
155942,-133.333333333333,4,2,2,5,0,0
156021,-133.333333333333,4,2,2,60,0,0
156337,-133.333333333333,4,2,1,60,0,0
156968,-133.333333333333,4,2,2,60,0,0
157007,-133.333333333333,4,2,13,60,0,0
157126,-133.333333333333,4,2,1,60,0,0
157205,-133.333333333333,4,2,1,5,0,0
157284,-133.333333333333,4,2,4,60,0,0
157442,-133.333333333333,4,2,6,60,0,0
157600,-133.333333333333,4,2,5,60,0,0
160126,-166.666666666667,4,2,1,40,0,0
160283,-166.666666666667,4,2,4,40,0,0
160442,-166.666666666667,4,2,1,40,0,0
160600,-166.666666666667,4,2,4,40,0,0
161073,-166.666666666667,4,2,1,40,0,0
161230,-166.666666666667,4,2,4,40,0,0
161705,-166.666666666667,4,2,3,40,0,0
161863,-166.666666666667,4,2,4,40,0,0
162337,-166.666666666667,4,2,3,40,0,0
162573,-166.666666666667,4,2,1,40,0,0
162652,-133.333333333333,4,2,2,60,0,0
163047,-133.333333333333,4,2,2,5,0,0
163126,-133.333333333333,4,2,2,60,0,0
163284,-133.333333333333,4,2,1,70,0,0
163363,-133.333333333333,4,2,1,60,0,0
163679,-133.333333333333,4,2,11,70,0,0
163916,-133.333333333333,4,2,16,70,0,0
163995,-133.333333333333,4,2,11,70,0,0
164231,-133.333333333333,4,2,9,70,0,0
164547,-133.333333333333,4,2,7,70,0,0
164863,-133.333333333333,4,2,12,70,0,0
164942,-133.333333333333,4,2,1,60,0,0
165179,-133.333333333333,4,2,5,70,0,0
165258,-133.333333333333,4,2,5,60,0,0
165652,-100,4,2,5,70,0,0
165810,-100,4,2,4,70,0,0
165889,-100,4,2,4,60,0,0
166284,-100,4,2,9,70,0,0
166442,-100,4,2,17,70,0,0
166521,-100,4,2,9,70,0,0
166758,-100,4,2,8,70,0,0
166837,-100,4,2,8,5,0,0
166916,-100,4,2,4,70,0,0
166995,-100,4,2,4,5,0,0
167073,-100,4,2,4,70,0,0
167309,-100,4,2,4,5,0,0
167389,-100,4,2,4,70,0,0
167625,-100,4,2,11,70,0,0
168099,-100,4,2,9,70,0,0
168652,-100,4,2,6,70,0,0
168968,-100,4,2,1,30,0,0
169284,-100,4,2,1,40,0,0
169600,-100,4,2,1,60,0,0
169916,-100,4,2,1,70,0,0
170231,-133.333333333333,4,2,1,70,0,0
171494,-133.333333333333,4,2,1,5,0,0
171573,-133.333333333333,4,2,1,70,0,0
172758,-133.333333333333,4,2,2,70,0,1
173073,-133.333333333333,4,2,1,70,0,1
173231,-90.9090909090909,4,2,1,70,0,1
177495,-90.9090909090909,4,2,9,70,0,1
177652,-90.9090909090909,4,2,7,70,0,1
177731,-90.9090909090909,4,2,5,70,0,1
177810,-90.9090909090909,4,2,2,70,0,1
179073,-90.9090909090909,4,2,10,70,0,1
179705,-90.9090909090909,4,2,2,70,0,1
180337,-90.9090909090909,4,2,1,70,0,1
181600,-90.9090909090909,4,2,9,70,0,1
182073,-90.9090909090909,4,2,6,70,0,1
182231,-90.9090909090909,4,2,7,70,0,1
182547,-90.9090909090909,4,2,2,70,0,1
183179,-90.9090909090909,4,2,1,70,0,1
183337,-90.9090909090909,4,2,2,70,0,1
183495,-90.9090909090909,4,2,1,70,0,1
183652,-90.9090909090909,4,2,2,70,0,1
183810,-90.9090909090909,4,2,1,70,0,1
183968,-90.9090909090909,4,2,2,70,0,1
184126,-90.9090909090909,4,2,1,70,0,1
184521,-90.9090909090909,4,2,2,70,0,1
184758,-90.9090909090909,4,2,1,70,0,1
184916,-90.9090909090909,4,2,2,70,0,1
184995,-90.9090909090909,4,2,1,70,0,1
185231,-90.9090909090909,4,2,2,70,0,1
185389,-90.9090909090909,4,2,10,70,0,1
186021,-90.9090909090909,4,2,1,70,0,1
186652,-90.9090909090909,4,2,5,70,0,1
187916,-90.9090909090909,4,2,2,70,0,1
188231,-90.9090909090909,4,2,1,70,0,1
188389,-90.9090909090909,4,2,2,70,0,1
188547,-90.9090909090909,4,2,1,70,0,1
188705,-90.9090909090909,4,2,2,70,0,1
188863,-90.9090909090909,4,2,1,70,0,1
189021,-90.9090909090909,4,2,2,70,0,1
189179,-90.9090909090909,4,2,1,70,0,1
189652,-90.9090909090909,4,2,2,70,0,1
189810,-90.9090909090909,4,2,1,70,0,1
189968,-90.9090909090909,4,2,2,70,0,1
190126,-90.9090909090909,4,2,1,70,0,1
190284,-90.9090909090909,4,2,2,70,0,1
190442,-90.9090909090909,4,2,9,70,0,0
191073,-90.9090909090909,4,2,6,70,0,0
191705,-90.9090909090909,4,2,9,70,0,0
192021,-90.9090909090909,4,2,6,70,0,0
192337,-90.9090909090909,4,2,9,70,0,0
192442,-90.9090909090909,4,2,6,70,0,0
192547,-90.9090909090909,4,2,7,70,0,0
192652,-90.9090909090909,4,2,2,70,0,0
192968,-90.9090909090909,4,2,2,70,0,1
193284,-90.9090909090909,4,2,1,70,0,1
197705,-90.9090909090909,4,2,9,70,0,1
197863,-90.9090909090909,4,2,6,70,0,1
198021,-90.9090909090909,4,2,2,70,0,1
198652,-90.9090909090909,4,2,5,70,0,1
199284,-90.9090909090909,4,2,10,70,0,1
199916,-90.9090909090909,4,2,2,70,0,1
200547,-90.9090909090909,4,2,1,70,0,1
201810,-90.9090909090909,4,2,9,70,0,1
201968,-90.9090909090909,4,2,6,70,0,1
202126,-90.9090909090909,4,2,7,70,0,1
202284,-90.9090909090909,4,2,5,70,0,1
202442,-133.333333333333,4,2,5,70,0,1
202600,-133.333333333333,4,2,2,70,0,1
203389,-133.333333333333,4,2,1,70,0,1
203547,-133.333333333333,4,2,2,70,0,1
203705,-133.333333333333,4,2,1,70,0,1
203863,-133.333333333333,4,2,2,70,0,1
204021,-133.333333333333,4,2,1,70,0,1
204100,-133.333333333333,4,2,2,70,0,1
204179,-90.9090909090909,4,2,2,70,0,1
204337,-90.9090909090909,4,2,4,70,0,1
204495,-90.9090909090909,4,2,1,70,0,1
204810,-90.9090909090909,4,2,2,70,0,1
204968,-90.9090909090909,4,2,1,70,0,1
205126,-90.9090909090909,4,2,2,70,0,1
205284,-90.9090909090909,4,2,1,70,0,1
205442,-90.9090909090909,4,2,2,70,0,1
207495,-90.9090909090909,4,2,1,70,0,1
208126,-90.9090909090909,4,2,6,70,0,1
208284,-90.9090909090909,4,2,1,70,0,1
208600,-90.9090909090909,4,2,2,70,0,1
208758,-90.9090909090909,4,2,1,70,0,1
208916,-90.9090909090909,4,2,2,70,0,1
209073,-90.9090909090909,4,2,1,70,0,1
209231,-90.9090909090909,4,2,2,70,0,1
210021,-90.9090909090909,4,2,4,70,0,1
210652,-80,4,2,2,70,0,0
211204,-80,4,2,2,5,0,0
211284,-80,4,2,8,70,0,0
211916,-100,4,2,8,70,0,0
212389,-100,4,2,8,5,0,0
212547,-80,4,2,1,70,0,0
212652,-80,4,2,1,5,0,0
212758,-80,4,2,8,70,0,0
212863,-80,4,2,8,5,0,0
212968,-80,4,2,5,70,0,0
213073,-80,4,2,5,5,0,0
213179,-66.6666666666667,4,2,1,70,0,0
213652,-66.6666666666667,4,2,1,5,0,0

[Colours]
Combo1 : 242,203,155
Combo2 : 104,120,140
Combo3 : 217,178,156
Combo4 : 166,88,81

[HitObjects]
394,255,3495,6,1,B|425:235|464:241|464:241|290:176|299:330|114:235|114:235|161:253|202:234,1,525.000000000001,4|0,3:2|0:0,0:0:0:0:
157,158,4758,6,1,B|334:133|334:133|328:128|328:128|489:105,1,350,4|0,3:3|0:0,0:0:0:0:
511,91,5389,2,1,B|358:69|358:69|363:65|363:65|225:45,1,300,4|0,3:2|0:0,0:0:0:0:
141,27,6021,6,1,B|96:95|135:178|135:178|119:199|119:199|215:360|96:461|-10:356|63:271,1,525.000000000001,4|0,3:2|0:0,0:0:0:0:
211,209,7284,6,1,B|255:209|296:263|296:263|217:136|439:5|524:238|402:294,1,525.000000000001,4|0,3:2|0:0,0:0:0:0:
367,213,8547,6,1,P|308:105|187:127,1,262.500000000001,4|0,3:2|0:0,0:0:0:0:
177,142,9179,2,1,P|73:160|23:68,1,225.000000000001,4|0,3:2|0:0,0:0:0:0:
312,5,9810,6,1,B|255:79|284:166|284:166|233:213|233:213|256:299|203:377,1,400,4|4,3:3|3:2,0:0:0:0:
23,303,10758,5,0,3:3:0:0:
57,287,10837,1,0,3:3:0:0:
94,283,10916,1,0,3:3:0:0:
131,288,10995,1,0,3:3:0:0:
160,309,11073,6,1,P|287:249|375:357,1,300,12|0,3:3|0:0,0:0:0:0:
471,365,11705,6,1,B|382:241|551:210|474:85,1,300,4|8,3:3|2:3,0:0:0:0:
223,129,12337,6,1,B|215:152|215:152|235:237,1,100,8|0,3:3|0:0,0:0:0:0:
406,150,12652,1,8,3:3:0:0:
244,28,12810,1,8,2:3:0:0:
244,28,12889,1,8,2:3:0:0:
244,28,12968,2,1,B|194:31|194:31|196:30|196:30|147:32,1,100,8|0,2:3|0:0,0:0:0:0:
34,151,13284,6,1,B|59:193|59:193|22:296,1,150,8|0,3:3|0:0,0:0:0:0:
37,310,13600,5,4,3:2:0:0:
85,322,13679,1,0,3:3:0:0:
133,329,13758,1,0,3:3:0:0:
181,339,13837,1,0,3:3:0:0:
230,344,13916,2,1,P|258:342|283:331,1,55,10|0,3:3|3:3,0:0:0:0:
250,175,14073,2,1,P|238:199|235:227,1,55,0|0,3:3|3:3,0:0:0:0:
339,232,14231,5,2,3:3:0:0:
373,244,14310,1,0,3:3:0:0:
406,256,14389,2,1,L|474:236,1,55,0|0,3:3|3:3,0:0:0:0:
354,105,14547,5,10,3:3:0:0:
379,114,14626,1,0,3:3:0:0:
404,125,14705,2,1,L|456:110,1,55,0|0,3:3|3:3,0:0:0:0:
275,29,14863,5,2,3:3:0:0:
220,35,14942,1,0,3:3:0:0:
165,42,15021,1,0,3:3:0:0:
110,51,15100,1,0,3:3:0:0:
55,61,15179,2,1,P|53:89|61:115,1,55,10|0,3:3|3:3,0:0:0:0:
204,178,15337,2,1,P|181:162|154:157,1,55,0|0,3:3|3:3,0:0:0:0:
67,255,15495,5,2,3:3:0:0:
110,295,15573,1,0,3:3:0:0:
170,302,15652,1,0,3:3:0:0:
223,273,15731,1,0,3:3:0:0:
248,218,15810,1,10,3:3:0:0:
284,177,15889,1,0,3:3:0:0:
332,168,15968,1,0,3:3:0:0:
372,184,16047,1,0,3:3:0:0:
393,215,16126,5,4,3:2:0:0:
343,218,16205,1,0,3:3:0:0:
293,221,16284,1,0,3:3:0:0:
243,224,16363,1,0,3:3:0:0:
193,225,16442,2,1,P|166:217|144:200,1,55,10|0,3:3|3:3,0:0:0:0:
206,71,16600,2,1,P|212:97|209:124,1,55,0|0,3:3|3:3,0:0:0:0:
0,116,16758,5,2,3:3:0:0:
33,111,16837,1,0,3:3:0:0:
67,106,16916,2,1,L|139:116,1,55,0|0,3:3|3:3,0:0:0:0:
50,226,17073,5,10,3:3:0:0:
77,222,17152,1,0,3:3:0:0:
104,218,17231,2,1,L|162:226,1,55,0|0,3:3|3:3,0:0:0:0:
277,290,17389,5,2,3:3:0:0:
314,322,17468,1,0,3:3:0:0:
362,332,17547,1,0,3:3:0:0:
407,313,17626,1,0,3:3:0:0:
436,273,17705,2,1,P|433:245|419:221,1,55,10|0,3:3|3:3,0:0:0:0:
282,272,17863,2,1,P|306:282|333:282,1,55,0|0,3:3|3:3,0:0:0:0:
377,107,18021,5,2,3:3:0:0:
345,55,18100,1,0,3:3:0:0:
285,44,18179,1,0,3:3:0:0:
232,73,18258,1,0,3:3:0:0:
211,129,18337,1,10,3:3:0:0:
183,176,18416,1,0,3:3:0:0:
137,196,18495,1,0,3:3:0:0:
94,186,18573,1,0,3:3:0:0:
74,153,18652,5,4,3:2:0:0:
128,146,18731,1,0,3:3:0:0:
178,167,18810,1,0,3:3:0:0:
198,217,18889,1,0,3:3:0:0:
178,268,18968,2,1,P|161:291|138:305,1,55,10|0,3:3|3:3,0:0:0:0:
34,190,19126,2,1,P|61:192|85:206,1,55,0|0,3:3|3:3,0:0:0:0:
243,325,19284,5,2,3:3:0:0:
273,336,19363,1,0,3:3:0:0:
304,346,19442,2,1,L|365:337,1,55,0|0,3:3|3:3,0:0:0:0:
279,208,19600,5,10,3:3:0:0:
317,222,19679,1,0,3:3:0:0:
355,235,19758,2,1,L|432:223,1,55,0|0,3:3|3:3,0:0:0:0:
414,86,19916,5,2,3:3:0:0:
388,30,19995,1,0,3:3:0:0:
329,15,20073,1,0,3:3:0:0:
273,39,20152,1,0,3:3:0:0:
249,94,20231,1,10,3:3:0:0:
211,141,20310,1,0,3:3:0:0:
152,158,20389,1,0,3:3:0:0:
99,128,20468,1,0,3:3:0:0:
79,70,20547,5,2,3:3:0:0:
132,83,20626,1,0,3:3:0:0:
157,131,20705,1,0,3:3:0:0:
142,184,20784,1,0,3:3:0:0:
97,216,20863,1,10,3:3:0:0:
67,255,20942,1,0,3:3:0:0:
68,298,21021,1,0,3:3:0:0:
91,328,21100,1,0,3:3:0:0:
121,339,21179,5,4,3:2:0:0:
124,289,21258,1,0,3:3:0:0:
130,239,21337,1,0,3:3:0:0:
133,189,21416,1,0,3:3:0:0:
141,140,21495,2,1,P|155:107|186:83,1,55,10|0,3:3|3:3,0:0:0:0:
293,174,21652,2,1,P|258:177|222:162,1,55,0|0,3:3|3:3,0:0:0:0:
261,56,21810,5,2,3:3:0:0:
300,35,21889,1,0,3:3:0:0:
344,36,21968,1,0,3:3:0:0:
379,61,22047,1,0,3:3:0:0:
395,101,22126,5,10,3:3:0:0:
443,91,22205,1,0,3:3:0:0:
488,111,22284,1,0,3:3:0:0:
504,157,22363,1,0,3:3:0:0:
493,205,22442,5,2,3:3:0:0:
449,214,22521,1,0,3:3:0:0:
419,246,22600,1,0,3:3:0:0:
417,289,22679,1,0,3:3:0:0:
438,327,22758,2,1,P|466:328|490:315,1,55,10|0,3:3|3:3,0:0:0:0:
353,199,22916,2,1,P|339:222|338:249,1,55,0|0,3:3|3:3,0:0:0:0:
494,140,23073,5,2,3:3:0:0:
459,97,23152,1,0,3:3:0:0:
404,89,23231,1,0,3:3:0:0:
358,119,23310,1,0,3:3:0:0:
333,168,23389,5,10,3:3:0:0:
288,200,23468,1,8,3:3:0:0:
227,201,23547,1,10,3:3:0:0:
171,165,23626,1,8,3:3:0:0:
155,95,23705,5,8,3:3:0:0:
424,46,23863,1,8,3:3:0:0:
493,153,24179,5,8,3:3:0:0:
388,265,24495,5,8,3:3:0:0:
502,377,24810,5,8,3:3:0:0:
382,252,24968,6,1,B|320:232|268:281|268:281|201:208|104:172|-11:215|-14:300|56:353|110:317,1,525.000000000001,4|0,3:2|0:0,0:0:0:0:
201,361,26231,6,1,B|273:383|273:383|342:353,1,150,4|0,2:2|3:3,0:0:0:0:
348,363,26547,1,10,2:3:0:0:
460,241,26705,2,1,L|469:296,1,50,0|0,3:3|0:0,0:0:0:0:
333,247,26863,2,1,L|349:148,1,100,2|0,3:3|0:0,0:0:0:0:
361,145,27100,1,0,3:3:0:0:
373,142,27179,1,10,2:3:0:0:
465,60,27337,1,0,3:3:0:0:
216,41,27495,6,1,B|279:47|279:47|313:36|313:36|364:42,1,150,2|0,3:3|3:3,0:0:0:0:
372,54,27810,1,10,2:3:0:0:
268,169,27968,1,0,3:3:0:0:
124,33,28126,2,1,P|76:46|49:86,1,100,2|0,3:3|0:0,0:0:0:0:
51,99,28363,1,0,3:3:0:0:
53,111,28442,1,10,2:3:0:0:
88,288,28600,1,0,3:3:0:0:
84,312,28679,1,0,3:3:0:0:
81,337,28758,6,1,B|111:359|111:359|228:338,1,150,2|0,3:3|3:3,0:0:0:0:
232,328,29073,1,10,2:3:0:0:
264,134,29231,2,1,L|214:143,1,50,0|0,3:3|0:0,0:0:0:0:
350,205,29389,2,1,B|372:235|372:235|351:352,1,150,2|0,3:3|3:3,0:0:0:0:
342,357,29705,1,10,2:3:0:0:
446,175,29863,1,8,2:3:0:0:
453,198,29942,1,8,2:3:0:0:
460,221,30021,6,1,L|452:277,1,50,4|0,3:2|0:0,0:0:0:0:
268,304,30179,2,1,L|276:248,1,50,0|0,3:3|3:3,0:0:0:0:
351,34,30337,2,1,L|371:147,1,100,10|0,2:3|3:3,0:0:0:0:
360,156,30573,1,0,3:3:0:0:
352,179,30652,2,1,L|289:167,1,50,2|0,3:3|0:0,0:0:0:0:
222,15,30810,2,1,L|271:24,1,50,0|0,3:3|3:3,0:0:0:0:
223,259,30968,2,1,B|198:216|198:216|216:157,1,100,10|0,2:3|3:3,0:0:0:0:
326,338,31205,1,0,3:3:0:0:
316,353,31284,6,1,B|226:375|226:375|152:330,1,180,4|0,3:2|3:3,0:0:0:0:
148,311,31600,1,10,2:3:0:0:
2,252,31758,2,1,L|12:302,1,50,0|0,3:3|0:0,0:0:0:0:
107,149,31916,2,1,B|170:134|170:134|203:143,1,100,2|0,3:3|0:0,0:0:0:0:
217,147,32152,1,0,3:3:0:0:
230,151,32231,1,10,2:3:0:0:
161,263,32389,1,0,3:3:0:0:
336,207,32547,6,1,B|361:160|361:160|333:36,1,180,4|0,3:2|3:3,0:0:0:0:
328,19,32863,1,10,2:3:0:0:
451,64,33021,2,1,L|462:122,1,60,0|0,3:3|0:0,0:0:0:0:
224,273,33179,6,1,B|207:241|207:241|225:157,1,120,4|0,3:2|0:0,0:0:0:0:
232,142,33416,1,0,3:3:0:0:
236,124,33495,1,10,2:3:0:0:
443,158,33652,1,0,3:3:0:0:
450,174,33731,1,0,3:3:0:0:
457,188,33810,6,1,B|473:223|473:223|449:300,1,110,4|0,3:2|3:3,0:0:0:0:
400,354,34047,1,0,3:3:0:0:
390,366,34126,2,1,L|335:371,1,55,10|0,2:3|0:0,0:0:0:0:
332,219,34284,2,1,L|386:224,1,55,0|0,3:3|3:3,0:0:0:0:
258,358,34442,6,1,P|247:305|201:277,1,110,4|0,3:2|3:3,0:0:0:0:
90,288,34679,1,0,3:3:0:0:
90,288,34758,2,1,P|148:306|202:277,1,125,12|0,2:2|3:3,0:0:0:0:
151,84,34995,1,0,3:3:0:0:
151,84,35073,2,1,L|141:217,1,110,4|0,3:3|3:3,0:0:0:0:
141,207,35310,1,0,3:3:0:0:
139,220,35389,2,1,L|85:206,1,55,8|0,2:3|0:0,0:0:0:0:
28,37,35547,1,8,2:3:0:0:
68,27,35626,1,8,2:3:0:0:
94,21,35705,5,8,2:3:0:0:
121,55,35784,1,8,2:3:0:0:
156,70,35863,1,0,3:3:0:0:
189,70,35942,1,0,3:3:0:0:
214,58,36021,1,8,2:3:0:0:
233,38,36100,1,8,2:3:0:0:
257,25,36179,1,0,3:3:0:0:
278,19,36258,1,0,3:3:0:0:
299,24,36337,5,4,3:2:0:0:
296,61,36416,1,0,3:3:0:0:
291,99,36495,1,8,3:3:0:0:
288,135,36573,1,0,3:3:0:0:
286,173,36652,1,2,3:3:0:0:
282,210,36731,1,0,3:3:0:0:
280,248,36810,1,8,3:3:0:0:
277,285,36889,1,0,3:3:0:0:
275,323,36968,5,2,3:3:0:0:
252,334,37047,1,0,3:3:0:0:
227,331,37126,2,1,P|204:320|190:300,1,50,8|0,3:3|3:3,0:0:0:0:
235,100,37284,5,2,3:3:0:0:
256,114,37363,1,0,3:3:0:0:
265,137,37442,2,1,P|267:161|256:183,1,50,8|0,3:3|3:3,0:0:0:0:
3,191,37600,5,2,3:3:0:0:
34,152,37679,1,0,3:3:0:0:
81,136,37758,1,8,3:3:0:0:
129,148,37837,1,0,3:3:0:0:
161,186,37916,1,2,3:3:0:0:
173,234,37995,1,0,3:3:0:0:
207,269,38073,1,8,3:3:0:0:
254,283,38152,1,0,3:3:0:0:
301,267,38231,5,2,3:3:0:0:
269,235,38310,1,0,3:3:0:0:
223,234,38389,1,8,3:3:0:0:
184,257,38468,1,0,3:3:0:0:
165,297,38547,1,2,3:3:0:0:
150,339,38626,1,0,3:3:0:0:
117,370,38705,1,8,3:3:0:0:
72,375,38784,1,0,3:3:0:0:
35,349,38863,5,2,3:3:0:0:
18,330,38942,1,0,3:3:0:0:
1,311,39021,2,1,L|52:295,1,50,8|0,3:3|3:3,0:0:0:0:
196,262,39179,5,2,3:3:0:0:
214,241,39258,1,0,3:3:0:0:
233,220,39337,2,1,L|176:202,1,50,8|0,3:3|3:3,0:0:0:0:
45,154,39495,5,2,3:3:0:0:
25,130,39573,1,0,3:3:0:0:
4,107,39652,2,1,L|65:87,1,50,8|0,3:3|3:3,0:0:0:0:
206,33,39810,5,2,3:3:0:0:
240,26,39889,1,0,3:3:0:0:
274,20,39968,1,8,3:3:0:0:
308,14,40047,1,0,3:3:0:0:
342,8,40126,5,4,3:2:0:0:
385,42,40205,1,0,3:3:0:0:
401,94,40284,1,8,3:3:0:0:
387,147,40363,1,0,3:3:0:0:
345,183,40442,1,2,3:3:0:0:
299,213,40521,1,0,3:3:0:0:
279,264,40600,1,8,3:3:0:0:
298,315,40679,1,0,3:3:0:0:
348,336,40758,5,4,3:2:0:0:
341,273,40837,1,0,3:3:0:0:
293,232,40916,1,8,3:3:0:0:
230,232,40995,1,0,3:3:0:0:
183,272,41073,1,2,3:3:0:0:
150,316,41152,1,0,3:3:0:0:
100,325,41231,1,8,3:3:0:0:
58,307,41310,1,0,3:3:0:0:
44,269,41389,5,4,3:2:0:0:
81,264,41468,1,0,3:3:0:0:
118,259,41547,1,8,3:3:0:0:
155,255,41626,1,0,3:3:0:0:
192,251,41705,1,2,3:3:0:0:
229,247,41784,1,0,3:3:0:0:
266,243,41863,1,8,3:3:0:0:
303,239,41942,1,0,3:3:0:0:
340,235,42021,1,2,3:3:0:0:
377,231,42100,1,0,3:3:0:0:
414,227,42179,1,8,3:3:0:0:
451,223,42258,1,0,3:3:0:0:
488,219,42337,5,2,3:3:0:0:
504,199,42416,1,0,3:3:0:0:
506,174,42495,2,1,P|500:149|484:130,1,50,8|0,3:3|3:3,0:0:0:0:
342,73,42652,5,2,3:3:0:0:
309,92,42731,1,0,3:3:0:0:
291,124,42810,1,8,3:3:0:0:
292,162,42889,1,0,3:3:0:0:
313,192,42968,1,2,3:3:0:0:
345,209,43047,1,0,3:3:0:0:
383,209,43126,2,1,P|404:197|419:177,1,50,8|0,3:3|3:3,0:0:0:0:
398,32,43284,5,2,3:3:0:0:
368,8,43363,1,0,3:3:0:0:
330,5,43442,1,8,3:3:0:0:
296,21,43521,1,0,3:3:0:0:
270,48,43600,1,2,3:3:0:0:
233,58,43679,1,0,3:3:0:0:
196,46,43758,2,1,P|175:34|158:16,1,50,8|0,3:3|3:3,0:0:0:0:
342,95,43916,5,6,3:2:0:0:
347,144,43995,1,0,3:3:0:0:
324,188,44073,1,8,3:3:0:0:
277,206,44152,1,0,3:3:0:0:
227,196,44231,1,2,3:3:0:0:
177,202,44310,1,0,3:3:0:0:
137,232,44389,1,8,3:3:0:0:
122,279,44468,1,0,3:3:0:0:
142,324,44547,5,2,3:3:0:0:
165,294,44626,1,0,3:3:0:0:
172,257,44705,1,8,3:3:0:0:
164,220,44784,1,0,3:3:0:0:
130,203,44863,5,2,3:3:0:0:
117,181,44942,1,0,3:3:0:0:
113,156,45021,1,8,3:3:0:0:
121,132,45100,1,0,3:3:0:0:
136,112,45179,5,8,2:3:0:0:
185,107,45258,1,8,2:3:0:0:
234,103,45337,2,1,L|291:99,1,50,0|0,3:3|3:3,0:0:0:0:
282,278,45495,5,8,2:3:0:0:
260,248,45573,1,8,2:3:0:0:
239,217,45652,2,1,L|215:181,1,37.5000000000001,0|0,3:3|3:3,0:0:0:0:
371,163,45810,6,1,L|374:205,1,37.5000000000001,8|0,3:3|0:0,0:0:0:0:
379,167,45968,2,1,L|381:204,1,37.5000000000001,8|0,3:3|0:0,0:0:0:0:
446,271,46126,2,1,L|442:308,1,25,8|0,3:3|0:0,0:0:0:0:
452,278,46284,2,1,L|448:320,1,25,8|0,3:3|0:0,0:0:0:0:
343,354,46442,5,4,3:2:0:0:
217,297,46600,2,1,B|173:277|173:277|58:302,1,165,8|0,2:3|3:3,0:0:0:0:
52,315,46916,1,10,2:3:0:0:
162,384,47073,1,2,3:3:0:0:
260,216,47231,2,1,L|248:106,1,110,10|2,2:3|2:3,0:0:0:0:
234,106,47468,1,0,3:3:0:0:
220,105,47547,1,10,2:3:0:0:
129,250,47705,1,2,3:3:0:0:
239,373,47863,6,1,B|321:362|321:362|375:302,1,165,10|0,2:3|3:3,0:0:0:0:
374,287,48179,1,10,2:3:0:0:
504,374,48337,2,1,L|510:319,1,55,2|0,3:3|3:3,0:0:0:0:
466,115,48495,5,8,2:3:0:0:
454,154,48573,1,8,2:3:0:0:
443,193,48652,2,1,L|456:254,1,55,0|0,3:3|3:3,0:0:0:0:
322,86,48810,1,8,2:3:0:0:
308,128,48889,1,8,2:3:0:0:
296,171,48968,6,1,B|287:201|287:201|303:279,1,110,4|10,3:2|2:3,0:0:0:0:
286,292,49205,2,1,B|266:207|266:207|271:185,1,110,0|0,0:0|3:3,0:0:0:0:
207,139,49442,2,1,L|191:191,1,55,10|0,2:3|0:0,0:0:0:0:
99,294,49600,6,1,P|62:252|53:199,1,110,2|10,3:3|2:3,0:0:0:0:
72,189,49837,2,1,P|79:242|114:284,1,110,0|0,0:0|3:3,0:0:0:0:
175,348,50073,2,1,P|157:369|132:380,1,55,10|0,2:3|0:0,0:0:0:0:
0,338,50231,5,2,3:3:0:0:
15,315,50310,1,0,3:3:0:0:
38,301,50389,1,10,3:3:0:0:
65,298,50468,1,0,3:3:0:0:
90,307,50547,1,2,3:3:0:0:
106,329,50626,1,0,3:3:0:0:
123,350,50705,1,10,3:3:0:0:
149,358,50784,1,0,3:3:0:0:
176,357,50863,1,2,3:3:0:0:
207,346,50942,1,0,3:3:0:0:
227,313,51021,1,10,3:3:0:0:
227,268,51100,1,0,3:3:0:0:
206,223,51179,5,2,3:3:0:0:
158,195,51258,1,0,3:3:0:0:
131,140,51337,1,10,3:3:0:0:
126,74,51416,1,0,3:3:0:0:
153,7,51495,5,12,3:3:0:0:
204,40,51573,1,0,3:3:0:0:
217,101,51652,1,2,3:3:0:0:
198,160,51731,1,0,3:3:0:0:
161,210,51810,1,10,3:3:0:0:
162,272,51889,1,0,3:3:0:0:
208,314,51968,1,2,3:3:0:0:
270,305,52047,1,0,3:3:0:0:
309,256,52126,6,1,P|322:227|347:209,2,62.5,10|0|2,3:3|3:3|3:3,0:0:0:0:
497,284,52363,2,1,P|467:287|438:274,2,62.5,0|10|0,3:3|3:3|3:3,0:0:0:0:
430,110,52600,2,1,P|448:135|451:165,1,62.5,2|0,3:3|3:3,0:0:0:0:
345,365,52758,5,12,3:1:0:0:
283,377,52837,1,0,3:3:0:0:
229,345,52916,1,0,3:3:0:0:
203,287,52995,1,0,3:3:0:0:
218,227,53073,1,0,3:3:0:0:
218,164,53152,1,0,3:3:0:0:
176,117,53231,1,0,3:3:0:0:
113,110,53310,1,0,3:3:0:0:
65,149,53389,5,12,3:3:0:0:
105,203,53468,1,0,3:3:0:0:
172,216,53547,1,0,3:3:0:0:
236,192,53626,1,0,3:3:0:0:
276,136,53705,1,0,3:3:0:0:
335,101,53784,1,0,3:3:0:0:
403,100,53863,1,0,3:3:0:0:
456,143,53942,1,0,3:3:0:0:
471,210,54021,5,4,3:2:0:0:
401,238,54100,1,8,2:3:0:0:
328,217,54179,1,8,2:3:0:0:
283,156,54258,1,8,2:3:0:0:
211,134,54337,1,8,3:3:0:0:
146,172,54416,1,8,2:3:0:0:
122,243,54495,1,8,2:3:0:0:
153,309,54573,1,8,2:3:0:0:
220,340,54652,1,8,3:3:0:0:
291,316,54731,1,8,2:3:0:0:
326,249,54810,1,8,2:3:0:0:
320,174,54889,1,8,2:3:0:0:
364,113,54968,1,8,3:3:0:0:
438,104,55047,1,8,2:3:0:0:
498,148,55126,1,8,2:3:0:0:
512,221,55205,1,8,2:3:0:0:
464,278,55284,5,8,3:3:0:0:
395,290,55363,1,8,2:3:0:0:
344,252,55442,1,8,2:3:0:0:
342,196,55521,1,8,2:3:0:0:
377,160,55600,1,8,3:3:0:0:
419,160,55679,1,8,2:3:0:0:
435,195,55758,1,8,2:3:0:0:
416,220,55837,1,8,2:3:0:0:
385,221,55916,6,1,L|384:199,1,20,4|0,3:1|0:0,0:0:0:0:
483,274,56547,5,4,3:2:0:0:
439,307,56626,1,0,3:3:0:0:
384,314,56705,1,8,3:3:0:0:
336,286,56784,1,0,3:3:0:0:
285,263,56863,1,2,3:3:0:0:
229,264,56942,1,0,3:3:0:0:
188,300,57021,2,1,P|161:304|133:299,1,55,10|0,3:3|3:3,0:0:0:0:
17,137,57179,5,2,3:3:0:0:
71,139,57258,1,0,3:3:0:0:
125,141,57337,1,10,3:3:0:0:
179,143,57416,1,0,3:3:0:0:
233,145,57495,1,2,3:3:0:0:
287,147,57573,1,0,3:3:0:0:
341,149,57652,2,1,P|367:140|388:123,1,55,10|0,3:3|3:3,0:0:0:0:
184,7,57810,5,2,3:3:0:0:
124,19,57889,1,0,3:3:0:0:
90,69,57968,1,10,3:3:0:0:
91,129,58047,1,0,3:3:0:0:
128,176,58126,1,2,3:3:0:0:
186,193,58205,1,0,3:3:0:0:
244,178,58284,1,10,3:3:0:0:
282,131,58363,1,0,3:3:0:0:
333,99,58442,1,2,3:3:0:0:
393,105,58521,1,0,3:3:0:0:
435,147,58600,1,10,3:3:0:0:
442,207,58679,1,0,3:3:0:0:
407,256,58758,5,2,3:3:0:0:
389,276,58837,1,0,3:3:0:0:
379,301,58916,1,10,3:3:0:0:
380,328,58995,1,0,3:3:0:0:
389,353,59073,5,2,3:3:0:0:
423,330,59152,1,0,3:3:0:0:
457,307,59231,2,1,L|404:294,1,55,10|0,3:3|3:3,0:0:0:0:
294,220,59389,5,2,3:3:0:0:
256,194,59468,1,0,3:3:0:0:
219,169,59547,2,1,L|277:154,1,55,10|0,3:3|3:3,0:0:0:0:
406,87,59705,5,2,3:3:0:0:
447,58,59784,1,0,3:3:0:0:
488,30,59863,2,1,L|423:14,1,55,10|0,3:3|3:3,0:0:0:0:
247,1,60021,5,2,3:3:0:0:
206,6,60100,1,0,3:3:0:0:
165,11,60179,1,10,3:3:0:0:
124,16,60258,1,0,3:3:0:0:
82,21,60337,5,2,3:3:0:0:
91,80,60416,1,0,3:3:0:0:
138,117,60495,1,10,3:3:0:0:
197,118,60573,1,0,3:3:0:0:
245,80,60652,1,2,3:3:0:0:
285,36,60731,1,0,3:3:0:0:
342,16,60810,1,10,3:3:0:0:
401,27,60889,1,0,3:3:0:0:
437,75,60968,1,2,3:3:0:0:
439,135,61047,1,0,3:3:0:0:
405,185,61126,1,10,3:3:0:0:
345,198,61205,1,0,3:3:0:0:
288,177,61284,5,8,2:3:0:0:
308,158,61363,1,8,2:3:0:0:
344,146,61442,1,8,2:3:0:0:
393,146,61521,1,8,2:3:0:0:
446,173,61600,5,12,3:3:0:0:
412,229,61679,1,0,3:3:0:0:
352,257,61758,1,0,3:3:0:0:
290,242,61837,1,0,3:3:0:0:
249,192,61916,1,0,3:3:0:0:
207,143,61995,1,0,3:3:0:0:
145,127,62073,1,0,3:3:0:0:
85,155,62152,1,0,3:3:0:0:
67,218,62231,5,12,3:3:0:0:
88,253,62310,1,0,3:3:0:0:
109,288,62389,2,1,L|121:225,1,55,0|0,3:3|3:3,0:0:0:0:
254,313,62547,1,0,3:3:0:0:
233,348,62626,1,0,3:3:0:0:
212,383,62705,2,1,L|200:320,1,55,0|0,3:3|3:3,0:0:0:0:
24,348,62863,5,12,3:3:0:0:
58,291,62942,1,0,3:3:0:0:
121,272,63021,1,0,3:3:0:0:
184,289,63100,1,0,3:3:0:0:
245,314,63179,1,0,3:3:0:0:
308,295,63258,1,0,3:3:0:0:
340,237,63337,2,1,P|346:210|340:183,1,55,0|0,3:3|3:3,0:0:0:0:
183,66,63495,5,12,3:3:0:0:
119,89,63573,1,0,3:3:0:0:
95,153,63652,1,0,3:3:0:0:
129,212,63731,1,0,3:3:0:0:
196,227,63810,1,0,3:3:0:0:
257,196,63889,1,0,3:3:0:0:
303,145,63968,1,0,3:3:0:0:
371,137,64047,1,0,3:3:0:0:
424,179,64126,5,2,3:3:0:0:
375,236,64205,1,0,3:3:0:0:
303,233,64284,1,10,3:3:0:0:
265,172,64363,1,0,3:3:0:0:
221,115,64442,1,2,3:3:0:0:
149,109,64521,1,0,3:3:0:0:
93,153,64600,1,10,3:3:0:0:
87,224,64679,1,0,3:3:0:0:
131,279,64758,1,2,3:3:0:0:
201,292,64837,1,0,3:3:0:0:
265,262,64916,1,10,3:3:0:0:
297,198,64995,1,0,3:3:0:0:
365,182,65073,1,2,3:3:0:0:
429,212,65152,1,0,3:3:0:0:
448,280,65231,1,10,3:3:0:0:
420,346,65310,1,0,3:3:0:0:
350,362,65389,5,8,3:3:0:0:
338,291,65468,1,8,2:3:0:0:
379,240,65547,1,8,2:3:0:0:
435,217,65626,1,8,2:3:0:0:
473,178,65705,1,8,3:3:0:0:
480,128,65784,1,8,2:3:0:0:
458,90,65863,1,8,2:3:0:0:
424,71,65942,1,8,2:3:0:0:
400,74,66021,2,1,L|363:79,1,37.5000000000001,8|8,3:3|2:3,0:0:0:0:
278,244,66179,1,8,2:3:0:0:
278,244,66258,1,8,2:3:0:0:
278,244,66337,2,1,L|315:239,1,37.5000000000001,8|8,3:3|2:3,0:0:0:0:
443,341,66495,1,8,2:3:0:0:
443,341,66573,1,8,2:3:0:0:
443,341,66652,5,4,3:2:0:0:
401,296,66731,1,0,3:3:0:0:
340,293,66810,1,10,3:2:0:0:
293,331,66889,1,0,3:3:0:0:
242,364,66968,1,2,3:1:0:0:
181,366,67047,1,0,3:3:0:0:
126,338,67126,1,10,3:2:0:0:
103,281,67205,1,0,3:3:0:0:
113,221,67284,1,2,3:1:0:0:
154,176,67363,1,0,3:3:0:0:
182,122,67442,1,10,3:2:0:0:
175,61,67521,1,0,3:3:0:0:
127,23,67600,1,2,3:1:0:0:
66,25,67679,1,0,3:3:0:0:
29,72,67758,2,1,P|26:99|33:125,1,55,10|0,3:2|3:3,0:0:0:0:
311,198,67916,5,2,3:1:0:0:
335,258,67995,1,0,3:3:0:0:
307,316,68073,1,10,3:2:0:0:
246,339,68152,1,0,3:3:0:0:
186,307,68231,1,2,3:1:0:0:
159,245,68310,1,0,3:3:0:0:
103,209,68389,1,10,3:2:0:0:
38,224,68468,1,0,3:3:0:0:
4,279,68547,1,2,3:1:0:0:
16,343,68626,1,0,3:3:0:0:
74,374,68705,1,10,3:2:0:0:
138,367,68784,1,0,3:3:0:0:
177,313,68863,5,2,3:1:0:0:
150,305,68942,1,0,3:3:0:0:
122,304,69021,1,10,3:2:0:0:
96,313,69100,1,0,3:3:0:0:
74,329,69179,5,12,3:3:0:0:
129,364,69258,1,0,3:3:0:0:
195,363,69337,1,0,3:3:0:0:
250,326,69416,1,0,3:3:0:0:
302,285,69495,1,0,3:3:0:0:
367,280,69573,1,0,3:3:0:0:
421,317,69652,2,1,P|445:324|473:316,1,55,0|0,3:3|3:3,0:0:0:0:
482,147,69810,5,12,3:3:0:0:
434,101,69889,1,0,3:3:0:0:
368,98,69968,1,0,3:3:0:0:
315,138,70047,1,0,3:3:0:0:
289,199,70126,1,0,3:3:0:0:
227,222,70205,1,0,3:3:0:0:
166,196,70284,2,1,P|137:173|128:142,1,55,0|0,3:3|3:3,0:0:0:0:
242,3,70442,5,12,3:3:0:0:
296,39,70521,1,0,3:3:0:0:
313,102,70600,1,0,3:3:0:0:
289,163,70679,1,0,3:3:0:0:
242,210,70758,1,0,3:3:0:0:
233,275,70837,1,0,3:3:0:0:
262,332,70916,2,1,P|284:349|311:355,1,55,0|0,3:3|3:3,0:0:0:0:
487,271,71073,5,12,3:1:0:0:
439,224,71152,1,0,3:3:0:0:
373,233,71231,1,0,3:3:0:0:
338,289,71310,1,0,3:3:0:0:
303,345,71389,1,0,3:3:0:0:
239,364,71468,1,0,3:3:0:0:
176,343,71547,2,1,P|152:330|136:307,1,55,0|0,3:3|3:3,0:0:0:0:
120,134,71705,5,4,3:2:0:0:
123,73,71784,1,0,3:3:0:0:
165,29,71863,1,8,3:3:0:0:
223,14,71942,1,0,3:3:0:0:
281,31,72021,1,2,3:1:0:0:
315,79,72100,1,0,3:3:0:0:
323,139,72179,1,10,3:2:0:0:
359,187,72258,1,0,3:3:0:0:
414,206,72337,1,2,3:1:0:0:
470,183,72416,1,0,3:3:0:0:
494,127,72495,1,10,3:2:0:0:
475,70,72573,1,0,3:3:0:0:
421,42,72652,5,2,3:1:0:0:
414,68,72731,1,0,3:3:0:0:
418,95,72810,1,10,3:2:0:0:
435,116,72889,1,0,3:3:0:0:
459,129,72968,5,4,3:2:0:0:
506,179,73047,1,0,3:3:0:0:
506,247,73126,1,8,3:3:0:0:
460,298,73205,1,0,3:3:0:0:
391,291,73284,1,2,3:1:0:0:
335,250,73363,1,0,3:3:0:0:
267,238,73442,1,10,3:2:0:0:
206,269,73521,1,0,3:3:0:0:
182,333,73600,5,2,3:1:0:0:
259,331,73679,1,0,3:3:0:0:
313,276,73758,1,10,3:2:0:0:
313,198,73837,1,0,3:3:0:0:
269,134,73916,1,2,3:1:0:0:
263,62,73995,1,0,3:3:0:0:
304,11,74073,1,10,3:2:0:0:
364,4,74152,1,0,3:3:0:0:
408,36,74231,6,1,L|414:99,3,55,8|8|8|8,3:3|2:3|2:3|2:3,0:0:0:0:
488,137,74547,2,1,L|482:200,3,50,8|8|8|8,3:3|2:3|2:3|2:3,0:0:0:0:
416,230,74863,2,1,L|422:293,3,45,8|8|8|8,3:3|2:3|2:3|2:3,0:0:0:0:
485,324,75179,2,1,L|479:387,3,40,8|8|8|8,3:3|2:3|2:3|2:3,0:0:0:0:
387,363,75495,6,1,P|364:352|339:351,3,35,8|8|8|8,3:3|2:3|2:3|2:3,0:0:0:0:
284,308,75810,2,1,P|261:318|236:320,3,30.0000000000001,8|8|8|8,3:3|2:3|2:3|2:3,0:0:0:0:
191,363,76126,6,1,P|159:361|130:343,1,66.6666666666667,8|0,3:3|0:0,0:0:0:0:
40,301,76337,6,1,P|57:274|86:258,1,66.6666666666667,8|0,3:3|0:0,0:0:0:0:
167,199,76547,6,1,P|182:229|180:262,1,66.6666666666667,8|0,3:3|0:0,0:0:0:0:
69,115,76758,6,1,B|136:61|225:86|189:133|281:160|347:104,1,300,4|0,3:2|0:0,0:0:0:0:
417,36,77389,2,1,P|374:11|325:10,1,100,12|0,2:1|0:0,0:0:0:0:
369,199,77705,2,1,P|412:175|438:132,1,100,4|0,3:1|0:0,0:0:0:0:
249,39,78021,6,1,B|239:161|239:161|258:216|258:216|248:335,1,300,4|0,3:2|0:0,0:0:0:0:
61,248,78652,2,1,L|160:235,1,100,12|0,2:1|0:0,0:0:0:0:
258,347,78968,2,1,L|357:359,1,100,4|0,3:1|0:0,0:0:0:0:
489,267,79284,6,1,P|428:226|355:236,1,150,4|0,3:2|0:0,0:0:0:0:
343,312,79600,2,1,P|318:305|299:290,1,50,4|0,2:1|0:0,0:0:0:0:
279,223,79758,2,1,P|286:199|301:180,1,50,0|0,0:0|0:0,0:0:0:0:
474,118,79916,6,1,P|440:82|392:79,1,100,12|0,2:1|0:0,0:0:0:0:
207,206,80231,2,1,P|241:170|289:166,1,100,4|0,3:1|0:0,0:0:0:0:
431,283,80547,5,4,3:3:0:0:
271,354,80705,2,1,L|162:334,1,100,8|0,2:3|0:0,0:0:0:0:
12,381,81021,1,0,3:3:0:0:
103,264,81179,2,1,P|120:218|113:169,1,100,12|0,2:3|0:0,0:0:0:0:
6,68,81495,1,8,2:3:0:0:
128,24,81652,1,0,3:3:0:0:
11,199,81810,6,1,B|86:215|86:215|138:196|138:196|205:206,1,200,4|4,3:3|2:1,0:0:0:0:
352,235,82284,1,0,0:0:0:0:
301,49,82442,2,1,L|291:148,1,100,12|0,2:1|0:0,0:0:0:0:
448,283,82758,1,4,3:1:0:0:
418,164,82916,1,8,2:3:0:0:
365,325,83073,5,4,3:1:0:0:
234,258,83231,1,8,2:3:0:0:
131,324,83389,1,12,2:3:0:0:
40,274,83547,1,8,2:3:0:0:
191,187,83705,2,1,P|238:174|285:192,1,100,12|0,2:1|0:0,0:0:0:0:
367,338,84021,1,4,3:1:0:0:
449,191,84179,1,0,3:3:0:0:
476,346,84337,6,1,L|376:351,1,100,4|0,3:1|0:0,0:0:0:0:
240,255,84652,1,8,2:3:0:0:
242,267,84731,1,8,2:3:0:0:
244,279,84810,1,8,3:3:0:0:
121,353,84968,5,8,2:3:0:0:
15,257,85126,1,0,3:3:0:0:
181,275,85284,5,8,2:3:0:0:
307,200,85442,1,0,3:3:0:0:
134,93,85600,5,8,3:3:0:0:
27,238,85758,1,8,2:3:0:0:
31,249,85837,1,8,2:3:0:0:
35,260,85916,1,8,3:3:0:0:
145,234,86073,1,8,2:3:0:0:
151,250,86152,1,8,2:3:0:0:
157,267,86231,1,8,3:3:0:0:
279,237,86389,1,8,2:3:0:0:
288,261,86468,1,8,2:3:0:0:
297,286,86547,1,8,3:3:0:0:
414,248,86705,1,8,2:3:0:0:
427,284,86784,1,8,2:3:0:0:
441,321,86863,6,1,B|456:220|456:220|438:175,1,150,4|0,3:2|3:3,0:0:0:0:
430,162,87179,1,10,2:3:0:0:
256,115,87337,2,1,L|310:108,1,50,0|0,3:3|0:0,0:0:0:0:
487,30,87495,2,1,B|440:12|440:12|390:19,1,100,2|0,3:3|0:0,0:0:0:0:
381,27,87731,1,0,3:3:0:0:
371,35,87810,1,10,2:3:0:0:
247,135,87968,1,0,3:3:0:0:
108,42,88126,6,1,B|138:119|81:116|109:187,1,150,2|0,3:3|3:3,0:0:0:0:
118,199,88442,1,10,2:3:0:0:
249,268,88600,1,0,3:3:0:0:
67,337,88758,2,1,B|106:345|106:345|127:339|127:339|164:344,1,100,2|0,3:3|0:0,0:0:0:0:
177,347,88995,1,0,3:3:0:0:
189,349,89073,1,10,2:3:0:0:
405,271,89231,1,0,3:3:0:0:
380,275,89310,1,0,3:3:0:0:
355,277,89389,6,1,P|410:311|487:263,1,150,2|0,3:3|3:3,0:0:0:0:
482,260,89705,1,10,2:3:0:0:
331,144,89863,2,1,L|324:193,1,50,0|0,3:3|0:0,0:0:0:0:
226,347,90021,6,1,B|216:255|216:255|219:257|219:257|209:166,1,187.5,6|0,3:3|3:3,0:0:0:0:
207,147,90337,1,10,2:3:0:0:
137,238,90495,1,0,3:3:0:0:
344,113,90652,5,2,3:3:0:0:
230,250,90810,1,0,3:3:0:0:
233,269,90889,1,0,3:3:0:0:
236,288,90968,2,1,B|182:269|182:269|60:314,1,187.5,12|0,2:2|0:0,0:0:0:0:
42,321,91284,5,0,3:3:0:0:
163,119,91442,1,0,3:3:0:0:
187,125,91521,1,0,3:3:0:0:
211,132,91600,2,1,B|257:109|257:109|354:121,1,150,12|0,2:2|0:0,0:0:0:0:
460,214,91916,6,1,B|413:241|413:241|288:225,1,180,4|0,3:2|3:3,0:0:0:0:
270,222,92231,1,10,2:3:0:0:
353,338,92389,2,1,L|403:345,1,50,0|0,3:3|0:0,0:0:0:0:
477,210,92547,2,1,B|490:162|490:162|470:115,1,100,2|0,3:3|0:0,0:0:0:0:
461,106,92784,1,0,3:3:0:0:
452,96,92863,1,10,2:3:0:0:
504,0,93021,1,0,3:3:0:0:
349,162,93179,6,1,B|291:143|291:143|175:179,1,180,4|0,3:2|3:3,0:0:0:0:
160,186,93495,1,10,2:3:0:0:
62,313,93652,2,1,L|119:329,1,60,0|0,3:3|0:0,0:0:0:0:
283,374,93810,2,1,B|313:320|313:320|297:260,1,120,4|0,3:2|0:0,0:0:0:0:
292,246,94047,1,0,3:3:0:0:
286,228,94126,1,10,2:3:0:0:
449,179,94284,1,0,3:3:0:0:
463,190,94363,1,0,3:3:0:0:
475,201,94442,6,1,B|453:115|453:115|460:88,1,110,4|0,3:2|0:0,0:0:0:0:
466,82,94679,1,0,3:3:0:0:
474,70,94758,2,1,L|413:61,1,55,10|0,2:3|0:0,0:0:0:0:
303,175,94916,2,1,L|357:166,1,55,0|0,3:3|0:0,0:0:0:0:
213,69,95073,6,1,P|163:90|136:137,1,110,4|0,3:2|0:0,0:0:0:0:
257,274,95310,1,0,3:3:0:0:
257,274,95389,2,1,P|263:220|236:173,1,110,12|0,2:2|3:3,0:0:0:0:
57,227,95626,1,0,0:0:0:0:
57,227,95705,2,1,L|165:244,1,110,4|0,3:3|3:3,0:0:0:0:
168,258,95942,1,0,3:3:0:0:
170,271,96021,2,1,L|109:262,1,55,8|0,2:3|0:0,0:0:0:0:
7,362,96179,1,8,2:3:0:0:
48,366,96258,1,8,2:3:0:0:
75,369,96337,5,8,2:3:0:0:
50,319,96416,1,8,2:3:0:0:
44,269,96495,1,0,3:3:0:0:
57,227,96573,1,0,3:3:0:0:
83,199,96652,1,8,2:3:0:0:
104,173,96731,1,8,2:3:0:0:
113,147,96810,1,0,3:3:0:0:
110,125,96889,1,0,3:3:0:0:
100,111,96968,5,4,3:2:0:0:
75,113,97047,1,0,3:3:0:0:
55,130,97126,2,1,P|42:150|43:175,1,50,8|0,3:3|3:3,0:0:0:0:
237,117,97284,5,2,3:3:0:0:
247,94,97363,1,0,3:3:0:0:
242,69,97442,2,1,P|231:46|208:36,1,50,8|0,3:3|3:3,0:0:0:0:
148,231,97600,5,2,3:3:0:0:
180,249,97679,1,0,3:3:0:0:
217,254,97758,1,8,3:3:0:0:
253,244,97837,1,0,3:3:0:0:
281,220,97916,1,2,3:3:0:0:
314,203,97995,1,0,3:3:0:0:
350,198,98073,1,8,3:3:0:0:
386,207,98152,1,0,3:3:0:0:
409,235,98231,5,2,3:3:0:0:
367,262,98310,1,0,3:3:0:0:
322,239,98389,1,8,3:3:0:0:
308,190,98468,1,0,3:3:0:0:
333,146,98547,1,2,3:3:0:0:
382,137,98626,1,0,3:3:0:0:
425,112,98705,1,8,3:3:0:0:
440,64,98784,1,0,3:3:0:0:
410,23,98863,5,2,3:3:0:0:
407,67,98942,1,0,3:3:0:0:
404,111,99021,1,8,3:3:0:0:
401,155,99100,1,0,3:3:0:0:
398,199,99179,1,2,3:3:0:0:
395,243,99258,1,0,3:3:0:0:
393,287,99337,1,8,3:3:0:0:
391,331,99416,1,0,3:3:0:0:
389,375,99495,5,2,3:3:0:0:
412,367,99573,1,0,3:3:0:0:
436,360,99652,2,1,L|390:338,1,50,8|0,3:3|3:3,0:0:0:0:
276,263,99810,5,2,3:3:0:0:
250,254,99889,1,0,3:3:0:0:
224,246,99968,2,1,L|273:222,1,50,8|0,3:3|3:3,0:0:0:0:
409,162,100126,5,2,3:3:0:0:
437,152,100205,1,0,3:3:0:0:
466,143,100284,2,1,L|411:117,1,50,8|0,3:3|3:3,0:0:0:0:
287,10,100442,5,2,3:3:0:0:
254,12,100521,1,0,3:3:0:0:
221,15,100600,1,8,3:3:0:0:
188,17,100679,1,0,3:3:0:0:
155,20,100758,5,4,3:2:0:0:
106,45,100837,1,0,3:3:0:0:
93,98,100916,1,8,3:3:0:0:
110,150,100995,1,0,3:3:0:0:
159,172,101073,1,2,3:3:0:0:
193,214,101152,1,0,3:3:0:0:
202,268,101231,1,8,3:3:0:0:
185,320,101310,1,0,3:3:0:0:
137,348,101389,5,4,3:2:0:0:
130,285,101468,1,0,3:3:0:0:
178,245,101547,1,8,3:3:0:0:
240,253,101626,1,0,3:3:0:0:
295,282,101705,1,2,3:3:0:0:
349,275,101784,1,0,3:3:0:0:
386,242,101863,1,8,3:3:0:0:
381,197,101942,1,0,3:3:0:0:
352,168,102021,5,4,3:2:0:0:
339,203,102100,1,0,3:3:0:0:
357,235,102179,1,8,3:3:0:0:
391,248,102258,1,0,3:3:0:0:
427,241,102337,1,2,3:3:0:0:
461,255,102416,1,0,3:3:0:0:
482,285,102495,1,8,3:3:0:0:
484,321,102573,1,0,3:3:0:0:
464,353,102652,1,2,3:3:0:0:
430,370,102731,1,0,3:3:0:0:
392,368,102810,1,8,3:3:0:0:
364,342,102889,1,0,3:3:0:0:
354,305,102968,5,2,3:3:0:0:
377,296,103047,1,0,3:3:0:0:
401,299,103126,2,1,P|424:308|439:327,1,50,8|0,3:3|3:3,0:0:0:0:
297,384,103284,5,2,3:3:0:0:
264,364,103363,1,0,3:3:0:0:
244,332,103442,1,8,3:3:0:0:
236,295,103521,1,0,3:3:0:0:
247,259,103600,1,2,3:3:0:0:
269,229,103679,1,0,3:3:0:0:
304,215,103758,2,1,P|325:202|339:181,1,50,8|0,3:3|3:3,0:0:0:0:
224,31,103916,5,2,3:3:0:0:
192,51,103995,1,0,3:3:0:0:
178,85,104073,1,8,3:3:0:0:
183,122,104152,1,0,3:3:0:0:
208,149,104231,1,2,3:3:0:0:
245,153,104310,1,0,3:3:0:0:
279,136,104389,2,1,P|297:120|307:97,1,50,8|0,3:3|3:3,0:0:0:0:
111,32,104547,5,6,3:2:0:0:
66,55,104626,1,0,3:3:0:0:
47,101,104705,1,8,3:3:0:0:
52,150,104784,1,0,3:3:0:0:
90,182,104863,1,2,3:3:0:0:
127,214,104942,1,0,3:3:0:0:
140,262,105021,1,8,3:3:0:0:
125,309,105100,1,0,3:3:0:0:
83,337,105179,5,2,3:3:0:0:
98,302,105258,1,0,3:3:0:0:
132,287,105337,1,8,3:3:0:0:
168,294,105416,1,0,3:3:0:0:
184,327,105495,5,2,3:3:0:0:
197,306,105573,1,0,3:3:0:0:
220,298,105652,1,8,3:3:0:0:
244,301,105731,1,0,3:3:0:0:
262,318,105810,6,1,P|278:326|297:327,1,37.5000000000001,8|8,2:3|2:3,0:0:0:0:
261,328,105968,2,1,P|278:337|297:337,1,37.5000000000001,0|0,3:3|3:3,0:0:0:0:
385,276,106126,2,1,P|401:267|419:266,1,37.5000000000001,8|8,2:3|2:3,0:0:0:0:
385,288,106284,2,1,P|401:279|420:278,1,37.5000000000001,0|0,3:3|3:3,0:0:0:0:
498,358,106442,6,1,L|490:318,1,37.5000000000001,8|0,3:3|0:0,0:0:0:0:
434,266,106600,2,1,L|442:226,1,37.5000000000001,8|0,3:3|0:0,0:0:0:0:
492,181,106758,2,1,L|484:141,1,25,8|0,3:3|0:0,0:0:0:0:
449,99,106916,2,1,L|457:59,1,25,8|0,3:3|0:0,0:0:0:0:
503,9,107073,5,4,3:2:0:0:
394,162,107231,2,1,B|343:179|343:179|234:153,1,165,8|0,2:3|3:3,0:0:0:0:
225,139,107547,1,10,2:3:0:0:
345,40,107705,1,2,3:3:0:0:
398,250,107863,2,1,B|344:266|344:266|293:252,1,110,10|2,2:3|2:3,0:0:0:0:
279,246,108100,1,0,3:3:0:0:
266,241,108179,1,10,2:3:0:0:
88,316,108337,5,2,3:3:0:0:
187,361,108495,2,1,B|224:290|150:273|187:204,1,165,10|0,2:3|3:3,0:0:0:0:
198,191,108810,1,10,2:3:0:0:
311,90,108968,1,2,3:3:0:0:
437,244,109126,5,8,2:3:0:0:
397,250,109205,1,8,2:3:0:0:
357,256,109284,2,1,L|302:241,1,55,0|0,3:3|3:3,0:0:0:0:
473,347,109442,1,8,2:3:0:0:
418,357,109521,1,8,2:3:0:0:
363,367,109600,6,1,B|313:343|313:343|253:359,1,110,4|10,3:2|2:3,0:0:0:0:
260,334,109837,2,1,B|314:319|314:319|363:341,1,110,0|0,0:0|3:3,0:0:0:0:
407,278,110073,2,1,L|357:256,1,55,10|0,2:3|0:0,0:0:0:0:
207,108,110231,6,1,P|259:96|306:121,1,110,2|10,3:3|2:3,0:0:0:0:
304,143,110468,2,1,P|256:117|203:128,1,110,0|0,0:0|3:3,0:0:0:0:
223,237,110705,2,1,P|242:219|245:192,1,55,10|0,2:3|0:0,0:0:0:0:
232,13,110863,5,2,3:3:0:0:
257,3,110942,1,0,3:3:0:0:
284,1,111021,1,10,3:3:0:0:
309,10,111100,1,0,3:3:0:0:
326,31,111179,1,2,3:3:0:0:
330,58,111258,1,0,3:3:0:0:
340,83,111337,1,10,3:3:0:0:
359,102,111416,1,0,3:3:0:0:
384,111,111495,1,2,3:3:0:0:
416,107,111573,1,0,3:3:0:0:
444,80,111652,1,10,3:3:0:0:
440,36,111731,1,0,3:3:0:0:
396,12,111810,5,2,3:3:0:0:
345,34,111889,1,0,3:3:0:0:
325,91,111968,1,10,3:3:0:0:
345,153,112047,1,0,3:3:0:0:
410,181,112126,5,12,3:3:0:0:
454,224,112205,1,0,3:3:0:0:
447,286,112284,1,2,3:3:0:0:
397,323,112363,1,0,3:3:0:0:
335,311,112442,1,10,3:3:0:0:
298,260,112521,1,0,3:3:0:0:
241,232,112600,1,2,3:3:0:0:
180,246,112679,1,0,3:3:0:0:
141,295,112758,6,1,L|133:375,2,62.5,10|0|2,3:3|3:3|3:3,0:0:0:0:
244,384,112995,2,1,L|237:321,2,62.5,0|10|0,3:3|3:3|3:3,0:0:0:0:
40,306,113231,2,1,L|32:226,1,62.5,2|0,3:3|3:3,0:0:0:0:
0,60,113389,5,12,3:1:0:0:
46,18,113468,1,0,3:3:0:0:
108,11,113547,1,0,3:3:0:0:
161,43,113626,1,0,3:3:0:0:
179,102,113705,1,0,3:3:0:0:
216,152,113784,1,0,3:3:0:0:
277,164,113863,1,0,3:3:0:0:
333,136,113942,1,0,3:3:0:0:
350,76,114021,5,12,3:3:0:0:
283,59,114100,1,0,3:3:0:0:
222,91,114179,1,0,3:3:0:0:
201,156,114258,1,0,3:3:0:0:
222,221,114337,1,0,3:3:0:0:
284,250,114416,1,0,3:3:0:0:
351,235,114495,1,0,3:3:0:0:
417,246,114573,1,0,3:3:0:0:
458,301,114652,5,4,3:2:0:0:
393,339,114731,1,8,2:3:0:0:
324,309,114810,1,8,2:3:0:0:
314,234,114889,1,8,2:3:0:0:
362,176,114968,1,8,3:3:0:0:
416,124,115047,1,8,2:3:0:0:
410,49,115126,1,8,2:3:0:0:
350,3,115205,1,8,2:3:0:0:
277,23,115284,1,8,3:3:0:0:
250,93,115363,1,8,2:3:0:0:
285,159,115442,1,8,2:3:0:0:
288,233,115521,1,8,2:3:0:0:
239,290,115600,1,8,3:3:0:0:
164,294,115679,1,8,2:3:0:0:
109,242,115758,1,8,2:3:0:0:
102,167,115837,1,8,2:3:0:0:
152,111,115916,5,8,3:3:0:0:
220,115,115995,1,8,2:3:0:0:
269,151,116073,1,8,2:3:0:0:
278,206,116152,1,8,2:3:0:0:
259,252,116231,1,8,3:3:0:0:
216,263,116310,1,8,2:3:0:0:
185,241,116389,1,8,2:3:0:0:
190,210,116468,1,8,2:3:0:0:
213,200,116547,6,1,L|232:198,1,20,8|0,3:3|0:0,0:0:0:0:
450,102,117179,5,4,3:2:0:0:
426,52,117258,1,0,3:3:0:0:
372,39,117337,1,8,3:3:0:0:
327,71,117416,1,0,3:3:0:0:
322,125,117495,1,2,3:3:0:0:
357,165,117573,1,0,3:3:0:0:
410,167,117652,2,1,P|435:180|453:200,1,55,10|0,3:3|3:3,0:0:0:0:
476,380,117810,5,2,3:3:0:0:
421,375,117889,1,0,3:3:0:0:
366,370,117968,1,10,3:3:0:0:
311,365,118047,1,0,3:3:0:0:
256,360,118126,1,2,3:3:0:0:
201,355,118205,1,0,3:3:0:0:
146,350,118284,2,1,P|121:337|103:317,1,55,10|0,3:3|3:3,0:0:0:0:
245,97,118442,5,2,3:3:0:0:
305,99,118521,1,0,3:3:0:0:
350,138,118600,1,10,3:3:0:0:
355,198,118679,1,0,3:3:0:0:
326,251,118758,1,2,3:3:0:0:
269,272,118837,1,0,3:3:0:0:
210,255,118916,1,10,3:3:0:0:
160,219,118995,1,0,3:3:0:0:
100,222,119073,1,2,3:3:0:0:
52,259,119152,1,0,3:3:0:0:
46,319,119231,1,10,3:3:0:0:
78,370,119310,1,0,3:3:0:0:
136,384,119389,5,2,3:3:0:0:
133,356,119468,1,0,3:3:0:0:
114,335,119547,1,10,3:3:0:0:
88,325,119626,1,0,3:3:0:0:
60,329,119705,5,2,3:3:0:0:
30,300,119784,1,0,3:3:0:0:
0,271,119863,2,1,L|53:253,1,55,10|0,3:3|3:3,0:0:0:0:
207,220,120021,5,2,3:3:0:0:
240,188,120100,1,0,3:3:0:0:
273,156,120179,2,1,L|214:136,1,55,10|0,3:3|3:3,0:0:0:0:
81,98,120337,5,2,3:3:0:0:
44,62,120416,1,0,3:3:0:0:
8,27,120495,2,1,L|72:5,1,55,10|0,3:3|3:3,0:0:0:0:
236,2,120652,5,2,3:3:0:0:
270,24,120731,1,0,3:3:0:0:
282,63,120810,1,10,3:3:0:0:
273,103,120889,1,0,3:3:0:0:
241,129,120968,5,2,3:3:0:0:
227,70,121047,1,0,3:3:0:0:
253,15,121126,1,10,3:3:0:0:
312,3,121205,1,0,3:3:0:0:
367,27,121284,1,2,3:3:0:0:
383,85,121363,1,0,3:3:0:0:
358,140,121442,1,10,3:3:0:0:
308,175,121521,1,0,3:3:0:0:
284,230,121600,1,2,3:3:0:0:
287,290,121679,1,0,3:3:0:0:
322,339,121758,1,10,3:3:0:0:
380,355,121837,1,0,3:3:0:0:
437,337,121916,5,8,2:3:0:0:
413,323,121995,1,8,2:3:0:0:
375,314,122073,1,8,2:3:0:0:
325,317,122152,1,8,2:3:0:0:
272,347,122231,5,12,3:3:0:0:
211,372,122310,1,0,3:3:0:0:
151,342,122389,1,0,3:3:0:0:
137,277,122468,1,0,3:3:0:0:
174,222,122547,1,0,3:3:0:0:
189,157,122626,1,0,3:3:0:0:
167,94,122705,1,0,3:3:0:0:
104,71,122784,1,0,3:3:0:0:
52,111,122863,5,12,3:3:0:0:
78,142,122942,1,0,3:3:0:0:
107,170,123021,2,1,L|168:162,1,55,0|0,3:3|3:3,0:0:0:0:
311,228,123179,1,0,3:3:0:0:
285,259,123258,1,0,3:3:0:0:
256,287,123337,2,1,L|195:279,1,55,0|0,3:3|3:3,0:0:0:0:
60,364,123495,5,12,3:3:0:0:
71,299,123573,1,0,3:3:0:0:
126,263,123652,1,0,3:3:0:0:
191,269,123731,1,0,3:3:0:0:
234,318,123810,1,0,3:3:0:0:
291,350,123889,1,0,3:3:0:0:
356,350,123968,2,1,P|383:342|403:323,1,55,0|0,3:3|3:3,0:0:0:0:
475,136,124126,5,12,3:3:0:0:
425,87,124205,1,0,3:3:0:0:
356,84,124284,1,0,3:3:0:0:
304,129,124363,1,0,3:3:0:0:
281,194,124442,1,0,3:3:0:0:
221,227,124521,1,0,3:3:0:0:
152,217,124600,1,0,3:3:0:0:
104,167,124679,1,0,3:3:0:0:
109,98,124758,5,2,3:3:0:0:
176,120,124837,1,0,3:3:0:0:
204,185,124916,1,10,3:3:0:0:
182,253,124995,1,0,3:3:0:0:
117,282,125073,1,2,3:3:0:0:
48,261,125152,1,0,3:3:0:0:
22,195,125231,1,10,3:3:0:0:
38,126,125310,1,0,3:3:0:0:
101,92,125389,1,2,3:3:0:0:
171,105,125468,1,0,3:3:0:0:
215,161,125547,1,10,3:3:0:0:
252,222,125626,1,0,3:3:0:0:
322,235,125705,1,2,3:3:0:0:
383,197,125784,1,0,3:3:0:0:
408,130,125863,1,10,3:3:0:0:
385,62,125942,1,0,3:3:0:0:
319,33,126021,5,8,3:3:0:0:
299,101,126100,1,8,2:3:0:0:
322,162,126179,1,8,2:3:0:0:
379,179,126258,1,8,2:3:0:0:
417,218,126337,1,8,3:3:0:0:
419,267,126416,1,8,2:3:0:0:
385,295,126495,1,8,2:3:0:0:
347,287,126573,1,8,2:3:0:0:
333,256,126652,2,1,L|343:202,1,55,8|8,3:3|2:3,0:0:0:0:
442,93,126810,1,8,2:3:0:0:
442,93,126889,1,8,2:3:0:0:
442,93,126968,2,1,L|449:130,1,37.5000000000001,8|8,3:3|2:3,0:0:0:0:
304,7,127126,1,8,2:3:0:0:
304,7,127205,1,8,2:3:0:0:
304,7,127284,5,4,3:2:0:0:
323,64,127363,1,0,3:3:0:0:
292,116,127442,1,10,3:2:0:0:
231,122,127521,1,0,3:3:0:0:
186,80,127600,1,2,3:1:0:0:
129,57,127679,1,0,3:3:0:0:
71,76,127758,1,10,3:2:0:0:
35,124,127837,1,0,3:3:0:0:
38,184,127916,1,2,3:1:0:0:
77,229,127995,1,0,3:3:0:0:
136,237,128073,1,10,3:2:0:0:
191,212,128152,1,0,3:3:0:0:
250,203,128231,1,2,3:1:0:0:
303,231,128310,1,0,3:3:0:0:
318,289,128389,2,1,P|316:316|304:340,1,55,10|0,3:2|3:3,0:0:0:0:
42,351,128547,5,2,3:1:0:0:
80,297,128626,1,0,3:3:0:0:
140,269,128705,1,10,3:2:0:0:
205,277,128784,1,0,3:3:0:0:
251,323,128863,1,2,3:1:0:0:
309,353,128942,1,0,3:3:0:0:
373,340,129021,1,10,3:2:0:0:
410,285,129100,1,0,3:3:0:0:
405,218,129179,1,2,3:1:0:0:
355,173,129258,1,0,3:3:0:0:
289,174,129337,1,10,3:2:0:0:
240,219,129416,1,0,3:3:0:0:
234,284,129495,5,2,3:1:0:0:
259,292,129573,1,0,3:3:0:0:
285,286,129652,1,10,3:2:0:0:
308,270,129731,1,0,3:3:0:0:
319,245,129810,5,12,3:3:0:0:
261,213,129889,1,0,3:3:0:0:
200,239,129968,1,0,3:3:0:0:
182,302,130047,1,0,3:3:0:0:
144,356,130126,1,0,3:3:0:0:
78,366,130205,1,0,3:3:0:0:
26,324,130284,2,1,P|18:297|20:270,1,55,0|0,3:3|3:3,0:0:0:0:
150,69,130442,5,12,3:3:0:0:
212,91,130521,1,0,3:3:0:0:
239,151,130600,1,0,3:3:0:0:
225,215,130679,1,0,3:3:0:0:
171,253,130758,1,0,3:3:0:0:
105,247,130837,1,0,3:3:0:0:
62,195,130916,2,1,P|82:175|108:167,1,55,0|0,3:3|3:3,0:0:0:0:
371,188,131073,5,12,3:3:0:0:
356,252,131152,1,0,3:3:0:0:
299,286,131231,1,0,3:3:0:0:
232,278,131310,1,0,3:3:0:0:
183,234,131389,1,0,3:3:0:0:
117,233,131468,1,0,3:3:0:0:
69,278,131547,2,1,P|60:303|62:331,1,55,0|0,3:3|3:3,0:0:0:0:
310,379,131705,5,12,3:1:0:0:
367,345,131784,1,0,3:3:0:0:
380,280,131863,1,0,3:3:0:0:
348,221,131942,1,0,3:3:0:0:
285,199,132021,1,0,3:3:0:0:
243,147,132100,1,0,3:3:0:0:
253,81,132179,2,1,P|268:58|293:46,1,55,0|0,3:3|3:3,0:0:0:0:
504,39,132337,5,4,3:2:0:0:
498,99,132416,1,0,3:3:0:0:
461,147,132495,1,8,3:3:0:0:
402,159,132573,1,0,3:3:0:0:
346,133,132652,1,2,3:1:0:0:
285,125,132731,1,0,3:3:0:0:
234,158,132810,1,10,3:2:0:0:
212,214,132889,1,0,3:3:0:0:
229,271,132968,1,2,3:1:0:0:
277,306,133047,1,0,3:3:0:0:
337,309,133126,1,10,3:2:0:0:
383,269,133205,1,0,3:3:0:0:
392,209,133284,5,2,3:1:0:0:
373,229,133363,1,0,3:3:0:0:
368,256,133442,1,10,3:2:0:0:
372,283,133521,1,0,3:3:0:0:
388,304,133600,5,4,3:2:0:0:
444,265,133679,1,0,3:3:0:0:
463,198,133758,1,8,3:3:0:0:
436,134,133837,1,0,3:3:0:0:
372,107,133916,1,2,3:1:0:0:
308,134,133995,1,0,3:3:0:0:
265,186,134073,1,10,3:2:0:0:
197,199,134152,1,0,3:3:0:0:
138,163,134231,5,2,3:1:0:0:
188,104,134310,1,0,3:3:0:0:
264,94,134389,1,10,3:2:0:0:
323,142,134468,1,0,3:3:0:0:
325,219,134547,1,2,3:1:0:0:
291,282,134626,1,0,3:3:0:0:
303,346,134705,1,10,3:2:0:0:
355,376,134784,1,0,3:3:0:0:
407,358,134863,6,1,P|388:338|362:328,3,55,8|8|8|8,3:3|2:3|2:3|2:3,0:0:0:0:
458,264,135179,2,1,P|474:245|497:235,3,50,8|8|8|8,3:3|2:3|2:3|2:3,0:0:0:0:
407,186,135495,2,1,P|392:169|372:158,3,45,8|8|8|8,3:3|2:3|2:3|2:3,0:0:0:0:
464,122,135810,2,1,P|478:105|498:94,3,40,8|8|8|8,3:3|2:3|2:3|2:3,0:0:0:0:
413,29,136126,6,1,B|354:24|354:24|328:38|328:38|257:31,1,160,12|0,3:3|0:0,0:0:0:0:
244,48,136521,1,8,2:3:0:0:
248,61,136600,1,8,2:3:0:0:
252,74,136679,1,8,2:3:0:0:
256,87,136758,5,8,3:3:0:0:
288,194,137073,5,8,3:3:0:0:
317,299,137389,6,1,B|222:246|218:346|129:285,1,200,4|0,3:2|0:0,0:0:0:0:
95,122,137863,1,0,3:3:0:0:
111,155,137942,1,0,3:3:0:0:
103,191,138021,6,1,B|74:146|74:146|81:46,1,150,12|0,3:2|0:0,0:0:0:0:
89,40,138337,1,12,3:3:0:0:
191,89,138495,1,8,2:3:0:0:
305,21,138652,1,4,3:1:0:0:
438,107,138810,2,1,P|390:115|366:158,1,100,8|8,2:3|2:3,0:0:0:0:
439,277,139126,1,0,3:3:0:0:
447,240,139205,1,0,3:3:0:0:
456,203,139284,6,1,B|479:242|479:242|456:345,1,150,12|0,3:3|0:0,0:0:0:0:
447,353,139600,1,8,2:3:0:0:
371,231,139758,1,8,2:3:0:0:
230,365,139916,6,1,B|184:345|184:345|127:151|127:151|82:133,3,300.000000000001,4|12|4|12,3:2|2:1|3:2|2:1,0:0:0:0:
318,214,142126,5,4,3:1:0:0:
285,315,142442,6,1,L|357:297,1,75.0000000000002,4|0,3:2|0:0,0:0:0:0:
391,196,142758,2,1,L|318:214,1,75.0000000000002,4|0,2:1|0:0,0:0:0:0:
468,221,143073,6,1,P|472:183|460:148,1,75.0000000000002,12|0,2:1|0:0,0:0:0:0:
219,190,143389,2,1,P|214:226|225:262,1,75.0000000000002,4|0,3:1|0:0,0:0:0:0:
312,67,143705,5,4,3:3:0:0:
175,77,143863,2,1,L|151:79,1,25.0000000000001,8|0,2:3|0:0,0:0:0:0:
140,93,144179,5,0,3:3:0:0:
28,194,144337,5,8,2:3:0:0:
190,178,144495,1,8,2:3:0:0:
58,213,144652,1,8,2:3:0:0:
162,196,144810,1,0,3:3:0:0:
53,341,144968,6,1,B|108:314|152:338|152:338|216:248|357:217|350:380|260:356,1,400,4|12,3:2|2:1,0:0:0:0:
396,210,145916,2,1,P|415:241|415:279,1,75.0000000000002,4|0,3:1|0:0,0:0:0:0:
320,142,146231,6,1,B|180:124|180:124|188:134|188:134|31:116|31:116|57:142,1,350,4|0,3:2|0:0,0:0:0:0:
49,160,146863,6,1,P|46:196|64:230,1,75.0000000000002,12|0,2:1|0:0,0:0:0:0:
202,198,147179,2,1,P|172:176|134:175,1,75.0000000000002,4|0,2:1|0:0,0:0:0:0:
138,326,147495,6,1,B|210:319|255:384|255:384|335:342|312:266|312:266|369:225|421:259,1,400,4|12,3:2|2:1,0:0:0:0:
468,361,148442,6,1,L|473:323,1,37.5000000000001,4|0,3:1|0:0,0:0:0:0:
434,226,148600,2,1,L|426:176,1,37.5000000000001,0|0,3:3|0:0,0:0:0:0:
462,61,148758,5,8,0:0:0:0:
420,244,148916,1,8,2:3:0:0:
344,99,149073,1,0,3:3:0:0:
512,179,149231,1,0,3:3:0:0:
314,216,149389,2,1,L|289:218,1,25.0000000000001,8|0,3:3|0:0,0:0:0:0:
116,238,149705,6,1,L|165:246,1,37.5000000000001,8|0,2:3|0:0,0:0:0:0:
227,302,149863,2,1,L|239:337,1,37.5000000000001,0|0,3:3|0:0,0:0:0:0:
49,313,150021,5,4,3:2:0:0:
14,222,150179,1,2,2:1:0:0:
87,136,150337,1,2,3:2:0:0:
122,227,150495,1,0,3:3:0:0:
198,371,150652,6,1,B|216:310|177:312|199:261,1,112.5,10|0,2:3|0:0,0:0:0:0:
209,249,150968,1,2,3:2:0:0:
290,341,151126,1,0,3:3:0:0:
359,135,151284,6,1,B|381:178|381:178|363:278,1,150,2|0,3:1|0:0,0:0:0:0:
358,292,151600,1,2,3:2:0:0:
255,170,151758,1,2,3:2:0:0:
260,145,151837,1,2,2:1:0:0:
264,119,151916,2,1,P|238:94|202:84,1,75.0000000000002,10|0,2:2|0:0,0:0:0:0:
317,50,152152,1,2,2:1:0:0:
325,35,152231,2,1,P|351:9|388:3,1,75.0000000000002,2|2,3:1|3:2,0:0:0:0:
486,190,152547,6,1,B|451:168|451:168|343:184,1,150,2|0,3:2|0:0,0:0:0:0:
334,195,152863,1,2,3:2:0:0:
207,152,153021,1,0,3:3:0:0:
253,320,153179,2,1,B|322:355|322:355|391:335,1,150,10|0,2:3|0:0,0:0:0:0:
400,322,153495,1,4,3:1:0:0:
220,174,153652,2,1,L|213:211,1,37.5000000000001,2|0,2:1|0:0,0:0:0:0:
356,25,153810,5,4,3:2:0:0:
341,195,153968,1,8,3:3:0:0:
164,47,154126,1,8,2:3:0:0:
150,154,154284,1,0,3:3:0:0:
384,41,154442,5,8,2:3:0:0:
128,30,154600,1,8,2:3:0:0:
368,179,154758,1,8,2:3:0:0:
128,172,154916,1,8,3:3:0:0:
259,10,155073,6,1,B|270:121|270:121|236:194|236:194|246:301,1,300,4|0,3:2|3:3,0:0:0:0:
427,276,155705,6,1,B|409:235|409:235|423:169,1,112.5,12|0,2:1|0:0,0:0:0:0:
431,136,156021,1,4,3:1:0:0:
418,139,156100,1,0,3:3:0:0:
405,142,156179,1,0,3:3:0:0:
392,145,156258,1,0,3:3:0:0:
379,148,156337,5,4,3:2:0:0:
159,227,156495,1,8,2:3:0:0:
190,10,156652,1,12,2:1:0:0:
268,294,156810,5,0,3:3:0:0:
325,38,156968,2,1,L|334:9,1,18.75,12|8,2:1|2:3,0:0:0:0:
475,129,157126,2,1,L|463:94,1,37.5000000000001,8|0,2:3|0:0,0:0:0:0:
354,276,157284,5,12,3:1:0:0:
196,136,157442,1,8,3:3:0:0:
275,206,157600,5,6,3:2:0:0:
282,230,160126,6,1,L|274:289,1,59.9999999999999,4|2,3:2|2:2,0:0:0:0:
151,114,160442,1,2,3:3:0:0:
231,130,160600,1,2,2:2:0:0:
174,194,160758,6,1,P|165:222|146:245,1,59.9999999999999,2|2,3:2|2:2,0:0:0:0:
32,179,161073,2,1,P|61:172|90:177,1,59.9999999999999,2|2,3:3|2:2,0:0:0:0:
134,322,161389,2,1,P|163:321|190:308,1,59.9999999999999,2|2,3:2|2:2,0:0:0:0:
282,230,161705,5,4,3:2:0:0:
369,328,161863,1,2,2:2:0:0:
367,340,161942,1,2,2:2:0:0:
366,352,162021,2,1,B|338:364|338:364|311:352,1,59.9999999999999,2|2,3:2|2:2,0:0:0:0:
175,219,162337,6,1,B|221:206|221:206|262:216,1,89.9999999999998,4|2,3:2|2:3,0:0:0:0:
282,230,162652,6,1,B|303:179|303:179|283:46,1,187.5,4|0,3:2|0:0,0:0:0:0:
308,41,163126,1,0,3:3:0:0:
308,41,163205,1,0,3:3:0:0:
308,41,163284,5,12,3:3:0:0:
305,60,163363,1,0,0:0:0:0:
291,81,163442,1,0,0:0:0:0:
263,92,163521,1,0,0:0:0:0:
228,88,163600,1,0,0:0:0:0:
195,65,163679,1,8,2:3:0:0:
151,51,163758,1,8,2:3:0:0:
101,56,163837,1,8,2:3:0:0:
68,94,163916,1,8,3:3:0:0:
63,143,163995,1,8,2:3:0:0:
89,184,164073,1,8,2:3:0:0:
135,203,164152,1,8,2:3:0:0:
184,193,164231,1,8,2:3:0:0:
218,150,164310,1,8,2:3:0:0:
268,118,164389,1,8,2:3:0:0:
333,120,164468,1,8,2:3:0:0:
388,162,164547,5,8,3:3:0:0:
330,204,164626,1,8,2:3:0:0:
262,203,164705,1,8,2:3:0:0:
224,156,164784,1,8,2:3:0:0:
173,130,164863,1,8,3:3:0:0:
123,141,164942,1,0,0:0:0:0:
96,177,165021,1,0,0:0:0:0:
89,216,165100,1,0,0:0:0:0:
106,246,165179,5,12,3:3:0:0:
125,230,165258,1,0,0:0:0:0:
129,205,165337,1,0,0:0:0:0:
110,175,165416,1,0,0:0:0:0:
65,180,165495,1,0,0:0:0:0:
35,225,165573,1,0,0:0:0:0:
46,287,165652,2,1,P|62:306|86:317,1,50,0|0,3:3|3:3,0:0:0:0:
253,268,165810,5,12,3:2:0:0:
298,214,165889,1,0,0:0:0:0:
362,205,165968,1,0,0:0:0:0:
415,231,166047,1,0,0:0:0:0:
431,283,166126,1,0,0:0:0:0:
416,330,166205,1,0,0:0:0:0:
376,350,166284,1,8,2:3:0:0:
340,330,166363,1,8,2:3:0:0:
339,294,166442,5,12,3:3:0:0:
348,224,166521,1,8,2:3:0:0:
357,154,166600,1,8,2:3:0:0:
367,84,166679,1,8,2:3:0:0:
377,14,166758,2,1,L|426:23,1,50,8|0,3:3|0:0,0:0:0:0:
508,166,166916,2,1,L|458:175,1,50,8|0,3:3|0:0,0:0:0:0:
282,172,167073,6,1,P|211:159|169:216,1,150,4|0,3:1|0:0,0:0:0:0:
161,226,167389,6,1,P|90:213|48:270,1,150,4|8,3:2|2:3,0:0:0:0:
50,282,167705,5,8,3:3:0:0:
94,322,167784,1,8,2:3:0:0:
148,327,167863,1,8,2:3:0:0:
193,307,167942,1,8,2:3:0:0:
218,270,168021,2,1,P|238:255|263:250,1,50,0|8,3:3|2:3,0:0:0:0:
323,380,168179,2,1,P|300:370|283:351,1,50,8|8,2:3|2:3,0:0:0:0:
388,214,168337,5,8,3:3:0:0:
424,248,168416,1,8,2:3:0:0:
436,291,168495,1,8,2:3:0:0:
428,329,168573,1,8,2:3:0:0:
404,354,168652,5,8,3:3:0:0:
363,324,168731,1,8,2:3:0:0:
352,280,168810,1,8,2:3:0:0:
360,240,168889,1,8,2:3:0:0:
381,212,168968,5,8,3:3:0:0:
402,199,169047,1,8,2:3:0:0:
425,180,169126,1,8,2:3:0:0:
436,146,169205,1,8,2:3:0:0:
427,106,169284,1,8,3:3:0:0:
387,82,169363,1,8,2:3:0:0:
340,96,169442,1,8,2:3:0:0:
321,142,169521,1,8,2:3:0:0:
346,185,169600,5,8,3:3:0:0:
389,210,169679,1,8,2:3:0:0:
412,259,169758,1,8,2:3:0:0:
408,318,169837,1,8,2:3:0:0:
359,361,169916,1,8,3:3:0:0:
289,354,169995,1,8,2:3:0:0:
244,294,170073,1,8,2:3:0:0:
171,259,170152,1,8,2:3:0:0:
88,279,170231,6,1,B|116:372|238:374|289:280|245:209|245:209|197:132|277:54|344:79|344:79|290:74|267:107,1,600.000000000001,4|0,3:2|0:0,0:0:0:0:
256,192,171573,12,1,172600,0:0:0:0:
130,144,172758,5,4,3:2:0:0:
175,176,172837,1,0,3:3:0:0:
230,177,172916,1,8,3:3:0:0:
277,149,172995,1,0,3:3:0:0:
307,105,173073,1,2,3:3:0:0:
360,92,173152,1,0,3:3:0:0:
410,112,173231,2,1,P|432:128|446:151,1,55,10|0,3:3|3:3,0:0:0:0:
458,333,173389,5,2,3:3:0:0:
404,336,173468,1,0,3:3:0:0:
350,340,173547,1,10,3:3:0:0:
296,344,173626,1,0,3:3:0:0:
242,348,173705,1,2,3:3:0:0:
188,352,173784,1,0,3:3:0:0:
134,356,173863,2,1,P|108:346|90:325,1,55,10|0,3:3|3:3,0:0:0:0:
360,160,174021,5,2,3:3:0:0:
399,204,174100,1,0,3:3:0:0:
395,264,174179,1,10,3:3:0:0:
353,307,174258,1,0,3:3:0:0:
293,314,174337,1,2,3:3:0:0:
243,279,174416,1,0,3:3:0:0:
223,221,174495,1,10,3:3:0:0:
170,193,174573,1,0,3:3:0:0:
112,208,174652,1,2,3:3:0:0:
79,259,174731,1,0,3:3:0:0:
94,317,174810,1,10,3:3:0:0:
144,351,174889,1,0,3:3:0:0:
203,335,174968,5,2,3:3:0:0:
225,319,175047,1,0,3:3:0:0:
252,313,175126,1,10,3:3:0:0:
279,316,175205,1,0,3:3:0:0:
302,330,175284,5,2,3:3:0:0:
337,308,175363,1,0,3:3:0:0:
371,286,175442,2,1,L|320:264,1,55,10|0,3:3|3:3,0:0:0:0:
184,217,175600,5,2,3:3:0:0:
145,192,175679,1,0,3:3:0:0:
108,168,175758,2,1,L|163:144,1,55,10|0,3:3|3:3,0:0:0:0:
319,91,175916,5,2,3:3:0:0:
361,63,175995,1,0,3:3:0:0:
402,37,176073,2,1,L|340:11,1,55,10|0,3:3|3:3,0:0:0:0:
145,2,176231,5,2,3:3:0:0:
165,38,176310,1,0,3:3:0:0:
201,57,176389,1,10,3:3:0:0:
242,56,176468,1,0,3:3:0:0:
273,28,176547,5,2,3:3:0:0:
215,9,176626,1,0,3:3:0:0:
166,45,176705,1,10,3:3:0:0:
166,105,176784,1,0,3:3:0:0:
211,144,176863,1,2,3:3:0:0:
250,190,176942,1,0,3:3:0:0:
248,250,177021,1,10,3:3:0:0:
218,302,177100,1,0,3:3:0:0:
159,318,177179,5,8,3:3:0:0:
195,269,177258,1,8,2:3:0:0:
248,257,177337,1,8,2:3:0:0:
296,266,177416,1,8,2:3:0:0:
323,300,177495,1,8,3:3:0:0:
346,329,177573,1,8,2:3:0:0:
376,339,177652,1,8,2:3:0:0:
403,332,177731,1,8,2:3:0:0:
419,317,177810,5,12,3:3:0:0:
386,259,177889,1,0,3:3:0:0:
320,254,177968,1,0,3:3:0:0:
267,294,178047,1,0,3:3:0:0:
234,351,178126,1,0,3:3:0:0:
174,380,178205,1,0,3:3:0:0:
111,357,178284,1,0,3:3:0:0:
90,294,178363,1,0,3:3:0:0:
127,239,178442,5,12,3:3:0:0:
164,257,178521,1,0,3:3:0:0:
184,293,178600,2,1,P|191:319|185:345,1,55,0|0,3:3|3:3,0:0:0:0:
38,201,178758,1,0,3:3:0:0:
56,163,178837,1,0,3:3:0:0:
92,143,178916,2,1,P|118:135|144:141,1,55,0|0,3:3|3:3,0:0:0:0:
336,196,179073,5,12,3:3:0:0:
278,228,179152,1,0,3:3:0:0:
220,196,179231,1,0,3:3:0:0:
212,130,179310,1,0,3:3:0:0:
181,71,179389,1,0,3:3:0:0:
119,46,179468,1,0,3:3:0:0:
59,73,179547,2,1,P|41:95|37:122,1,55,0|0,3:3|3:3,0:0:0:0:
62,302,179705,5,12,3:3:0:0:
96,360,179784,1,0,3:3:0:0:
162,378,179863,1,0,3:3:0:0:
226,357,179942,1,0,3:3:0:0:
268,301,180021,1,0,3:3:0:0:
318,254,180100,1,0,3:3:0:0:
386,250,180179,1,0,3:3:0:0:
440,292,180258,1,0,3:3:0:0:
449,360,180337,5,2,3:3:0:0:
377,358,180416,1,0,3:3:0:0:
329,304,180495,1,10,3:3:0:0:
336,233,180573,1,0,3:3:0:0:
381,177,180652,1,2,3:3:0:0:
393,106,180731,1,0,3:3:0:0:
354,45,180810,1,10,3:3:0:0:
283,34,180889,1,0,3:3:0:0:
227,79,180968,1,2,3:3:0:0:
218,149,181047,1,0,3:3:0:0:
202,218,181126,1,10,3:3:0:0:
136,246,181205,1,0,3:3:0:0:
67,226,181284,1,2,3:3:0:0:
43,158,181363,1,0,3:3:0:0:
70,92,181442,1,10,3:3:0:0:
139,75,181521,1,0,3:3:0:0:
203,105,181600,5,8,3:3:0:0:
224,173,181679,1,8,2:3:0:0:
198,235,181758,1,8,2:3:0:0:
142,258,181837,1,8,2:3:0:0:
91,240,181916,1,0,3:3:0:0:
76,193,181995,1,0,3:3:0:0:
97,155,182073,1,8,2:3:0:0:
134,148,182152,1,8,2:3:0:0:
162,169,182231,2,1,L|151:226,1,55,8|8,3:3|2:3,0:0:0:0:
69,327,182389,2,1,L|58:270,1,55,8|8,2:3|2:3,0:0:0:0:
227,223,182547,5,8,3:3:0:0:
234,249,182626,1,8,2:3:0:0:
241,275,182705,1,8,2:3:0:0:
247,302,182784,1,8,2:3:0:0:
256,329,182863,5,4,3:2:0:0:
291,280,182942,1,0,3:3:0:0:
281,220,183021,1,10,3:2:0:0:
226,193,183100,1,0,3:3:0:0:
170,216,183179,1,2,3:1:0:0:
109,214,183258,1,0,3:3:0:0:
67,169,183337,1,10,3:2:0:0:
68,108,183416,1,0,3:3:0:0:
114,69,183495,1,2,3:1:0:0:
173,71,183573,1,0,3:3:0:0:
210,118,183652,1,10,3:2:0:0:
212,178,183731,1,0,3:3:0:0:
181,230,183810,1,2,3:1:0:0:
176,290,183889,1,0,3:3:0:0:
206,340,183968,2,1,P|230:354|258:357,1,55,10|0,3:2|3:3,0:0:0:0:
451,314,184126,5,2,3:1:0:0:
418,256,184205,1,0,3:3:0:0:
358,227,184284,1,8,3:3:0:0:
293,241,184363,1,2,3:1:0:0:
253,294,184442,1,2,3:1:0:0:
206,340,184521,1,2,3:2:0:0:
140,348,184600,1,8,3:3:0:0:
85,310,184679,1,0,3:3:0:0:
71,245,184758,1,2,3:1:0:0:
99,185,184837,1,0,3:3:0:0:
160,160,184916,1,10,3:2:0:0:
222,179,184995,1,2,3:1:0:0:
252,236,185073,5,2,3:1:0:0:
225,242,185152,1,0,3:3:0:0:
198,235,185231,1,10,3:2:0:0:
174,221,185310,1,0,3:3:0:0:
159,197,185389,5,12,3:3:0:0:
219,170,185468,1,0,3:3:0:0:
283,185,185547,1,0,3:3:0:0:
313,243,185626,1,0,3:3:0:0:
340,302,185705,1,0,3:3:0:0:
401,326,185784,1,0,3:3:0:0:
460,300,185863,2,1,P|477:278|483:251,1,55,0|0,3:3|3:3,0:0:0:0:
423,47,186021,5,12,3:3:0:0:
372,89,186100,1,0,3:3:0:0:
374,154,186179,1,0,3:3:0:0:
423,197,186258,1,0,3:3:0:0:
455,254,186337,1,0,3:3:0:0:
453,320,186416,1,0,3:3:0:0:
399,358,186495,2,1,P|371:360|346:349,1,55,0|0,3:3|3:3,0:0:0:0:
199,214,186652,5,12,3:2:0:0:
175,150,186731,1,0,3:3:0:0:
113,126,186810,1,0,3:3:0:0:
53,155,186889,1,0,3:3:0:0:
33,218,186968,1,0,3:3:0:0:
68,273,187047,1,0,3:3:0:0:
132,290,187126,2,1,P|158:282|177:262,1,55,0|0,3:3|3:3,0:0:0:0:
299,112,187284,5,12,3:2:0:0:
350,68,187363,1,0,3:3:0:0:
416,79,187442,1,0,3:3:0:0:
454,134,187521,1,0,3:3:0:0:
440,198,187600,1,0,3:3:0:0:
382,228,187679,1,0,3:3:0:0:
317,211,187758,2,1,P|298:191|291:164,1,55,0|0,3:3|3:3,0:0:0:0:
257,0,187916,5,4,3:2:0:0:
200,23,187995,1,0,3:3:0:0:
175,77,188073,1,8,3:3:0:0:
180,138,188152,1,0,3:3:0:0:
227,176,188231,1,2,3:1:0:0:
248,235,188310,1,0,3:3:0:0:
229,293,188389,1,10,3:2:0:0:
177,324,188468,1,0,3:3:0:0:
118,313,188547,1,2,3:1:0:0:
80,268,188626,1,0,3:3:0:0:
85,208,188705,1,10,3:2:0:0:
127,164,188784,1,0,3:3:0:0:
188,164,188863,5,2,3:1:0:0:
189,191,188942,1,0,3:3:0:0:
177,215,189021,1,10,3:2:0:0:
154,230,189100,1,0,3:3:0:0:
126,226,189179,5,4,3:2:0:0:
140,158,189258,1,0,3:3:0:0:
201,127,189337,1,8,3:3:0:0:
266,147,189416,1,0,3:3:0:0:
292,210,189495,1,2,3:1:0:0:
339,259,189573,1,0,3:3:0:0:
407,265,189652,1,10,3:2:0:0:
461,222,189731,1,0,3:3:0:0:
470,153,189810,5,2,3:1:0:0:
422,93,189889,1,0,3:3:0:0:
350,94,189968,1,10,3:2:0:0:
299,144,190047,1,2,3:2:0:0:
286,214,190126,1,2,3:1:0:0:
260,275,190205,1,0,3:3:0:0:
209,308,190284,1,10,3:2:0:0:
154,305,190363,1,0,3:3:0:0:
116,272,190442,6,1,L|107:213,3,55,12|8|8|8,3:3|2:3|2:3|2:3,0:0:0:0:
223,328,190758,2,1,L|214:382,3,55,8|8|8|8,3:3|2:3|2:3|2:3,0:0:0:0:
307,258,191073,6,1,L|298:199,1,55,12|8,3:3|2:3,0:0:0:0:
389,317,191231,2,1,L|380:371,1,55,8|8,2:3|2:3,0:0:0:0:
320,250,191389,2,1,L|311:191,1,55,8|8,3:3|2:3,0:0:0:0:
402,309,191547,2,1,L|393:363,1,55,8|8,2:3|2:3,0:0:0:0:
494,247,191705,6,1,L|500:320,2,73.3333333333333,8|8|8,3:3|2:3|2:3,0:0:0:0:
483,142,192021,6,1,L|478:69,1,73.3333333333333,8|8,3:3|2:3,0:0:0:0:
387,169,192231,5,8,2:3:0:0:
380,182,192337,6,1,L|385:254,1,73.3333333333333,8|8,3:3|2:3,0:0:0:0:
295,309,192547,5,8,2:3:0:0:
288,320,192652,5,8,3:3:0:0:
279,254,192758,5,8,2:3:0:0:
271,189,192863,5,8,2:3:0:0:
263,124,192968,5,4,3:2:0:0:
316,96,193047,1,0,3:3:0:0:
372,118,193126,1,8,3:3:0:0:
389,175,193205,1,0,3:3:0:0:
371,232,193284,1,2,3:3:0:0:
394,287,193363,1,0,3:3:0:0:
450,308,193442,2,1,P|477:306|499:290,1,55,10|0,3:3|3:3,0:0:0:0:
512,98,193600,5,2,3:3:0:0:
451,92,193679,1,0,3:3:0:0:
390,86,193758,1,10,3:3:0:0:
329,81,193837,1,0,3:3:0:0:
268,76,193916,1,2,3:3:0:0:
207,71,193995,1,0,3:3:0:0:
146,66,194073,2,1,P|122:75|98:96,1,55,10|0,3:3|3:3,0:0:0:0:
101,294,194231,5,2,3:3:0:0:
153,334,194310,1,0,3:3:0:0:
218,326,194389,1,10,3:3:0:0:
255,271,194468,1,0,3:3:0:0:
244,205,194547,1,2,3:3:0:0:
189,167,194626,1,0,3:3:0:0:
123,170,194705,1,10,3:3:0:0:
69,131,194784,1,0,3:3:0:0:
58,65,194863,1,2,3:3:0:0:
100,14,194942,1,0,3:3:0:0:
165,6,195021,1,10,3:3:0:0:
218,45,195100,1,0,3:3:0:0:
218,111,195179,5,2,3:3:0:0:
191,90,195258,1,0,3:3:0:0:
178,59,195337,1,10,3:3:0:0:
179,26,195416,1,0,3:3:0:0:
199,0,195495,5,2,3:3:0:0:
237,25,195573,1,0,3:3:0:0:
275,51,195652,2,1,L|221:62,1,55,10|0,3:3|3:3,0:0:0:0:
99,118,195810,5,2,3:3:0:0:
57,145,195889,1,0,3:3:0:0:
15,174,195968,2,1,L|74:186,1,55,10|0,3:3|3:3,0:0:0:0:
229,231,196126,5,2,3:3:0:0:
275,260,196205,1,0,3:3:0:0:
321,292,196284,2,1,L|255:306,1,55,10|0,3:3|3:3,0:0:0:0:
36,332,196442,5,2,3:3:0:0:
9,293,196521,1,0,3:3:0:0:
6,246,196600,1,10,3:3:0:0:
23,202,196679,1,0,3:3:0:0:
61,175,196758,5,8,3:3:0:0:
77,174,196837,1,8,2:3:0:0:
98,179,196916,1,8,2:3:0:0:
119,195,196995,1,8,2:3:0:0:
131,225,197073,1,8,3:3:0:0:
131,263,197152,1,8,2:3:0:0:
133,306,197231,1,8,2:3:0:0:
154,350,197310,1,8,2:3:0:0:
205,368,197389,1,8,3:3:0:0:
262,348,197468,1,8,2:3:0:0:
283,285,197547,1,8,2:3:0:0:
244,224,197626,1,8,2:3:0:0:
167,227,197705,5,8,2:3:0:0:
182,256,197784,1,8,2:3:0:0:
220,277,197863,1,8,2:3:0:0:
275,275,197942,1,8,2:3:0:0:
319,226,198021,5,12,3:3:0:0:
265,178,198100,1,0,3:3:0:0:
193,186,198179,1,0,3:3:0:0:
152,245,198258,1,0,3:3:0:0:
153,316,198337,1,0,3:3:0:0:
101,365,198416,1,0,3:3:0:0:
30,352,198495,1,0,3:3:0:0:
0,287,198573,1,0,3:3:0:0:
27,219,198652,5,12,3:2:0:0:
54,184,198731,1,0,3:3:0:0:
83,151,198810,2,1,L|141:145,1,55,0|0,3:3|3:3,0:0:0:0:
225,289,198968,1,0,3:3:0:0:
198,324,199047,1,0,3:3:0:0:
169,357,199126,2,1,L|111:363,1,55,0|0,3:3|3:3,0:0:0:0:
201,201,199284,5,12,3:3:0:0:
272,206,199363,1,0,3:3:0:0:
324,157,199442,1,0,3:3:0:0:
330,85,199521,1,0,3:3:0:0:
280,33,199600,1,0,3:3:0:0:
208,29,199679,1,0,3:3:0:0:
155,77,199758,2,1,P|145:103|147:130,1,55,0|0,3:3|3:3,0:0:0:0:
225,269,199916,5,12,3:3:0:0:
204,340,199995,1,0,3:3:0:0:
138,372,200073,1,0,3:3:0:0:
66,353,200152,1,0,3:3:0:0:
34,285,200231,1,0,3:3:0:0:
55,213,200310,1,0,3:3:0:0:
119,176,200389,1,0,3:3:0:0:
163,116,200468,1,0,3:3:0:0:
159,41,200547,5,2,3:3:0:0:
100,91,200626,1,0,3:3:0:0:
111,167,200705,1,10,3:3:0:0:
179,202,200784,1,0,3:3:0:0:
250,173,200863,1,2,3:3:0:0:
326,185,200942,1,0,3:3:0:0:
369,248,201021,1,10,3:3:0:0:
362,324,201100,1,0,3:3:0:0:
301,371,201179,1,2,3:3:0:0:
225,354,201258,1,0,3:3:0:0:
182,289,201337,1,10,3:3:0:0:
197,213,201416,1,0,3:3:0:0:
265,178,201495,2,1,P|292:174|318:181,1,55,2|0,3:3|3:3,0:0:0:0:
345,322,201652,2,1,P|319:311|300:292,1,55,10|0,3:3|3:3,0:0:0:0:
512,187,201810,5,8,3:3:0:0:
482,252,201889,1,8,2:3:0:0:
419,273,201968,1,8,2:3:0:0:
362,251,202047,1,8,2:3:0:0:
323,211,202126,1,8,3:3:0:0:
274,203,202205,1,8,2:3:0:0:
232,218,202284,1,8,2:3:0:0:
208,248,202363,1,8,2:3:0:0:
203,270,202442,2,1,L|206:307,1,37.5000000000001,0|0,3:3|3:3,0:0:0:0:
299,384,202600,5,8,2:3:0:0:
312,360,202679,1,8,2:3:0:0:
326,335,202758,2,1,L|320:277,1,37.5000000000001,0|0,3:3|3:3,0:0:0:0:
153,179,202916,5,8,2:3:0:0:
138,203,202995,1,8,2:3:0:0:
124,227,203073,5,4,3:2:0:0:
84,174,203152,1,0,3:3:0:0:
83,107,203231,1,10,3:2:0:0:
133,64,203310,1,0,3:3:0:0:
199,64,203389,1,2,3:1:0:0:
241,114,203468,1,0,3:3:0:0:
243,180,203547,1,10,3:2:0:0:
265,242,203626,1,0,3:3:0:0:
326,267,203705,1,2,3:1:0:0:
388,246,203784,1,2,3:1:0:0:
414,185,203863,1,10,3:2:0:0:
398,120,203942,1,0,3:3:0:0:
338,92,204021,1,2,3:1:0:0:
274,111,204100,1,2,3:2:0:0:
243,167,204179,2,1,P|240:195|247:221,1,55,10|0,3:2|3:3,0:0:0:0:
401,368,204337,5,4,3:2:0:0:
462,330,204416,1,0,3:3:0:0:
474,259,204495,1,8,3:3:0:0:
431,202,204573,1,0,3:3:0:0:
360,192,204652,1,2,3:1:0:0:
307,143,204731,1,2,3:1:0:0:
303,71,204810,1,10,3:2:0:0:
351,18,204889,1,0,3:3:0:0:
422,23,204968,1,2,3:1:0:0:
471,74,205047,1,0,3:3:0:0:
467,145,205126,1,10,3:2:0:0:
419,198,205205,1,0,3:3:0:0:
370,250,205284,5,2,3:1:0:0:
357,280,205363,1,0,3:3:0:0:
356,313,205442,1,10,3:2:0:0:
369,343,205521,1,0,3:3:0:0:
394,363,205600,5,12,3:3:0:0:
427,300,205679,1,0,3:3:0:0:
399,233,205758,1,0,3:3:0:0:
328,219,205837,1,0,3:3:0:0:
266,254,205916,1,0,3:3:0:0:
196,236,205995,1,0,3:3:0:0:
168,171,206073,2,1,P|167:143|175:117,1,55,0|0,3:3|3:3,0:0:0:0:
328,17,206231,5,12,3:3:0:0:
386,58,206310,1,0,3:3:0:0:
397,128,206389,1,0,3:3:0:0:
359,188,206468,1,0,3:3:0:0:
303,233,206547,1,0,3:3:0:0:
295,304,206626,1,0,3:3:0:0:
340,358,206705,2,1,P|364:366|395:362,1,55,0|0,3:3|3:3,0:0:0:0:
495,215,206863,5,12,3:3:0:0:
441,168,206942,1,0,3:3:0:0:
369,168,207021,1,0,3:3:0:0:
324,223,207100,1,0,3:3:0:0:
280,279,207179,1,0,3:3:0:0:
208,283,207258,1,0,3:3:0:0:
154,235,207337,2,1,P|146:208|146:181,1,55,0|0,3:3|3:3,0:0:0:0:
240,10,207495,5,12,3:1:0:0:
308,26,207573,1,0,3:3:0:0:
344,87,207652,1,0,3:3:0:0:
332,157,207731,1,0,3:3:0:0:
273,197,207810,1,0,3:3:0:0:
202,185,207889,1,0,3:3:0:0:
160,125,207968,2,1,P|179:104|205:95,1,55,0|0,3:3|3:3,0:0:0:0:
478,143,208126,5,4,3:2:0:0:
456,205,208205,1,0,3:3:0:0:
396,233,208284,1,8,3:3:0:0:
333,211,208363,1,0,3:3:0:0:
304,151,208442,1,2,3:1:0:0:
255,106,208521,1,0,3:3:0:0:
189,96,208600,1,10,3:2:0:0:
129,124,208679,1,0,3:3:0:0:
103,185,208758,1,2,3:1:0:0:
117,249,208837,1,0,3:3:0:0:
168,290,208916,1,10,3:2:0:0:
233,292,208995,1,0,3:3:0:0:
282,249,209073,5,2,3:1:0:0:
251,235,209152,1,0,3:3:0:0:
218,240,209231,1,10,3:2:0:0:
188,255,209310,1,0,3:3:0:0:
167,281,209389,5,12,3:3:0:0:
107,329,209468,1,0,3:3:0:0:
33,307,209547,1,0,3:3:0:0:
11,232,209626,1,0,3:3:0:0:
60,173,209705,1,0,3:3:0:0:
136,179,209784,1,0,3:3:0:0:
207,149,209863,1,0,3:3:0:0:
237,78,209942,1,0,3:3:0:0:
216,3,210021,5,12,3:2:0:0:
154,58,210100,1,0,3:3:0:0:
161,140,210179,1,0,3:3:0:0:
233,179,210258,1,0,3:3:0:0:
309,148,210337,1,0,3:3:0:0:
389,165,210416,1,0,3:3:0:0:
437,231,210495,1,0,3:3:0:0:
430,312,210573,1,0,3:3:0:0:
371,359,210652,6,1,B|354:245|354:245|403:131|403:131|384:3|384:3|346:63,1,437.5,12|0,3:3|0:0,0:0:0:0:
346,75,211284,5,8,3:3:0:0:
345,87,211600,5,8,3:3:0:0:
384,202,211758,1,8,3:3:0:0:
422,316,211916,2,1,B|292:233|270:384|139:293,1,300,8|0,3:3|0:0,0:0:0:0:
138,208,212547,6,1,P|178:214|209:241,1,83.3333333333333,8|0,3:3|0:0,0:0:0:0:
65,250,212758,2,1,P|50:211|57:171,1,83.3333333333333,8|0,3:3|0:0,0:0:0:0:
153,42,212968,2,1,L|137:123,1,83.3333333333333,8|0,3:3|0:0,0:0:0:0:
114,317,213179,6,1,B|91:334|57:335|57:335|142:385|218:328|196:315|280:243|362:283|362:283|329:289|309:308,1,450,12|0,3:3|0:0,0:0:0:0:
