osu file format v14

[General]
AudioFilename: audio.ogg
AudioLeadIn: 0
PreviewTime: 56468
Countdown: 0
SampleSet: Soft
StackLeniency: 0.7
Mode: 0
LetterboxInBreaks: 0
WidescreenStoryboard: 1

[Editor]
Bookmarks: 3495,26231,36337,46442,56547,66652,76758,86863,96968,107073,117179,127284,137389,157600,157916,158231,158547,158863,159179,159495,159810,160126,172758,182863,192968,203073
DistanceSpacing: 1.15
BeatDivisor: 4
GridSize: 32
TimelineZoom: 2.799999

[Metadata]
Title:Valley of the Vale
TitleUnicode:Valley of the Vale
Artist:Twilight Force
ArtistUnicode:Twilight Force
Creator:nebuwua
Version:Nymphuwua's Expert Collab
Source:
Tags:roupus dcs nymphe awfulness gabdu09 dabbe_01 sh4rq_ sh3rg_ werhakon gloryhammer symphonic melodic power metal adventure epic fantasy english nuclear blast records dawn of the dragonstar born borne Christer Björn Mikael Lundkvist Johan Philip Michael Lindh Eldhrimnir Daniel Beckman Gustaf Hansfeldt Aerendir Anders Joakim Johansson Alessandro Conti Ylva Eriksson Lynd Blackwald De'Azsh Allyon
BeatmapID:4000950
BeatmapSetID:1913010

[Difficulty]
HPDrainRate:5
CircleSize:3.8
OverallDifficulty:9.2
ApproachRate:9.4
SliderMultiplier:2
SliderTickRate:1

[Events]
//Background and Video events
0,0,"votvupscl.jpg",0,0
//Break Periods
2,157800,159586
//Storyboard Layer 0 (Background)
//Storyboard Layer 1 (Fail)
//Storyboard Layer 2 (Pass)
//Storyboard Layer 3 (Foreground)
//Storyboard Layer 4 (Overlay)
//Storyboard Sound Samples

[TimingPoints]
3495,315.789473684211,4,2,1,60,1,0
3495,-133.333333333333,4,2,1,60,0,0
7284,-133.333333333333,4,2,2,60,0,0
9810,-133.333333333333,4,2,1,60,0,0
11073,-133.333333333333,4,2,2,60,0,0
11705,-133.333333333333,4,2,1,60,0,0
12337,-133.333333333333,4,2,3,60,0,0
12652,-133.333333333333,4,2,4,60,0,0
12810,-133.333333333333,4,2,1,30,0,0
12889,-133.333333333333,4,2,1,45,0,0
12968,-133.333333333333,4,2,1,60,0,0
13283,-133.333333333333,4,2,5,60,0,0
13600,-133.333333333333,4,2,2,60,0,0
13916,-133.333333333333,4,2,1,60,0,0
14231,-100,4,2,1,60,0,0
16126,-100,4,2,2,60,0,0
16442,-100,4,2,1,60,0,0
18652,-100,4,2,2,60,0,0
18968,-100,4,2,1,60,0,0
21179,-100,4,2,2,60,0,0
21495,-100,4,2,1,60,0,0
23705,-100,4,2,4,60,0,0
24968,-133.333333333333,4,2,2,60,0,0
26231,-100,4,2,2,60,0,0
26547,-100,4,2,1,60,0,0
34442,-100,4,2,3,60,0,0
34758,-100,4,2,4,60,0,0
35073,-100,4,2,1,60,0,0
35705,-100,4,2,6,60,0,0
36021,-100,4,2,7,60,0,0
36337,-100,4,2,2,60,0,0
36652,-100,4,2,1,60,0,0
45810,-100,4,2,3,60,0,0
45968,-100,4,2,8,60,0,0
46126,-100,4,2,4,60,0,0
46284,-100,4,2,5,60,0,0
46442,-100,4,2,2,60,0,0
46836,-100,4,2,1,60,0,0
53389,-100,4,2,2,60,0,0
54021,-100,4,2,1,60,0,0
54100,-100,4,2,9,60,0,0
54652,-100,4,2,6,60,0,0
55284,-100,4,2,9,60,0,0
55441,-100,4,2,6,60,0,0
55600,-100,4,2,7,60,0,0
55757,-100,4,2,5,60,0,0
55916,-100,4,2,2,60,0,0
56547,-100,4,2,2,70,0,1
56863,-100,4,2,1,70,0,1
58442,-86.9565217391304,4,2,1,70,0,1
61284,-86.9565217391304,4,2,6,70,0,1
61441,-86.9565217391304,4,2,2,70,0,1
62863,-86.9565217391304,4,2,10,70,0,1
63495,-86.9565217391304,4,2,2,70,0,1
64126,-86.9565217391304,4,2,1,70,0,1
65389,-86.9565217391304,4,2,9,70,0,1
65705,-86.9565217391304,4,2,6,70,0,1
66021,-86.9565217391304,4,2,9,70,0,1
66179,-86.9565217391304,4,2,6,70,0,1
66337,-86.9565217391304,4,2,7,70,0,1
66494,-86.9565217391304,4,2,5,70,0,1
66652,-86.9565217391304,4,2,2,70,0,1
66968,-86.9565217391304,4,2,1,70,0,1
67126,-86.9565217391304,4,2,2,70,0,1
67284,-86.9565217391304,4,2,1,70,0,1
67442,-86.9565217391304,4,2,2,70,0,1
67600,-86.9565217391304,4,2,1,70,0,1
67758,-86.9565217391304,4,2,2,70,0,1
67916,-86.9565217391304,4,2,1,70,0,1
68073,-86.9565217391304,4,2,2,70,0,1
68231,-86.9565217391304,4,2,1,70,0,1
68389,-86.9565217391304,4,2,2,70,0,1
68547,-86.9565217391304,4,2,1,70,0,1
68704,-86.9565217391304,4,2,2,70,0,1
68863,-86.9565217391304,4,2,1,70,0,1
69020,-86.9565217391304,4,2,2,70,0,1
71073,-86.9565217391304,4,2,1,70,0,1
71705,-86.9565217391304,4,2,2,70,0,1
72021,-86.9565217391304,4,2,1,70,0,1
72179,-86.9565217391304,4,2,2,70,0,1
72337,-86.9565217391304,4,2,1,70,0,1
72495,-86.9565217391304,4,2,2,70,0,1
72652,-86.9565217391304,4,2,1,70,0,1
72809,-86.9565217391304,4,2,2,70,0,1
72968,-86.9565217391304,4,2,1,70,0,1
73442,-86.9565217391304,4,2,2,70,0,1
73600,-86.9565217391304,4,2,1,70,0,1
73758,-86.9565217391304,4,2,2,70,0,1
73916,-86.9565217391304,4,2,1,70,0,1
74073,-86.9565217391304,4,2,2,70,0,1
74231,-86.9565217391304,4,2,11,70,0,1
74863,-86.9565217391304,4,2,9,70,0,1
75495,-86.9565217391304,4,2,11,70,0,1
75810,-86.9565217391304,4,2,9,70,0,1
76126,-86.9565217391304,4,2,12,70,0,1
76336,-86.9565217391304,4,2,4,70,0,1
76547,-86.9565217391304,4,2,5,70,0,1
76758,-125,4,2,2,60,0,0
78021,-125,4,2,1,60,0,0
78652,-125,4,2,2,60,0,0
79284,-125,4,2,1,60,0,0
79916,-125,4,2,2,60,0,0
80547,-125,4,2,1,60,0,0
80705,-125,4,2,8,60,0,0
81179,-125,4,2,13,60,0,0
81416,-125,4,2,13,5,0,0
81495,-125,4,2,4,60,0,0
81810,-125,4,2,1,60,0,0
82442,-125,4,2,2,60,0,0
82915,-125,4,2,6,60,0,0
83073,-125,4,2,1,60,0,0
83389,-125,4,2,7,60,0,0
83547,-125,4,2,5,60,0,0
83705,-125,4,2,2,60,0,0
83942,-125,4,2,2,5,0,0
84021,-125,4,2,2,60,0,0
84652,-125,4,2,7,60,0,0
84810,-125,4,2,5,60,0,0
84968,-125,4,2,8,60,0,0
85284,-125,4,2,4,60,0,0
85600,-125,4,2,2,30,0,0
85915,-125,4,2,2,40,0,0
86230,-125,4,2,2,50,0,0
86547,-125,4,2,2,60,0,0
86863,-100,4,2,2,70,0,0
87179,-100,4,2,1,60,0,0
90021,-100,4,2,69,60,0,0
90178,-100,4,2,1,60,0,0
90968,-100,4,2,4,60,0,0
91916,-100,4,2,1,60,0,0
95073,-100,4,2,3,60,0,0
95231,-100,4,2,3,60,0,0
95389,-100,4,2,4,60,0,0
95705,-100,4,2,1,60,0,0
96337,-100,4,2,6,60,0,0
96652,-100,4,2,7,60,0,0
96968,-100,4,2,2,60,0,0
97284,-100,4,2,1,60,0,0
106442,-100,4,2,3,60,0,0
106600,-100,4,2,8,60,0,0
106758,-100,4,2,4,60,0,0
106916,-100,4,2,5,60,0,0
107073,-100,4,2,2,60,0,0
107310,-100,4,2,2,5,0,0
107389,-100,4,2,1,60,0,0
114021,-100,4,2,2,60,0,0
114652,-100,4,2,1,60,0,0
114731,-100,4,2,11,60,0,0
114968,-100,4,2,9,60,0,0
115284,-100,4,2,6,60,0,0
115916,-100,4,2,14,60,0,0
115994,-100,4,2,9,60,0,0
116231,-100,4,2,15,60,0,0
116309,-100,4,2,6,60,0,0
116547,-100,4,2,13,60,0,0
117179,-100,4,2,2,70,0,1
117495,-100,4,2,1,70,0,1
119073,-86.9565217391304,4,2,1,70,0,1
121916,-86.9565217391304,4,2,6,70,0,1
122073,-86.9565217391304,4,2,2,70,0,1
123495,-86.9565217391304,4,2,10,70,0,1
124126,-86.9565217391304,4,2,2,70,0,1
124758,-86.9565217391304,4,2,1,70,0,1
126021,-86.9565217391304,4,2,9,70,0,1
126337,-86.9565217391304,4,2,6,70,0,1
126652,-86.9565217391304,4,2,9,70,0,1
126810,-86.9565217391304,4,2,6,70,0,1
126968,-86.9565217391304,4,2,7,70,0,1
127125,-86.9565217391304,4,2,5,70,0,1
127284,-86.9565217391304,4,2,2,70,0,1
127600,-86.9565217391304,4,2,1,70,0,1
127758,-86.9565217391304,4,2,2,70,0,1
127916,-86.9565217391304,4,2,1,70,0,1
128073,-86.9565217391304,4,2,2,70,0,1
128231,-86.9565217391304,4,2,1,70,0,1
128389,-86.9565217391304,4,2,2,70,0,1
128547,-86.9565217391304,4,2,1,70,0,1
128705,-86.9565217391304,4,2,2,70,0,1
128863,-86.9565217391304,4,2,1,70,0,1
129021,-86.9565217391304,4,2,2,70,0,1
129179,-86.9565217391304,4,2,1,70,0,1
129336,-86.9565217391304,4,2,2,70,0,1
129495,-86.9565217391304,4,2,1,70,0,1
129652,-86.9565217391304,4,2,2,70,0,1
131705,-86.9565217391304,4,2,1,70,0,1
132337,-86.9565217391304,4,2,2,70,0,1
132652,-86.9565217391304,4,2,1,70,0,1
132810,-86.9565217391304,4,2,2,70,0,1
132968,-86.9565217391304,4,2,1,70,0,1
133126,-86.9565217391304,4,2,2,70,0,1
133284,-86.9565217391304,4,2,1,70,0,1
133441,-86.9565217391304,4,2,2,70,0,1
133600,-86.9565217391304,4,2,1,70,0,1
134073,-86.9565217391304,4,2,2,70,0,1
134231,-86.9565217391304,4,2,1,70,0,1
134389,-86.9565217391304,4,2,2,70,0,1
134547,-86.9565217391304,4,2,1,70,0,1
134705,-86.9565217391304,4,2,2,70,0,1
134863,-86.9565217391304,4,2,11,70,0,1
135179,-86.9565217391304,4,2,9,70,0,1
135495,-86.9565217391304,4,2,6,70,0,1
135810,-86.9565217391304,4,2,7,70,0,1
136126,-86.9565217391304,4,2,1,70,0,1
136441,-86.9565217391304,4,2,1,60,0,1
136521,-86.9565217391304,4,2,6,70,0,1
136758,-86.9565217391304,4,2,12,70,0,1
136915,-86.9565217391304,4,2,1,60,0,1
137073,-86.9565217391304,4,2,5,70,0,1
137230,-86.9565217391304,4,2,5,60,0,1
137389,-100,4,2,1,60,0,0
138021,-100,4,2,4,60,0,0
138337,-100,4,2,9,60,0,0
138495,-100,4,2,6,60,0,0
138652,-100,4,2,3,60,0,0
138810,-100,4,2,13,60,0,0
139125,-100,4,2,1,60,0,0
139600,-100,4,2,7,60,0,0
139758,-100,4,2,5,60,0,0
139916,-166.666666666667,4,2,2,60,0,0
140232,-166.666666666667,4,2,50,60,0,0
140237,-166.666666666667,4,2,2,60,0,0
140863,-166.666666666667,4,2,50,60,0,0
140868,-166.666666666667,4,2,2,60,0,0
141179,-166.666666666667,4,2,1,60,0,0
141495,-166.666666666667,4,2,50,60,0,0
141500,-166.666666666667,4,2,1,60,0,0
141810,-166.666666666667,4,2,2,60,0,0
142442,-166.666666666667,4,2,1,60,0,0
142758,-166.666666666667,4,2,50,60,0,0
142763,-166.666666666667,4,2,1,60,0,0
143073,-166.666666666667,4,2,2,60,0,0
143705,-166.666666666667,4,2,1,60,0,0
143863,-166.666666666667,4,2,3,60,0,0
144337,-166.666666666667,4,2,13,60,0,0
144495,-166.666666666667,4,2,6,60,0,0
144652,-166.666666666667,4,2,7,60,0,0
144968,-166.666666666667,4,2,2,60,0,0
145284,-166.666666666667,4,2,50,60,0,0
145289,-166.666666666667,4,2,2,60,0,0
146231,-166.666666666667,4,2,1,60,0,0
146547,-166.666666666667,4,2,50,60,0,0
146552,-166.666666666667,4,2,1,60,0,0
146863,-166.666666666667,4,2,2,60,0,0
147495,-166.666666666667,4,2,1,60,0,0
147811,-166.666666666667,4,2,50,60,0,0
147816,-166.666666666667,4,2,1,60,0,0
148126,-166.666666666667,4,2,2,60,0,0
148758,-166.666666666667,4,2,2,45,0,0
148916,-166.666666666667,4,2,13,60,0,0
149389,-166.666666666667,4,2,11,60,0,0
149546,-166.666666666667,4,2,1,60,0,0
149705,-166.666666666667,4,2,9,60,0,0
150021,-166.666666666667,4,2,1,60,0,0
150337,-166.666666666667,4,2,2,60,0,0
150652,-166.666666666667,4,2,13,60,0,0
150889,-166.666666666667,4,2,13,5,0,0
150968,-166.666666666667,4,2,2,60,0,0
151284,-166.666666666667,4,2,1,60,0,0
151600,-166.666666666667,4,2,2,60,0,0
151837,-166.666666666667,4,2,1,60,0,0
151916,-166.666666666667,4,2,3,60,0,0
152073,-166.666666666667,4,2,3,5,0,0
152152,-166.666666666667,4,2,1,60,0,0
152389,-166.666666666667,4,2,2,60,0,0
153179,-166.666666666667,4,2,13,60,0,0
153336,-166.666666666667,4,2,2,60,0,0
153652,-166.666666666667,4,2,1,60,0,0
154442,-166.666666666667,4,2,13,60,0,0
154758,-166.666666666667,4,2,8,60,0,0
154916,-166.666666666667,4,2,5,60,0,0
155073,-166.666666666667,4,2,2,60,0,0
156337,-166.666666666667,4,2,1,60,0,0
156652,-125,4,2,1,60,0,0
156968,-125,4,2,2,60,0,0
157126,-125,4,2,1,60,0,0
157284,-125,4,2,4,60,0,0
157442,-125,4,2,6,60,0,0
157600,-125,4,2,5,60,0,0
160126,-166.666666666667,4,2,1,40,0,0
160283,-166.666666666667,4,2,4,40,0,0
160442,-166.666666666667,4,2,1,40,0,0
160600,-166.666666666667,4,2,4,40,0,0
161073,-166.666666666667,4,2,1,40,0,0
161389,-166.666666666667,4,2,4,40,0,0
161705,-166.666666666667,4,2,3,40,0,0
161783,-166.666666666667,4,2,3,60,0,0
161862,-166.666666666667,4,2,4,40,0,0
162337,-125,4,2,3,40,0,0
162494,-125,4,2,1,40,0,0
162652,-111.111111111111,4,2,2,60,0,0
163284,-111.111111111111,4,2,1,70,0,0
163362,-111.111111111111,4,2,1,60,0,0
163678,-111.111111111111,4,2,11,70,0,0
163916,-111.111111111111,4,2,16,70,0,0
163995,-111.111111111111,4,2,11,70,0,0
164231,-111.111111111111,4,2,9,70,0,0
164547,-111.111111111111,4,2,7,70,0,0
164863,-111.111111111111,4,2,12,70,0,0
165020,-111.111111111111,4,2,1,60,0,0
165179,-111.111111111111,4,2,5,70,0,0
165258,-111.111111111111,4,2,5,60,0,0
165652,-111.111111111111,4,2,5,70,0,0
165810,-111.111111111111,4,2,4,70,0,0
166125,-111.111111111111,4,2,4,60,0,0
166284,-111.111111111111,4,2,9,70,0,0
166442,-111.111111111111,4,2,17,70,0,0
166520,-111.111111111111,4,2,9,70,0,0
166758,-111.111111111111,4,2,8,70,0,0
166916,-111.111111111111,4,2,4,70,0,0
167230,-111.111111111111,4,2,4,60,0,0
167389,-111.111111111111,4,2,4,70,0,0
167467,-111.111111111111,4,2,4,60,0,0
167546,-111.111111111111,4,2,11,70,0,0
168179,-111.111111111111,4,2,9,70,0,0
168652,-111.111111111111,4,2,6,70,0,0
168968,-111.111111111111,4,2,1,30,0,0
169284,-111.111111111111,4,2,1,40,0,0
169600,-111.111111111111,4,2,1,60,0,0
169916,-111.111111111111,4,2,1,70,0,0
170310,-111.111111111111,4,2,1,60,0,0
172758,-111.111111111111,4,2,2,70,0,1
173073,-111.111111111111,4,2,1,70,0,1
174652,-86.9565217391304,4,2,1,70,0,1
177495,-86.9565217391304,4,2,9,70,0,1
177652,-86.9565217391304,4,2,7,70,0,1
177731,-86.9565217391304,4,2,5,70,0,1
177810,-86.9565217391304,4,2,2,70,0,1
179073,-86.9565217391304,4,2,10,70,0,1
179705,-86.9565217391304,4,2,2,70,0,1
180337,-86.9565217391304,4,2,1,70,0,1
181600,-86.9565217391304,4,2,9,70,0,1
182073,-86.9565217391304,4,2,6,70,0,1
182231,-86.9565217391304,4,2,7,70,0,1
182547,-86.9565217391304,4,2,2,70,0,1
183179,-86.9565217391304,4,2,1,70,0,1
183337,-86.9565217391304,4,2,2,70,0,1
183495,-86.9565217391304,4,2,1,70,0,1
183652,-86.9565217391304,4,2,2,70,0,1
183810,-86.9565217391304,4,2,1,70,0,1
183968,-86.9565217391304,4,2,2,70,0,1
184126,-86.9565217391304,4,2,1,70,0,1
184521,-86.9565217391304,4,2,2,70,0,1
184758,-86.9565217391304,4,2,1,70,0,1
184915,-86.9565217391304,4,2,2,70,0,1
184994,-86.9565217391304,4,2,1,70,0,1
185230,-86.9565217391304,4,2,2,70,0,1
185389,-86.9565217391304,4,2,10,70,0,1
186021,-86.9565217391304,4,2,1,70,0,1
186652,-86.9565217391304,4,2,5,70,0,1
187916,-86.9565217391304,4,2,2,70,0,1
188231,-86.9565217391304,4,2,1,70,0,1
188389,-86.9565217391304,4,2,2,70,0,1
188547,-86.9565217391304,4,2,1,70,0,1
188705,-86.9565217391304,4,2,2,70,0,1
188863,-86.9565217391304,4,2,1,70,0,1
189020,-86.9565217391304,4,2,2,70,0,1
189179,-86.9565217391304,4,2,1,70,0,1
189652,-86.9565217391304,4,2,2,70,0,1
189810,-86.9565217391304,4,2,1,70,0,1
189968,-86.9565217391304,4,2,2,70,0,1
190126,-86.9565217391304,4,2,1,70,0,1
190284,-86.9565217391304,4,2,2,70,0,1
190442,-86.9565217391304,4,2,9,70,0,1
191073,-86.9565217391304,4,2,6,70,0,1
191705,-86.9565217391304,4,2,9,70,0,0
192021,-100,4,2,6,70,0,0
192337,-100,4,2,9,70,0,0
192442,-100,4,2,6,70,0,0
192547,-100,4,2,7,70,0,0
192652,-100,4,2,2,70,0,0
192968,-100,4,2,2,70,0,1
193284,-100,4,2,1,70,0,1
194863,-86.9565217391304,4,2,1,70,0,1
197705,-86.9565217391304,4,2,9,70,0,1
197862,-86.9565217391304,4,2,6,70,0,1
198021,-86.9565217391304,4,2,2,70,0,1
198652,-86.9565217391304,4,2,5,70,0,1
199284,-86.9565217391304,4,2,10,70,0,1
199916,-86.9565217391304,4,2,2,70,0,1
200547,-86.9565217391304,4,2,1,70,0,1
201810,-86.9565217391304,4,2,9,70,0,1
201968,-86.9565217391304,4,2,6,70,0,1
202126,-86.9565217391304,4,2,7,70,0,1
202284,-86.9565217391304,4,2,5,70,0,1
202599,-86.9565217391304,4,2,2,70,0,1
203389,-86.9565217391304,4,2,1,70,0,1
203547,-86.9565217391304,4,2,2,70,0,1
203705,-86.9565217391304,4,2,1,70,0,1
203863,-86.9565217391304,4,2,2,70,0,1
204021,-86.9565217391304,4,2,1,70,0,1
204100,-86.9565217391304,4,2,2,70,0,1
204337,-86.9565217391304,4,2,4,70,0,1
204495,-86.9565217391304,4,2,1,70,0,1
204810,-86.9565217391304,4,2,2,70,0,1
204968,-86.9565217391304,4,2,1,70,0,1
205125,-86.9565217391304,4,2,2,70,0,1
205284,-86.9565217391304,4,2,1,70,0,1
205441,-86.9565217391304,4,2,2,70,0,1
207495,-86.9565217391304,4,2,1,70,0,1
208126,-86.9565217391304,4,2,6,70,0,1
208284,-86.9565217391304,4,2,1,70,0,1
208600,-86.9565217391304,4,2,2,70,0,1
208758,-86.9565217391304,4,2,1,70,0,1
208916,-86.9565217391304,4,2,2,70,0,1
209073,-86.9565217391304,4,2,1,70,0,1
209230,-86.9565217391304,4,2,2,70,0,1
210021,-86.9565217391304,4,2,4,70,0,1
210652,-117.647058823529,4,2,2,70,0,0
211125,-117.647058823529,4,2,2,60,0,0
211284,-117.647058823529,4,2,8,70,0,0
211441,-117.647058823529,4,2,8,60,0,0
211600,-117.647058823529,4,2,8,70,0,0
212073,-117.647058823529,4,2,8,60,0,0
212547,-117.647058823529,4,2,1,70,0,0
212758,-117.647058823529,4,2,8,70,0,0
212968,-117.647058823529,4,2,5,70,0,0
213179,-125,4,2,1,70,0,0
213652,-125,4,2,1,60,0,0

[Colours]
Combo1 : 242,203,155
Combo2 : 104,120,140
Combo3 : 217,178,156
Combo4 : 166,88,81

[HitObjects]
92,54,3495,6,1,B|154:-10|242:98|117:175|18:102|18:102|82:166|39:228|31:212|0:275|45:328,1,525.000000000001,4|0,3:2|0:0,0:0:0:0:
138,253,4758,6,1,B|207:221|256:267|235:274|284:320|350:295,1,225.000000000001,4|0,3:3|0:0,0:0:0:0:
512,241,5389,2,1,B|460:252|438:312|438:312|433:247|381:211,1,225.000000000001,4|0,3:2|0:0,0:0:0:0:
428,116,6021,6,1,B|434:71|483:48|483:48|401:15|340:84|361:89|302:167|201:144|201:144|170:84|70:92,1,525.000000000001,4|0,3:2|0:0,0:0:0:0:
0,185,7284,6,1,B|89:241|113:345|113:345|119:191|305:194|322:339|220:354|181:316,1,525.000000000001,4|0,3:2|0:0,0:0:0:0:
294,186,8547,6,1,P|417:211|529:246,1,225.000000000001,4|0,3:2|0:0,0:0:0:0:
502,41,9179,2,1,P|414:14|383:140,1,225.000000000001,4|0,3:2|0:0,0:0:0:0:
283,190,9810,6,1,B|220:211|171:171|191:159|136:114|56:143,1,225.000000000001,4|0,3:3|0:0,0:0:0:0:
27,206,10442,1,4,3:2:0:0:
34,216,10758,5,0,3:3:0:0:
29,245,10837,1,0,3:3:0:0:
24,274,10916,1,0,3:3:0:0:
19,303,10995,1,0,3:3:0:0:
0,332,11073,6,1,B|65:344|107:298|107:298|135:353|201:361,1,225.000000000001,12|0,3:3|0:0,0:0:0:0:
260,299,11705,2,1,P|369:295|319:360,1,225.000000000001,4|8,3:3|2:3,0:0:0:0:
313,364,12258,1,8,2:3:0:0:
313,364,12337,5,8,3:3:0:0:
502,284,12652,1,8,3:3:0:0:
422,198,12810,1,8,2:3:0:0:
422,198,12889,1,8,2:3:0:0:
422,198,12968,2,1,P|406:118|379:30,1,150,8|8,2:3|3:3,0:0:0:0:
196,0,13600,5,4,3:2:0:0:
150,0,13679,1,0,3:3:0:0:
115,28,13758,1,0,3:3:0:0:
104,71,13837,1,0,3:3:0:0:
121,112,13916,1,10,3:3:0:0:
162,129,13995,1,0,3:3:0:0:
184,167,14073,1,0,3:3:0:0:
182,212,14152,1,0,3:3:0:0:
149,243,14231,2,1,P|122:227|86:215,3,50,2|0|0|0,3:3|3:3|3:3|3:3,0:0:0:0:
0,182,14547,2,1,P|27:166|63:154,3,50,10|0|0|0,3:3|3:3|3:3|3:3,0:0:0:0:
81,348,14863,5,2,3:3:0:0:
130,339,14942,1,0,3:3:0:0:
179,330,15021,1,0,3:3:0:0:
228,321,15100,1,0,3:3:0:0:
277,312,15179,2,1,L|264:371,3,50,10|0|0|0,3:3|3:3|3:3|3:3,0:0:0:0:
344,251,15495,5,2,3:3:0:0:
368,256,15573,1,0,3:3:0:0:
392,261,15652,1,0,3:3:0:0:
416,266,15731,1,0,3:3:0:0:
440,271,15810,2,1,L|455:331,3,50,10|0|0|0,3:3|3:3|3:3|3:3,0:0:0:0:
501,132,16126,5,4,3:2:0:0:
473,96,16205,1,0,3:3:0:0:
428,89,16284,1,0,3:3:0:0:
386,106,16363,1,0,3:3:0:0:
360,142,16442,1,10,3:3:0:0:
318,159,16521,1,0,3:3:0:0:
274,146,16600,1,0,3:3:0:0:
251,107,16679,1,0,3:3:0:0:
257,62,16758,2,1,P|294:51|329:47,1,50,2|0,3:3|3:3,0:0:0:0:
171,114,16916,1,0,3:3:0:0:
171,114,16995,1,0,3:3:0:0:
171,114,17073,2,1,P|134:103|99:99,3,50,10|0|0|0,3:3|3:3|3:3|3:3,0:0:0:0:
25,147,17389,5,2,3:3:0:0:
29,186,17468,1,0,3:3:0:0:
34,225,17547,1,0,3:3:0:0:
39,264,17626,1,0,3:3:0:0:
45,303,17705,2,1,P|74:291|106:284,3,50,10|0|0|0,3:3|3:3|3:3|3:3,0:0:0:0:
179,236,18021,2,1,P|150:224|118:217,3,50,2|0|0|0,3:3|3:3|3:3|3:3,0:0:0:0:
174,334,18337,2,1,P|203:322|235:315,3,50,10|0|0|0,3:3|3:3|3:3|3:3,0:0:0:0:
250,195,18652,5,4,3:2:0:0:
289,186,18731,1,0,3:3:0:0:
328,194,18810,1,0,3:3:0:0:
355,222,18889,1,0,3:3:0:0:
380,252,18968,1,10,3:3:0:0:
418,262,19047,1,0,3:3:0:0:
457,255,19126,1,0,3:3:0:0:
486,227,19205,1,0,3:3:0:0:
495,188,19284,2,1,P|460:176|425:173,3,50,2|0|0|0,3:3|3:3|3:3|3:3,0:0:0:0:
412,96,19600,2,1,P|382:118|360:145,3,50,10|0|0|0,3:3|3:3|3:3|3:3,0:0:0:0:
244,203,19916,5,2,3:3:0:0:
194,201,19995,1,0,3:3:0:0:
155,169,20073,1,0,3:3:0:0:
147,119,20152,1,0,3:3:0:0:
169,74,20231,2,1,P|196:62|242:57,1,50,10|0,3:3|3:3,0:0:0:0:
79,152,20389,2,1,P|52:140|6:135,1,50,0|0,3:3|3:3,0:0:0:0:
185,213,20547,2,1,P|212:201|258:196,3,50,2|0|0|0,3:3|3:3|3:3|3:3,0:0:0:0:
107,277,20863,1,10,3:3:0:0:
107,277,20942,1,0,3:3:0:0:
107,277,21021,2,1,L|98:208,1,50,0|0,3:3|3:3,0:0:0:0:
181,337,21179,5,4,3:2:0:0:
223,363,21258,1,0,3:3:0:0:
272,358,21337,1,0,3:3:0:0:
307,322,21416,1,0,3:3:0:0:
317,273,21495,1,10,3:3:0:0:
348,234,21573,1,0,3:3:0:0:
397,225,21652,1,0,3:3:0:0:
443,242,21731,1,0,3:3:0:0:
466,286,21810,2,1,P|433:294|401:308,3,50,2|0|0|0,3:3|3:3|3:3|3:3,0:0:0:0:
446,166,22126,2,1,P|479:174|511:188,3,50,10|0|0|0,3:3|3:3|3:3|3:3,0:0:0:0:
367,95,22442,5,2,3:3:0:0:
342,98,22521,1,0,3:3:0:0:
317,101,22600,1,0,3:3:0:0:
292,104,22679,1,0,3:3:0:0:
267,107,22758,2,1,P|254:143|249:172,1,50,10|0,3:3|3:3,0:0:0:0:
158,213,22916,2,1,P|151:188|142:165,1,50,0|0,3:3|3:3,0:0:0:0:
201,53,23073,2,1,P|188:89|183:118,3,50,2|0|0|0,3:3|3:3|3:3|3:3,0:0:0:0:
63,261,23389,5,10,3:3:0:0:
54,201,23468,1,8,3:3:0:0:
46,141,23547,1,10,3:3:0:0:
38,81,23626,1,8,3:3:0:0:
30,21,23705,5,8,3:3:0:0:
224,168,23863,1,8,3:3:0:0:
237,164,24179,1,8,3:3:0:0:
251,161,24495,1,8,3:3:0:0:
266,157,24810,1,8,3:3:0:0:
330,100,24968,6,1,B|372:51|435:74|435:74|463:138|402:188|401:170|341:208|351:273|351:273|316:238|266:241|266:241|236:282|164:283,1,525.000000000001,4|0,3:2|0:0,0:0:0:0:
205,34,26231,6,1,L|184:169,1,100,4|0,2:2|0:0,0:0:0:0:
179,159,26468,1,0,3:3:0:0:
179,159,26547,1,10,2:3:0:0:
64,66,26705,1,0,3:3:0:0:
5,182,26863,2,1,P|11:242|26:333,1,150,2|0,3:3|3:3,0:0:0:0:
44,355,27179,2,1,P|93:367|144:336,1,100,10|0,2:3|3:3,0:0:0:0:
275,269,27495,6,1,P|218:259|167:256,1,100,2|0,3:3|0:0,0:0:0:0:
158,263,27731,1,0,3:3:0:0:
158,263,27810,1,10,2:3:0:0:
251,127,27968,1,0,3:3:0:0:
341,345,28126,2,1,P|385:285|369:211,1,150,2|0,3:3|3:3,0:0:0:0:
349,189,28442,1,10,2:3:0:0:
469,106,28600,6,1,P|474:71|478:41,1,50,0|0,3:3|3:3,0:0:0:0:
393,9,28758,2,1,P|340:16|284:22,1,100,2|0,3:3|0:0,0:0:0:0:
267,47,28995,1,0,3:3:0:0:
267,47,29073,2,1,P|217:41|167:34,1,100,10|0,2:3|3:3,0:0:0:0:
41,116,29389,2,1,P|30:166|62:207,1,100,2|0,3:3|0:0,0:0:0:0:
75,217,29626,1,0,3:3:0:0:
75,217,29705,1,10,2:3:0:0:
199,294,29863,5,8,2:3:0:0:
199,294,29942,1,8,2:3:0:0:
199,294,30021,2,1,L|189:179,1,100,4|0,3:2|3:3,0:0:0:0:
251,123,30258,5,0,3:3:0:0:
251,123,30337,2,1,P|298:159|297:209,1,100,10|0,2:3|3:3,0:0:0:0:
305,290,30573,5,0,3:3:0:0:
305,290,30652,2,1,L|420:268,1,100,2|0,3:3|3:3,0:0:0:0:
487,201,30889,5,0,3:3:0:0:
487,201,30968,2,1,L|372:179,1,100,10|0,2:3|3:3,0:0:0:0:
356,109,31205,5,0,3:3:0:0:
356,109,31284,2,1,P|345:56|374:10,1,100,4|0,3:2|0:0,0:0:0:0:
389,10,31521,1,0,3:3:0:0:
389,10,31600,2,1,L|490:23,1,100,10|0,2:3|3:3,0:0:0:0:
251,123,31916,2,1,L|89:149,1,150,2|0,3:3|3:3,0:0:0:0:
78,167,32231,1,10,2:3:0:0:
200,0,32389,1,0,3:3:0:0:
356,109,32547,6,1,P|343:186|331:265,1,150,4|0,3:2|3:3,0:0:0:0:
346,279,32863,1,10,2:3:0:0:
467,199,33021,1,0,3:3:0:0:
348,360,33179,2,1,B|305:378|282:344|287:337|262:301|216:316,1,150,4|0,3:2|3:3,0:0:0:0:
203,333,33495,1,10,2:3:0:0:
83,384,33652,5,0,3:3:0:0:
83,384,33731,1,0,3:3:0:0:
83,384,33810,2,1,P|77:313|72:266,1,100,4|0,3:2|3:3,0:0:0:0:
55,263,34047,1,0,3:3:0:0:
55,263,34126,1,10,2:3:0:0:
199,179,34284,1,0,3:3:0:0:
114,0,34442,6,1,P|103:59|95:112,1,100,4|0,3:2|3:3,0:0:0:0:
28,138,34679,1,0,3:3:0:0:
28,138,34758,2,1,P|67:175|119:173,1,100,12|0,2:2|3:3,0:0:0:0:
240,57,35073,6,1,P|301:68|362:84,1,100,4|0,3:3|3:3,0:0:0:0:
357,89,35310,1,0,3:3:0:0:
357,89,35389,1,8,2:3:0:0:
422,168,35547,1,8,2:3:0:0:
422,168,35626,1,8,2:3:0:0:
422,168,35705,2,1,L|364:176,3,50,8|8|0|0,2:3|2:3|3:3|3:3,0:0:0:0:
416,14,36021,2,1,L|472:32,3,50,8|8|0|0,2:3|2:3|3:3|3:3,0:0:0:0:
236,13,36337,5,4,3:2:0:0:
187,0,36416,1,0,3:3:0:0:
139,18,36495,1,8,3:3:0:0:
119,64,36573,1,0,3:3:0:0:
130,113,36652,1,2,3:3:0:0:
161,153,36731,1,0,3:3:0:0:
159,204,36810,1,8,3:3:0:0:
122,238,36889,1,0,3:3:0:0:
72,236,36968,2,1,P|64:210|55:176,3,50,2|0|8|0,3:3|3:3|3:3|3:3,0:0:0:0:
193,276,37284,2,1,P|186:301|178:324,3,50,2|0|8|0,3:3|3:3|3:3|3:3,0:0:0:0:
252,384,37600,5,2,3:3:0:0:
291,381,37679,1,0,3:3:0:0:
326,362,37758,1,8,3:3:0:0:
342,326,37837,1,0,3:3:0:0:
339,287,37916,1,2,3:3:0:0:
355,251,37995,1,0,3:3:0:0:
390,234,38073,1,8,3:3:0:0:
429,237,38152,1,0,3:3:0:0:
456,267,38231,5,2,3:3:0:0:
436,283,38310,1,0,3:3:0:0:
411,288,38389,1,8,3:3:0:0:
386,283,38468,1,0,3:3:0:0:
369,264,38547,2,1,P|371:231|385:187,3,50,2|0|8|0,3:3|3:3|3:3|3:3,0:0:0:0:
467,159,38863,5,2,3:3:0:0:
462,130,38942,1,0,3:3:0:0:
457,101,39021,1,8,3:3:0:0:
453,72,39100,1,0,3:3:0:0:
449,43,39179,2,1,L|392:31,3,50,2|0|8|0,3:3|3:3|3:3|3:3,0:0:0:0:
309,88,39495,5,2,3:3:0:0:
270,96,39573,1,0,3:3:0:0:
230,104,39652,1,8,3:3:0:0:
190,112,39731,1,0,3:3:0:0:
150,121,39810,2,1,L|160:65,3,50,2|0|8|0,3:3|3:3|3:3|3:3,0:0:0:0:
40,142,40126,5,4,3:2:0:0:
4,178,40205,1,0,3:3:0:0:
0,228,40284,1,8,3:3:0:0:
28,269,40363,1,0,3:3:0:0:
75,285,40442,1,2,3:3:0:0:
124,279,40521,1,0,3:3:0:0:
164,251,40600,1,8,3:3:0:0:
214,250,40679,1,0,3:3:0:0:
254,279,40758,5,4,3:2:0:0:
249,304,40837,1,0,3:3:0:0:
244,329,40916,1,8,3:3:0:0:
239,354,40995,1,0,3:3:0:0:
233,379,41073,2,1,L|183:369,3,50,2|0|8|0,3:3|3:3|3:3|3:3,0:0:0:0:
326,332,41389,5,4,3:2:0:0:
364,344,41468,1,0,3:3:0:0:
402,334,41547,1,8,3:3:0:0:
429,305,41626,1,0,3:3:0:0:
434,266,41705,1,2,3:3:0:0:
414,231,41784,1,0,3:3:0:0:
377,216,41863,1,8,3:3:0:0:
357,182,41942,1,0,3:3:0:0:
364,143,42021,1,2,3:3:0:0:
391,114,42100,1,0,3:3:0:0:
430,110,42179,1,8,3:3:0:0:
464,131,42258,1,0,3:3:0:0:
473,170,42337,2,1,P|439:178|394:187,3,50,2|0|8|0,3:3|3:3|3:3|3:3,0:0:0:0:
283,223,42652,5,2,3:3:0:0:
249,193,42731,1,0,3:3:0:0:
242,149,42810,1,8,3:3:0:0:
268,113,42889,1,0,3:3:0:0:
280,70,42968,1,2,3:3:0:0:
264,28,43047,1,0,3:3:0:0:
225,5,43126,1,8,3:3:0:0:
180,12,43205,1,0,3:3:0:0:
154,50,43284,5,2,3:3:0:0:
170,82,43363,1,0,3:3:0:0:
201,98,43442,1,8,3:3:0:0:
235,96,43521,1,0,3:3:0:0:
263,76,43600,2,1,P|269:43|270:13,3,50,2|0|8|0,3:3|3:3|3:3|3:3,0:0:0:0:
86,8,43916,5,6,3:2:0:0:
55,42,43995,1,0,3:3:0:0:
51,87,44073,1,8,3:3:0:0:
71,128,44152,1,0,3:3:0:0:
111,148,44231,1,2,3:3:0:0:
149,171,44310,1,0,3:3:0:0:
170,211,44389,1,8,3:3:0:0:
167,256,44468,1,0,3:3:0:0:
138,291,44547,1,2,3:3:0:0:
94,301,44626,1,0,3:3:0:0:
50,290,44705,1,8,3:3:0:0:
25,253,44784,1,0,3:3:0:0:
25,208,44863,2,1,P|63:218|95:222,3,50,2|0|8|0,3:3|3:3|3:3|3:3,0:0:0:0:
233,317,45179,5,8,2:3:0:0:
233,317,45258,1,8,2:3:0:0:
233,317,45337,2,1,P|243:280|248:251,1,50,0|0,3:3|3:3,0:0:0:0:
363,248,45495,5,8,2:3:0:0:
363,248,45573,1,8,2:3:0:0:
363,248,45652,2,1,P|353:211|348:182,1,50,0|0,3:3|3:3,0:0:0:0:
237,118,45810,5,8,3:3:0:0:
421,43,45968,1,8,3:3:0:0:
267,0,46126,1,8,3:3:0:0:
355,106,46284,1,8,3:3:0:0:
177,37,46442,6,1,P|124:55|104:111,1,100,4|8,3:2|2:3,0:0:0:0:
33,117,46679,2,1,P|22:171|60:217,1,100,0|0,0:0|3:3,0:0:0:0:
77,278,46916,1,10,2:3:0:0:
264,342,47073,1,2,3:3:0:0:
196,150,47231,2,1,L|181:252,1,100,10|2,2:3|2:3,0:0:0:0:
171,272,47468,1,0,3:3:0:0:
171,272,47547,1,10,2:3:0:0:
278,235,47705,5,2,3:3:0:0:
144,98,47863,2,1,P|204:97|241:149,1,100,10|2,2:3|2:3,0:0:0:0:
243,141,48100,1,0,3:3:0:0:
243,141,48179,1,10,2:3:0:0:
360,250,48337,5,2,3:3:0:0:
394,270,48416,1,0,3:3:0:0:
434,270,48495,1,8,2:3:0:0:
468,250,48573,1,8,2:3:0:0:
492,218,48652,1,0,3:3:0:0:
494,178,48731,1,0,3:3:0:0:
483,139,48810,1,8,2:3:0:0:
454,111,48889,1,8,2:3:0:0:
414,104,48968,6,1,P|347:97|302:93,1,100,4|10,3:2|2:3,0:0:0:0:
274,26,49205,2,1,P|224:30|174:35,1,100,0|0,0:0|3:3,0:0:0:0:
118,92,49442,1,10,2:3:0:0:
213,211,49600,1,2,3:3:0:0:
40,309,49758,2,1,P|11:266|29:216,1,100,10|2,2:3|2:3,0:0:0:0:
37,203,49995,1,0,3:3:0:0:
37,203,50073,1,10,2:3:0:0:
158,342,50231,5,2,3:3:0:0:
191,363,50310,1,0,3:3:0:0:
230,365,50389,1,10,3:3:0:0:
265,346,50468,1,0,3:3:0:0:
288,313,50547,1,2,3:3:0:0:
316,285,50626,1,0,3:3:0:0:
355,276,50705,1,10,3:3:0:0:
394,283,50784,1,0,3:3:0:0:
428,302,50863,5,2,3:3:0:0:
424,331,50942,1,0,3:3:0:0:
405,354,51021,1,10,3:3:0:0:
377,365,51100,1,0,3:3:0:0:
346,365,51179,2,1,P|338:334|330:302,3,50,2|0|10|0,3:3|3:3|3:3|3:3,0:0:0:0:
214,250,51495,5,12,3:3:0:0:
219,221,51573,1,0,3:3:0:0:
224,192,51652,1,2,3:3:0:0:
228,163,51731,1,0,3:3:0:0:
232,134,51810,2,1,L|289:122,3,50,10|0|2|0,3:3|3:3|3:3|3:3,0:0:0:0:
405,155,52126,5,10,3:3:0:0:
400,126,52205,1,0,3:3:0:0:
395,97,52284,1,2,3:3:0:0:
391,68,52363,1,0,3:3:0:0:
387,39,52442,2,1,L|330:27,3,50,10|0|2|0,3:3|3:3|3:3|3:3,0:0:0:0:
491,202,52758,5,12,3:1:0:0:
473,244,52837,1,0,3:3:0:0:
433,264,52916,1,0,3:3:0:0:
387,263,52995,1,0,3:3:0:0:
347,241,53073,1,0,3:3:0:0:
319,219,53152,1,0,3:3:0:0:
284,215,53231,1,0,3:3:0:0:
250,223,53310,1,0,3:3:0:0:
225,248,53389,5,12,3:3:0:0:
234,292,53468,1,0,3:3:0:0:
271,315,53547,1,0,3:3:0:0:
315,318,53626,1,0,3:3:0:0:
350,289,53705,2,1,L|342:203,3,50,0|0|0|0,3:3|3:3|3:3|3:3,0:0:0:0:
360,133,54021,5,4,3:2:0:0:
316,100,54100,1,8,2:3:0:0:
259,101,54179,1,8,2:3:0:0:
212,130,54258,1,8,2:3:0:0:
181,175,54337,1,8,3:3:0:0:
131,197,54416,1,8,2:3:0:0:
76,192,54495,1,8,2:3:0:0:
29,163,54573,1,8,2:3:0:0:
12,111,54652,5,8,3:3:0:0:
56,79,54731,1,8,2:3:0:0:
110,71,54810,1,8,2:3:0:0:
161,92,54889,1,8,2:3:0:0:
194,134,54968,1,8,3:3:0:0:
203,188,55047,1,8,2:3:0:0:
184,239,55126,1,8,2:3:0:0:
141,273,55205,1,8,2:3:0:0:
88,282,55284,6,1,L|17:273,3,50,8|8|8|8,3:3|2:3|2:3|2:3,0:0:0:0:
168,384,55600,2,1,L|238:375,3,50,8|8|8|8,3:3|2:3|2:3|2:3,0:0:0:0:
288,260,55916,1,4,3:1:0:0:
455,86,56547,5,4,3:2:0:0:
417,44,56626,1,0,3:3:0:0:
360,39,56705,1,8,3:3:0:0:
308,63,56784,1,0,3:3:0:0:
281,114,56863,1,2,3:3:0:0:
238,152,56942,1,0,3:3:0:0:
182,161,57021,1,10,3:3:0:0:
129,140,57100,1,0,3:3:0:0:
107,88,57179,5,2,3:3:0:0:
145,62,57258,1,0,3:3:0:0:
192,63,57337,1,10,3:3:0:0:
231,89,57416,1,0,3:3:0:0:
249,132,57495,1,2,3:3:0:0:
242,177,57573,1,0,3:3:0:0:
211,211,57652,1,10,3:3:0:0:
166,219,57731,1,0,3:3:0:0:
123,205,57810,5,2,3:3:0:0:
143,151,57889,1,0,3:3:0:0:
198,134,57968,1,10,3:3:0:0:
252,155,58047,1,0,3:3:0:0:
278,207,58126,1,2,3:3:0:0:
272,265,58205,1,0,3:3:0:0:
294,319,58284,1,10,3:3:0:0:
348,340,58363,1,0,3:3:0:0:
405,330,58442,2,1,P|400:295|391:257,3,57.5,2|0|10|0,3:3|3:3|3:3|3:3,0:0:0:0:
490,228,58758,1,2,3:3:0:0:
490,228,58837,1,0,3:3:0:0:
490,228,58916,2,1,P|485:257|481:285,1,57.5,10|0,3:3|3:3,0:0:0:0:
293,214,59073,5,2,3:3:0:0:
276,166,59152,1,0,3:3:0:0:
302,121,59231,1,10,3:3:0:0:
353,110,59310,1,0,3:3:0:0:
401,131,59389,1,2,3:3:0:0:
452,121,59468,1,0,3:3:0:0:
480,78,59547,1,10,3:3:0:0:
474,27,59626,1,0,3:3:0:0:
430,1,59705,2,1,P|396:14|362:21,3,57.5,2|0|10|0,3:3|3:3|3:3|3:3,0:0:0:0:
318,77,60021,2,1,P|291:70|264:60,3,57.5,2|0|10|0,3:3|3:3|3:3|3:3,0:0:0:0:
200,5,60337,5,2,3:3:0:0:
155,3,60416,1,0,3:3:0:0:
118,31,60495,1,10,3:3:0:0:
110,76,60573,1,0,3:3:0:0:
131,118,60652,1,2,3:3:0:0:
173,138,60731,1,0,3:3:0:0:
203,174,60810,1,10,3:3:0:0:
208,220,60889,1,0,3:3:0:0:
187,261,60968,1,2,3:3:0:0:
144,277,61047,1,0,3:3:0:0:
99,271,61126,1,10,3:3:0:0:
69,237,61205,1,0,3:3:0:0:
76,192,61284,2,1,P|111:202|142:206,3,57.5,8|8|8|8,2:3|2:3|2:3|2:3,0:0:0:0:
216,160,61600,5,12,3:3:0:0:
273,132,61679,1,0,3:3:0:0:
333,150,61758,1,0,3:3:0:0:
354,209,61837,1,0,3:3:0:0:
328,266,61916,1,0,3:3:0:0:
330,329,61995,1,0,3:3:0:0:
377,369,62073,1,0,3:3:0:0:
440,366,62152,1,0,3:3:0:0:
478,315,62231,2,1,P|472:281|461:246,3,57.5,12|0|0|0,3:3|3:3|3:3|3:3,0:0:0:0:
372,201,62547,2,1,P|378:167|389:132,3,57.5,0|0|0|0,3:3|3:3|3:3|3:3,0:0:0:0:
495,72,62863,5,12,3:3:0:0:
462,14,62942,1,0,3:3:0:0:
396,2,63021,1,0,3:3:0:0:
335,28,63100,1,0,3:3:0:0:
311,89,63179,1,0,3:3:0:0:
265,137,63258,1,0,3:3:0:0:
198,138,63337,1,0,3:3:0:0:
148,93,63416,1,0,3:3:0:0:
161,28,63495,5,12,3:3:0:0:
205,17,63573,1,0,3:3:0:0:
246,40,63652,1,0,3:3:0:0:
259,85,63731,1,0,3:3:0:0:
243,128,63810,1,0,3:3:0:0:
203,151,63889,1,0,3:3:0:0:
157,150,63968,1,0,3:3:0:0:
123,120,64047,1,0,3:3:0:0:
122,74,64126,5,2,3:3:0:0:
186,50,64205,1,0,3:3:0:0:
249,77,64284,1,10,3:3:0:0:
263,144,64363,1,0,3:3:0:0:
233,206,64442,1,2,3:3:0:0:
237,274,64521,1,0,3:3:0:0:
291,316,64600,1,10,3:3:0:0:
359,312,64679,1,0,3:3:0:0:
392,251,64758,2,1,P|381:211|378:174,3,57.5,2|0|10|0,3:3|3:3|3:3|3:3,0:0:0:0:
290,113,65073,2,1,P|285:141|276:168,3,57.5,2|0|10|0,3:3|3:3|3:3|3:3,0:0:0:0:
454,66,65389,5,8,3:3:0:0:
417,14,65468,1,8,2:3:0:0:
354,6,65547,1,8,2:3:0:0:
301,41,65626,1,8,2:3:0:0:
278,100,65705,1,8,3:3:0:0:
238,142,65784,1,8,2:3:0:0:
182,153,65863,1,8,2:3:0:0:
128,136,65942,1,8,2:3:0:0:
108,83,66021,1,8,3:3:0:0:
125,34,66100,1,8,2:3:0:0:
168,17,66179,1,8,2:3:0:0:
202,40,66258,1,8,2:3:0:0:
196,74,66337,2,1,P|164:73|130:62,3,57.5,8|8|8|8,3:3|2:3|2:3|2:3,0:0:0:0:
57,184,66652,5,4,3:2:0:0:
29,227,66731,1,0,3:3:0:0:
30,278,66810,1,10,3:2:0:0:
63,317,66889,1,0,3:3:0:0:
113,328,66968,1,2,3:1:0:0:
162,312,67047,1,0,3:3:0:0:
193,270,67126,1,10,3:2:0:0:
216,223,67205,1,0,3:3:0:0:
262,199,67284,1,2,3:1:0:0:
313,198,67363,1,0,3:3:0:0:
356,226,67442,1,10,3:2:0:0:
381,271,67521,1,0,3:3:0:0:
375,322,67600,1,2,3:1:0:0:
342,361,67679,1,0,3:3:0:0:
291,372,67758,1,10,3:2:0:0:
240,359,67837,1,0,3:3:0:0:
205,320,67916,5,2,3:1:0:0:
236,272,67995,1,0,3:3:0:0:
291,260,68073,1,10,3:2:0:0:
342,286,68152,1,0,3:3:0:0:
383,326,68231,1,2,3:1:0:0:
436,346,68310,1,0,3:3:0:0:
490,328,68389,1,10,3:2:0:0:
510,274,68468,1,0,3:3:0:0:
494,218,68547,2,1,P|465:210|429:200,3,57.5,2|0|10|0,3:1|3:3|3:2|3:3,0:0:0:0:
387,122,68863,2,1,P|416:114|452:104,3,57.5,2|0|10|0,3:1|3:3|3:2|3:3,0:0:0:0:
319,44,69179,5,12,3:3:0:0:
259,9,69258,1,0,3:3:0:0:
191,21,69337,1,0,3:3:0:0:
162,83,69416,1,0,3:3:0:0:
168,151,69495,1,0,3:3:0:0:
121,201,69573,1,0,3:3:0:0:
51,198,69652,1,0,3:3:0:0:
4,146,69731,1,0,3:3:0:0:
18,78,69810,5,12,3:3:0:0:
56,65,69889,1,0,3:3:0:0:
95,74,69968,1,0,3:3:0:0:
128,96,70047,1,0,3:3:0:0:
146,131,70126,1,0,3:3:0:0:
151,170,70205,1,0,3:3:0:0:
142,209,70284,1,0,3:3:0:0:
116,240,70363,1,0,3:3:0:0:
78,255,70442,5,12,3:3:0:0:
26,213,70521,1,0,3:3:0:0:
17,147,70600,1,0,3:3:0:0:
33,82,70679,1,0,3:3:0:0:
80,36,70758,1,0,3:3:0:0:
143,18,70837,1,0,3:3:0:0:
208,29,70916,1,0,3:3:0:0:
258,72,70995,1,0,3:3:0:0:
274,135,71073,2,1,L|267:201,3,57.5,12|0|0|0,3:1|3:3|3:3|3:3,0:0:0:0:
162,279,71389,2,1,L|155:212,3,57.5,0|0|0|0,3:3|3:3|3:3|3:3,0:0:0:0:
301,363,71705,5,4,3:2:0:0:
356,378,71784,1,0,3:3:0:0:
410,358,71863,1,8,3:3:0:0:
444,311,71942,1,0,3:3:0:0:
449,253,72021,1,2,3:1:0:0:
417,205,72100,1,0,3:3:0:0:
362,186,72179,1,10,3:2:0:0:
305,196,72258,1,0,3:3:0:0:
267,239,72337,5,2,3:1:0:0:
294,275,72416,1,0,3:3:0:0:
336,291,72495,1,10,3:2:0:0:
379,278,72573,1,0,3:3:0:0:
408,242,72652,2,1,L|423:165,3,57.5,2|0|10|0,3:1|3:3|3:2|3:3,0:0:0:0:
484,70,72968,5,4,3:2:0:0:
437,35,73047,1,0,3:3:0:0:
379,30,73126,1,8,3:3:0:0:
328,57,73205,1,0,3:3:0:0:
295,104,73284,1,2,3:1:0:0:
243,129,73363,1,0,3:3:0:0:
185,121,73442,1,10,3:2:0:0:
142,82,73521,1,0,3:3:0:0:
133,25,73600,5,2,3:1:0:0:
183,11,73679,1,0,3:3:0:0:
233,24,73758,1,10,3:2:0:0:
261,67,73837,1,0,3:3:0:0:
275,116,73916,1,2,3:1:0:0:
303,159,73995,1,0,3:3:0:0:
351,175,74073,1,10,3:2:0:0:
401,162,74152,1,0,3:3:0:0:
431,119,74231,6,1,L|422:51,3,57.5,8|8|8|8,3:3|2:3|2:3|2:3,0:0:0:0:
497,200,74547,2,1,L|488:268,3,57.5,8|8|8|8,3:3|2:3|2:3|2:3,0:0:0:0:
307,246,74863,6,1,L|298:178,3,57.5,8|8|8|8,3:3|2:3|2:3|2:3,0:0:0:0:
373,327,75179,2,1,L|364:395,3,57.5,8|8|8|8,3:3|2:3|2:3|2:3,0:0:0:0:
232,319,75495,5,8,3:3:0:0:
177,336,75573,1,8,2:3:0:0:
128,319,75652,1,8,2:3:0:0:
102,280,75731,1,8,2:3:0:0:
107,240,75810,1,8,3:3:0:0:
132,216,75889,1,8,2:3:0:0:
160,216,75968,1,8,2:3:0:0:
177,230,76047,1,8,2:3:0:0:
181,246,76126,6,1,P|106:235|9:223,2,153.333333333333,8|8|8,3:3|3:3|3:3,0:0:0:0:
218,117,76758,6,1,B|263:106|300:134|295:139|329:167|381:151,1,160,4|4,3:2|2:1,0:0:0:0:
420,83,77231,1,0,0:0:0:0:
487,152,77389,2,1,P|473:191|461:242,1,80,12|0,2:1|0:0,0:0:0:0:
383,245,77705,2,1,P|396:282|406:321,1,80,4|0,3:1|0:0,0:0:0:0:
282,384,78021,6,1,P|217:369|211:264,1,160,4|4,3:2|2:1,0:0:0:0:
293,201,78495,1,0,0:0:0:0:
163,189,78652,2,1,B|95:200|95:200|89:206|89:206|4:221,1,160,12|4,2:1|3:1,0:0:0:0:
0,92,79284,6,1,P|39:27|114:34,1,160,4|4,3:2|2:1,0:0:0:0:
149,118,79758,1,0,0:0:0:0:
229,1,79916,2,1,P|267:11|305:24,1,80,12|0,2:1|0:0,0:0:0:0:
351,105,80231,2,1,P|313:118|274:128,1,80,4|0,3:1|0:0,0:0:0:0:
127,123,80547,5,4,3:3:0:0:
205,212,80705,2,1,P|184:276|162:375,1,160,8|0,2:3|3:3,0:0:0:0:
58,353,81179,2,1,P|44:289|24:227,1,120,12|0,2:3|0:0,0:0:0:0:
8,221,81495,1,8,2:3:0:0:
120,140,81652,1,0,3:3:0:0:
207,289,81810,6,1,P|254:309|328:241,1,160,4|4,3:3|2:1,0:0:0:0:
270,151,82284,1,0,0:0:0:0:
343,100,82442,2,1,P|390:111|432:125,1,80,12|0,2:1|0:0,0:0:0:0:
499,215,82758,2,1,P|452:226|410:240,1,80,4|8,3:1|2:3,0:0:0:0:
450,43,83073,6,1,P|492:71|498:134,1,80,4|8,3:1|2:3,0:0:0:0:
257,195,83389,1,12,2:3:0:0:
319,43,83547,1,8,2:3:0:0:
214,120,83705,2,1,P|157:129|77:153,1,120,12|0,2:1|0:0,0:0:0:0:
72,171,84021,1,4,3:1:0:0:
19,92,84179,1,0,3:3:0:0:
0,263,84337,5,4,3:1:0:0:
172,224,84652,1,8,2:3:0:0:
172,224,84731,1,8,2:3:0:0:
172,224,84810,1,8,3:3:0:0:
96,384,84968,2,1,P|82:346|65:310,1,80,8|0,2:3|3:3,0:0:0:0:
248,257,85284,2,1,P|230:293|217:330,1,80,8|0,2:3|3:3,0:0:0:0:
291,378,85600,5,8,3:3:0:0:
436,295,85758,2,1,L|483:305,2,40,8|8|8,2:3|2:3|3:3,0:0:0:0:
369,230,86073,2,1,L|322:240,2,40,8|8|8,2:3|2:3|3:3,0:0:0:0:
483,158,86389,1,8,2:3:0:0:
483,158,86468,1,8,2:3:0:0:
483,158,86547,1,8,3:3:0:0:
382,51,86705,1,8,2:3:0:0:
376,82,86784,1,8,2:3:0:0:
371,113,86863,6,1,L|236:92,1,100,4|0,3:2|0:0,0:0:0:0:
243,121,87100,1,0,3:3:0:0:
243,121,87179,1,10,2:3:0:0:
114,0,87337,1,0,3:3:0:0:
0,155,87495,2,1,P|2:224|96:229,1,150,2|0,3:3|3:3,0:0:0:0:
96,224,87810,2,1,L|111:119,1,100,10|0,2:3|3:3,0:0:0:0:
258,311,88126,6,1,P|227:345|175:348,1,100,2|0,3:3|0:0,0:0:0:0:
149,333,88363,1,0,3:3:0:0:
149,333,88442,1,10,2:3:0:0:
265,170,88600,1,0,3:3:0:0:
365,358,88758,2,1,P|450:364|467:291,1,150,2|0,3:3|3:3,0:0:0:0:
469,298,89073,1,10,2:3:0:0:
449,68,89231,5,0,3:3:0:0:
449,68,89310,1,0,3:3:0:0:
449,68,89389,2,1,L|437:183,1,100,2|0,3:3|0:0,0:0:0:0:
434,201,89626,1,0,3:3:0:0:
434,201,89705,2,1,P|370:214|339:189,1,100,10|0,2:3|3:3,0:0:0:0:
226,29,90021,2,1,P|286:32|326:79,1,100,6|0,3:3|0:0,0:0:0:0:
320,87,90258,1,0,3:3:0:0:
320,87,90337,1,10,2:3:0:0:
198,212,90495,5,0,3:3:0:0:
198,212,90573,1,0,3:0:0:0:
198,212,90652,2,1,L|188:97,1,100,2|0,3:3|3:3,0:0:0:0:
58,29,90889,5,0,3:3:0:0:
58,29,90968,2,1,P|75:85|123:101,1,100,12|0,2:2|3:0,0:0:0:0:
241,11,91205,5,0,3:0:0:0:
241,11,91284,2,1,L|135:21,1,100,0|0,3:3|3:3,0:0:0:0:
274,100,91521,5,0,3:3:0:0:
274,100,91600,2,1,L|389:122,1,100,12|0,2:2|3:0,0:0:0:0:
473,92,91837,5,0,3:0:0:0:
473,92,91916,2,1,P|484:145|455:191,1,100,4|0,3:2|0:0,0:0:0:0:
437,200,92152,1,0,3:3:0:0:
437,200,92231,2,1,P|426:253|455:299,1,100,10|0,2:3|3:3,0:0:0:0:
316,375,92547,2,1,L|216:363,1,100,2|0,3:3|0:0,0:0:0:0:
191,339,92784,1,0,3:3:0:0:
191,339,92863,1,10,2:3:0:0:
38,249,93021,1,0,3:3:0:0:
141,136,93179,6,1,P|129:209|113:310,1,150,4|0,3:2|3:3,0:0:0:0:
94,312,93495,1,10,2:3:0:0:
247,205,93652,1,0,3:3:0:0:
142,39,93810,2,1,P|61:43|35:126,1,150,4|0,3:2|3:3,0:0:0:0:
31,127,94126,1,10,2:3:0:0:
229,85,94284,5,0,3:3:0:0:
229,85,94363,1,0,3:3:0:0:
229,85,94442,2,1,P|281:95|351:105,1,100,4|0,3:2|0:0,0:0:0:0:
345,117,94679,1,0,3:3:0:0:
345,117,94758,1,10,2:3:0:0:
512,196,94916,1,0,3:3:0:0:
448,36,95073,6,1,P|441:84|434:146,1,100,4|0,3:2|0:0,0:0:0:0:
383,195,95310,1,0,3:3:0:0:
383,195,95389,2,1,P|390:243|397:305,1,100,12|0,2:2|3:3,0:0:0:0:
297,384,95705,6,1,P|256:350|193:356,1,100,4|0,3:3|3:3,0:0:0:0:
185,371,95942,1,0,3:3:0:0:
185,371,96021,1,8,2:3:0:0:
77,300,96179,1,8,2:3:0:0:
77,300,96258,1,8,2:3:0:0:
77,300,96337,2,1,L|85:242,3,50,8|8|0|0,2:3|2:3|3:3|3:3,0:0:0:0:
173,177,96652,2,1,L|179:226,3,50,8|8|0|0,2:3|2:3|3:3|3:3,0:0:0:0:
35,121,96968,5,4,3:2:0:0:
17,85,97047,1,0,3:3:0:0:
24,45,97126,1,8,3:3:0:0:
56,21,97205,1,0,3:3:0:0:
95,16,97284,2,1,P|125:30|156:39,3,50,2|0|8|0,3:3|3:3|3:3|3:3,0:0:0:0:
213,100,97600,5,2,3:3:0:0:
246,122,97679,1,0,3:3:0:0:
286,123,97758,1,8,3:3:0:0:
321,104,97837,1,0,3:3:0:0:
343,70,97916,1,2,3:3:0:0:
378,52,97995,1,0,3:3:0:0:
417,54,98073,1,8,3:3:0:0:
451,73,98152,1,0,3:3:0:0:
470,107,98231,5,2,3:3:0:0:
447,151,98310,1,0,3:3:0:0:
398,164,98389,1,8,3:3:0:0:
349,149,98468,1,0,3:3:0:0:
316,111,98547,1,2,3:3:0:0:
314,60,98626,1,0,3:3:0:0:
341,18,98705,1,8,3:3:0:0:
388,2,98784,1,0,3:3:0:0:
436,15,98863,2,1,P|428:44|419:85,3,50,2|0|8|0,3:3|3:3|3:3|3:3,0:0:0:0:
309,119,99179,2,1,P|317:148|326:189,3,50,2|0|8|0,3:3|3:3|3:3|3:3,0:0:0:0:
436,238,99495,5,2,3:3:0:0:
433,262,99573,1,0,3:3:0:0:
429,286,99652,1,8,3:3:0:0:
425,310,99731,1,0,3:3:0:0:
420,334,99810,2,1,P|389:338|362:346,3,50,2|0|8|0,3:3|3:3|3:3|3:3,0:0:0:0:
293,377,100126,5,2,3:3:0:0:
253,369,100205,1,0,3:3:0:0:
213,360,100284,1,8,3:3:0:0:
174,350,100363,1,0,3:3:0:0:
135,338,100442,2,1,P|104:345|59:357,3,50,2|0|8|0,3:3|3:3|3:3|3:3,0:0:0:0:
7,269,100758,5,4,3:2:0:0:
6,218,100837,1,0,3:3:0:0:
36,178,100916,1,8,3:3:0:0:
85,168,100995,1,0,3:3:0:0:
129,188,101073,1,2,3:3:0:0:
167,220,101152,1,0,3:3:0:0:
217,220,101231,1,8,3:3:0:0:
257,190,101310,1,0,3:3:0:0:
270,141,101389,5,4,3:2:0:0:
266,116,101468,1,0,3:3:0:0:
262,91,101547,1,8,3:3:0:0:
258,66,101626,1,0,3:3:0:0:
254,41,101705,2,1,P|221:54|191:62,3,50,2|0|8|0,3:3|3:3|3:3|3:3,0:0:0:0:
371,2,102021,5,4,3:2:0:0:
407,18,102100,1,0,3:3:0:0:
428,51,102179,1,8,3:3:0:0:
423,90,102258,1,0,3:3:0:0:
401,123,102337,1,2,3:3:0:0:
366,143,102416,1,0,3:3:0:0:
343,176,102495,1,8,3:3:0:0:
343,215,102573,1,0,3:3:0:0:
363,249,102652,1,2,3:3:0:0:
399,265,102731,1,0,3:3:0:0:
439,263,102810,1,8,3:3:0:0:
469,237,102889,1,0,3:3:0:0:
473,197,102968,2,1,P|438:192|404:181,3,50,2|0|8|0,3:3|3:3|3:3|3:3,0:0:0:0:
263,138,103284,5,2,3:3:0:0:
217,138,103363,1,0,3:3:0:0:
177,159,103442,1,8,3:3:0:0:
164,202,103521,1,0,3:3:0:0:
138,239,103600,1,2,3:3:0:0:
95,252,103679,1,0,3:3:0:0:
51,239,103758,1,8,3:3:0:0:
24,202,103837,1,0,3:3:0:0:
32,157,103916,5,2,3:3:0:0:
66,163,103995,1,0,3:3:0:0:
90,187,104073,1,8,3:3:0:0:
99,220,104152,1,0,3:3:0:0:
85,252,104231,2,1,P|54:260|23:273,3,50,2|0|8|0,3:3|3:3|3:3|3:3,0:0:0:0:
99,377,104547,5,6,3:2:0:0:
143,379,104626,1,0,3:3:0:0:
180,353,104705,1,8,3:3:0:0:
192,309,104784,1,0,3:3:0:0:
181,265,104863,1,2,3:3:0:0:
198,223,104942,1,0,3:3:0:0:
237,202,105021,1,8,3:3:0:0:
281,207,105100,1,0,3:3:0:0:
314,237,105179,1,2,3:3:0:0:
317,281,105258,1,0,3:3:0:0:
298,321,105337,1,8,3:3:0:0:
255,334,105416,1,0,3:3:0:0:
210,327,105495,2,1,P|219:292|231:260,3,50,2|0|8|0,3:3|3:3|3:3|3:3,0:0:0:0:
344,153,105810,5,8,2:3:0:0:
344,153,105889,1,8,2:3:0:0:
344,153,105968,2,1,P|378:159|414:171,1,50,0|0,3:3|3:3,0:0:0:0:
507,250,106126,5,8,2:3:0:0:
507,250,106205,1,8,2:3:0:0:
507,250,106284,2,1,P|473:256|437:268,1,50,0|0,3:3|3:3,0:0:0:0:
346,324,106442,5,8,3:3:0:0:
471,140,106600,1,8,3:3:0:0:
310,232,106758,1,8,3:3:0:0:
438,339,106916,1,8,3:3:0:0:
246,375,107073,6,1,P|172:359|92:348,1,150,4|0,3:2|0:0,0:0:0:0:
63,362,107389,1,2,2:3:0:0:
225,244,107547,1,10,2:3:0:0:
46,138,107705,1,2,3:3:0:0:
134,280,107863,2,1,L|148:181,1,100,10|2,2:3|2:3,0:0:0:0:
168,164,108100,1,0,3:3:0:0:
168,164,108179,1,10,2:3:0:0:
282,9,108337,5,2,3:3:0:0:
150,71,108495,2,1,P|204:79|276:96,1,100,10|2,2:3|2:3,0:0:0:0:
268,105,108731,1,0,3:3:0:0:
268,105,108810,1,10,2:3:0:0:
421,179,108968,5,2,3:3:0:0:
456,197,109047,1,0,3:3:0:0:
478,229,109126,1,8,2:3:0:0:
483,269,109205,1,8,2:3:0:0:
468,306,109284,1,0,3:3:0:0:
439,331,109363,1,0,3:3:0:0:
400,340,109442,1,8,2:3:0:0:
362,330,109521,1,8,2:3:0:0:
333,301,109600,6,1,P|286:285|237:306,1,100,4|10,3:2|2:3,0:0:0:0:
189,357,109837,2,1,P|142:373|93:352,1,100,0|0,0:0|3:3,0:0:0:0:
34,309,110073,1,10,2:3:0:0:
207,199,110231,1,2,3:3:0:0:
65,109,110389,2,1,L|81:213,1,100,10|2,2:3|2:3,0:0:0:0:
100,231,110626,1,0,3:3:0:0:
100,232,110705,1,10,2:3:0:0:
187,62,110863,5,2,3:3:0:0:
220,41,110942,1,0,3:3:0:0:
259,39,111021,1,10,3:3:0:0:
294,58,111100,1,0,3:3:0:0:
317,91,111179,1,2,3:3:0:0:
345,119,111258,1,0,3:3:0:0:
384,128,111337,1,10,3:3:0:0:
423,121,111416,1,0,3:3:0:0:
457,102,111495,5,2,3:3:0:0:
453,73,111573,1,0,3:3:0:0:
434,50,111652,1,10,3:3:0:0:
406,39,111731,1,0,3:3:0:0:
375,39,111810,2,1,P|367:70|359:102,3,50,2|0|10|0,3:3|3:3|3:3|3:3,0:0:0:0:
269,176,112126,5,12,3:3:0:0:
251,206,112205,1,0,3:3:0:0:
245,240,112284,1,2,3:3:0:0:
251,274,112363,1,0,3:3:0:0:
273,300,112442,2,1,P|315:307|354:313,3,50,10|0|2|0,3:3|3:3|3:3|3:3,0:0:0:0:
180,367,112758,5,10,3:3:0:0:
151,362,112837,1,0,3:3:0:0:
122,357,112916,1,2,3:3:0:0:
93,353,112995,1,0,3:3:0:0:
64,349,113073,2,1,L|52:292,3,50,10|0|2|0,3:3|3:3|3:3|3:3,0:0:0:0:
2,208,113389,5,12,3:1:0:0:
22,168,113468,1,0,3:3:0:0:
65,157,113547,1,0,3:3:0:0:
109,165,113626,1,0,3:3:0:0:
145,191,113705,1,0,3:3:0:0:
179,198,113784,1,0,3:3:0:0:
212,186,113863,1,0,3:3:0:0:
234,158,113942,1,0,3:3:0:0:
241,123,114021,5,12,3:3:0:0:
222,106,114100,1,0,3:3:0:0:
197,99,114179,1,0,3:3:0:0:
172,102,114258,1,0,3:3:0:0:
149,113,114337,2,1,L|130:203,3,50,0|0|0|0,3:3|3:3|3:3|3:3,0:0:0:0:
237,315,114652,5,4,3:2:0:0:
277,352,114731,1,8,2:3:0:0:
331,357,114810,1,8,2:3:0:0:
380,333,114889,1,8,2:3:0:0:
408,285,114968,1,8,3:3:0:0:
413,230,115047,1,8,2:3:0:0:
387,181,115126,1,8,2:3:0:0:
337,157,115205,1,8,2:3:0:0:
282,160,115284,5,8,3:3:0:0:
279,214,115363,1,8,2:3:0:0:
310,258,115442,1,8,2:3:0:0:
360,280,115521,1,8,2:3:0:0:
415,271,115600,1,8,3:3:0:0:
460,239,115679,1,8,2:3:0:0:
481,188,115758,1,8,2:3:0:0:
467,135,115837,1,8,2:3:0:0:
431,94,115916,6,1,P|401:84|363:85,3,50,8|8|8|8,3:3|2:3|2:3|2:3,0:0:0:0:
333,14,116231,2,1,P|309:34|291:68,3,50,8|8|8|8,3:3|2:3|2:3|2:3,0:0:0:0:
219,85,116547,1,8,3:3:0:0:
161,340,117179,5,4,3:2:0:0:
112,370,117258,1,0,3:3:0:0:
56,355,117337,1,8,3:3:0:0:
33,301,117416,1,0,3:3:0:0:
53,247,117495,1,2,3:3:0:0:
103,220,117573,1,0,3:3:0:0:
126,167,117652,1,10,3:3:0:0:
103,113,117731,1,0,3:3:0:0:
47,98,117810,5,2,3:3:0:0:
15,131,117889,1,0,3:3:0:0:
15,177,117968,1,10,3:3:0:0:
43,212,118047,1,0,3:3:0:0:
87,223,118126,1,2,3:3:0:0:
130,209,118205,1,0,3:3:0:0:
152,168,118284,1,10,3:3:0:0:
148,122,118363,1,0,3:3:0:0:
112,92,118442,5,2,3:3:0:0:
77,138,118521,1,0,3:3:0:0:
89,194,118600,1,10,3:3:0:0:
141,217,118679,1,0,3:3:0:0:
197,206,118758,1,2,3:3:0:0:
227,157,118837,1,0,3:3:0:0:
280,135,118916,1,10,3:3:0:0:
334,152,118995,1,0,3:3:0:0:
357,203,119073,2,1,P|322:212|286:224,3,57.5,2|0|10|0,3:3|3:3|3:3|3:3,0:0:0:0:
236,298,119389,1,2,3:3:0:0:
236,298,119468,1,0,3:3:0:0:
236,298,119547,2,1,P|271:307|307:319,1,57.5,10|0,3:3|3:3,0:0:0:0:
400,369,119705,5,2,3:3:0:0:
449,354,119784,1,0,3:3:0:0:
476,309,119863,1,10,3:3:0:0:
469,257,119942,1,0,3:3:0:0:
430,222,120021,1,2,3:3:0:0:
401,178,120100,1,0,3:3:0:0:
410,127,120179,1,10,3:3:0:0:
451,95,120258,1,0,3:3:0:0:
502,98,120337,2,1,P|491:137|483:171,3,57.5,2|0|10|0,3:3|3:3|3:3|3:3,0:0:0:0:
386,174,120652,2,1,P|378:146|370:118,3,57.5,2|0|10|0,3:3|3:3|3:3|3:3,0:0:0:0:
304,38,120968,5,2,3:3:0:0:
267,9,121047,1,0,3:3:0:0:
221,6,121126,1,10,3:3:0:0:
180,27,121205,1,0,3:3:0:0:
159,68,121284,1,2,3:3:0:0:
158,114,121363,1,0,3:3:0:0:
129,150,121442,1,10,3:3:0:0:
83,155,121521,1,0,3:3:0:0:
41,135,121600,1,2,3:3:0:0:
27,90,121679,1,0,3:3:0:0:
47,48,121758,1,10,3:3:0:0:
89,31,121837,1,0,3:3:0:0:
134,36,121916,2,1,P|120:65|106:108,3,57.5,8|8|8|8,2:3|2:3|2:3|2:3,0:0:0:0:
18,215,122231,5,12,3:3:0:0:
42,273,122310,1,0,3:3:0:0:
102,291,122389,1,0,3:3:0:0:
160,265,122468,1,0,3:3:0:0:
191,210,122547,1,0,3:3:0:0:
244,175,122626,1,0,3:3:0:0:
306,185,122705,1,0,3:3:0:0:
342,236,122784,1,0,3:3:0:0:
333,298,122863,2,1,P|301:305|257:320,3,57.5,12|0|0|0,3:3|3:3|3:3|3:3,0:0:0:0:
435,224,123179,2,1,P|467:231|511:246,3,57.5,0|0|0|0,3:3|3:3|3:3|3:3,0:0:0:0:
311,51,123495,5,12,3:3:0:0:
360,7,123573,1,0,3:3:0:0:
426,5,123652,1,0,3:3:0:0:
482,39,123731,1,0,3:3:0:0:
492,104,123810,1,0,3:3:0:0:
465,164,123889,1,0,3:3:0:0:
404,191,123968,1,0,3:3:0:0:
343,163,124047,1,0,3:3:0:0:
318,101,124126,5,12,3:3:0:0:
361,85,124205,1,0,3:3:0:0:
405,94,124284,1,0,3:3:0:0:
430,132,124363,1,0,3:3:0:0:
421,177,124442,1,0,3:3:0:0:
397,216,124521,1,0,3:3:0:0:
402,261,124600,1,0,3:3:0:0:
440,286,124679,1,0,3:3:0:0:
486,284,124758,5,2,3:3:0:0:
505,217,124837,1,0,3:3:0:0:
480,152,124916,1,10,3:3:0:0:
416,125,124995,1,0,3:3:0:0:
349,138,125073,1,2,3:3:0:0:
311,196,125152,1,0,3:3:0:0:
315,264,125231,1,10,3:3:0:0:
356,319,125310,1,0,3:3:0:0:
424,328,125389,2,1,P|415:283|406:249,3,57.5,2|0|10|0,3:3|3:3|3:3|3:3,0:0:0:0:
248,317,125705,2,1,P|241:345|236:373,3,57.5,2|0|10|0,3:3|3:3|3:3|3:3,0:0:0:0:
110,309,126021,5,8,3:3:0:0:
56,274,126100,1,8,2:3:0:0:
52,210,126179,1,8,2:3:0:0:
84,155,126258,1,8,2:3:0:0:
145,140,126337,1,8,3:3:0:0:
198,160,126416,1,8,2:3:0:0:
254,149,126495,1,8,2:3:0:0:
288,103,126573,1,8,2:3:0:0:
283,45,126652,1,8,3:3:0:0:
238,18,126731,1,8,2:3:0:0:
193,28,126810,1,8,2:3:0:0:
179,65,126889,1,8,2:3:0:0:
191,96,126968,2,1,P|234:80|268:75,3,57.5,8|8|8|8,3:3|2:3|2:3|2:3,0:0:0:0:
366,159,127284,5,4,3:2:0:0:
413,176,127363,1,0,3:3:0:0:
443,218,127442,1,10,3:2:0:0:
444,269,127521,1,0,3:3:0:0:
416,312,127600,1,2,3:1:0:0:
368,332,127679,1,0,3:3:0:0:
318,323,127758,1,10,3:2:0:0:
283,286,127837,1,0,3:3:0:0:
272,235,127916,1,2,3:1:0:0:
241,193,127995,1,0,3:3:0:0:
193,176,128073,1,10,3:2:0:0:
144,194,128152,1,0,3:3:0:0:
119,239,128231,1,2,3:1:0:0:
125,290,128310,1,0,3:3:0:0:
166,321,128389,1,10,3:2:0:0:
217,320,128468,1,0,3:3:0:0:
254,283,128547,5,2,3:1:0:0:
225,232,128626,1,0,3:3:0:0:
168,221,128705,1,10,3:2:0:0:
113,240,128784,1,0,3:3:0:0:
55,243,128863,1,2,3:1:0:0:
8,208,128942,1,0,3:3:0:0:
0,150,129021,1,10,3:2:0:0:
38,107,129100,1,0,3:3:0:0:
95,105,129179,2,1,P|123:117|145:144,3,57.5,2|0|10|0,3:1|3:3|3:2|3:3,0:0:0:0:
228,129,129495,2,1,P|231:159|219:191,3,57.5,2|0|10|0,3:1|3:3|3:2|3:3,0:0:0:0:
296,301,129810,5,12,3:3:0:0:
333,358,129889,1,0,3:3:0:0:
397,382,129968,1,0,3:3:0:0:
465,370,130047,1,0,3:3:0:0:
508,316,130126,1,0,3:3:0:0:
511,247,130205,1,0,3:3:0:0:
480,185,130284,1,0,3:3:0:0:
415,160,130363,1,0,3:3:0:0:
347,174,130442,5,12,3:3:0:0:
306,174,130521,1,0,3:3:0:0:
271,152,130600,1,0,3:3:0:0:
250,117,130679,1,0,3:3:0:0:
248,76,130758,1,0,3:3:0:0:
263,38,130837,1,0,3:3:0:0:
297,17,130916,1,0,3:3:0:0:
337,18,130995,1,0,3:3:0:0:
371,37,131073,5,12,3:3:0:0:
355,101,131152,1,0,3:3:0:0:
293,124,131231,1,0,3:3:0:0:
230,102,131310,1,0,3:3:0:0:
195,45,131389,1,0,3:3:0:0:
136,13,131468,1,0,3:3:0:0:
69,15,131547,1,0,3:3:0:0:
21,61,131626,1,0,3:3:0:0:
7,125,131705,2,1,L|25:186,3,57.5,12|0|0|0,3:1|3:3|3:3|3:3,0:0:0:0:
101,267,132021,2,1,L|119:206,3,57.5,0|0|0|0,3:3|3:3|3:3|3:3,0:0:0:0:
164,355,132337,5,4,3:2:0:0:
217,375,132416,1,0,3:3:0:0:
271,355,132495,1,8,3:3:0:0:
304,308,132573,1,0,3:3:0:0:
302,250,132652,1,2,3:1:0:0:
320,195,132731,1,0,3:3:0:0:
370,167,132810,1,10,3:2:0:0:
426,178,132889,1,0,3:3:0:0:
454,227,132968,5,2,3:1:0:0:
423,261,133047,1,0,3:3:0:0:
378,270,133126,1,10,3:2:0:0:
334,255,133205,1,0,3:3:0:0:
309,216,133284,2,1,L|326:133,3,57.5,2|0|10|0,3:1|3:3|3:2|3:3,0:0:0:0:
258,47,133600,5,4,3:2:0:0:
213,10,133679,1,0,3:3:0:0:
155,6,133758,1,8,3:3:0:0:
104,33,133837,1,0,3:3:0:0:
79,85,133916,1,2,3:1:0:0:
90,141,133995,1,0,3:3:0:0:
131,180,134073,1,10,3:2:0:0:
187,191,134152,1,0,3:3:0:0:
238,166,134231,5,2,3:1:0:0:
215,118,134310,1,0,3:3:0:0:
166,98,134389,1,10,3:2:0:0:
115,107,134468,1,0,3:3:0:0:
79,144,134547,1,2,3:1:0:0:
73,195,134626,1,0,3:3:0:0:
97,240,134705,1,10,3:2:0:0:
141,266,134784,1,0,3:3:0:0:
192,259,134863,6,1,P|219:267|260:281,3,57.5,8|8|8|8,3:3|2:3|2:3|2:3,0:0:0:0:
301,352,135179,2,1,P|274:360|233:374,3,57.5,8|8|8|8,3:3|2:3|2:3|2:3,0:0:0:0:
318,183,135495,6,1,P|345:191|386:205,3,57.5,8|8|8|8,3:3|2:3|2:3|2:3,0:0:0:0:
427,276,135810,2,1,P|400:284|359:298,3,57.5,8|8|8|8,3:3|2:3|2:3|2:3,0:0:0:0:
512,130,136126,6,1,B|485:156|424:150|413:103|420:99|425:97|408:45|352:32|307:68,1,230,12|0,3:3|0:0,0:0:0:0:
250,32,136521,1,8,2:3:0:0:
250,32,136600,2,1,L|241:98,1,57.5,8|8,2:3|2:3,0:0:0:0:
97,166,136758,6,1,P|54:124|73:58,1,115,8|0,3:3|0:0,0:0:0:0:
185,165,137073,2,1,P|198:232|209:284,1,115,8|0,3:3|0:0,0:0:0:0:
137,355,137389,6,1,B|55:359|74:222|186:242|209:319|198:322|234:362|297:333,1,300,4|0,3:2|3:3,0:0:0:0:
309,313,137942,1,0,3:3:0:0:
309,313,138021,1,12,3:2:0:0:
490,362,138337,1,12,3:3:0:0:
406,222,138495,1,8,2:3:0:0:
396,318,138652,5,4,3:1:0:0:
507,157,138810,2,1,B|492:136|473:127|473:127|311:162,1,200,8|0,2:3|3:3,0:0:0:0:
310,184,139205,1,0,3:3:0:0:
310,184,139284,2,1,P|262:212|189:175,1,100,12|0,3:3|0:0,0:0:0:0:
155,75,139600,1,8,2:3:0:0:
124,169,139758,1,8,2:3:0:0:
11,85,139916,6,1,B|-5:134|26:177|37:168|72:205|47:266,1,180,4|0,3:2|0:0,0:0:0:0:
0,352,140547,2,1,P|36:375|144:306,1,180,12|0,2:1|0:0,0:0:0:0:
194,234,141179,2,1,B|278:250|278:250|287:258|287:258|376:275,1,180,4|0,3:2|0:0,0:0:0:0:
489,244,141810,2,1,P|480:215|468:187,1,59.9999999999999,12|0,2:1|0:0,0:0:0:0:
345,132,142126,2,1,P|333:159|324:188,1,59.9999999999999,4|0,3:1|0:0,0:0:0:0:
489,113,142442,6,1,P|464:49|349:53,1,180,4|0,3:2|0:0,0:0:0:0:
278,88,142995,1,0,0:0:0:0:
278,88,143073,2,1,P|240:72|198:63,1,59.9999999999999,12|0,2:1|0:0,0:0:0:0:
107,176,143389,2,1,P|145:160|187:151,1,59.9999999999999,4|0,3:1|0:0,0:0:0:0:
1,95,143705,5,4,3:3:0:0:
117,0,143863,2,1,P|130:40|141:82,1,59.9999999999999,8|0,2:3|0:0,0:0:0:0:
92,167,144179,1,0,3:3:0:0:
236,194,144337,5,8,2:3:0:0:
117,284,144495,1,8,2:3:0:0:
297,256,144652,2,1,P|320:219|321:186,1,59.9999999999999,8|0,2:3|3:3,0:0:0:0:
210,343,144968,6,1,P|265:377|352:310,1,180,4|0,3:2|0:0,0:0:0:0:
462,232,145600,2,1,P|484:255|489:291,1,59.9999999999999,12|0,2:1|0:0,0:0:0:0:
374,211,145916,2,1,P|382:182|404:163,1,59.9999999999999,4|0,3:1|0:0,0:0:0:0:
268,215,146231,2,1,P|290:121|321:30,1,180,4|0,3:2|0:0,0:0:0:0:
440,3,146863,1,12,2:1:0:0:
383,113,147179,1,4,2:1:0:0:
175,146,147495,6,1,B|99:133|99:133|84:117|84:117|-2:101,1,180,4|0,3:2|0:0,0:0:0:0:
129,0,148126,2,1,P|139:30|147:72,1,59.9999999999999,12|0,2:1|0:0,0:0:0:0:
67,162,148442,1,4,3:1:0:0:
67,162,148521,1,0,0:0:0:0:
67,162,148600,1,0,3:3:0:0:
141,341,148758,5,8,0:0:0:0:
229,236,148916,2,1,P|190:220|153:216,1,59.9999999999999,8|0,2:3|3:3,0:0:0:0:
251,325,149231,1,0,3:3:0:0:
337,216,149389,2,1,P|349:244|359:276,1,59.9999999999999,8|8,3:3|2:3,0:0:0:0:
445,341,149705,2,1,P|454:312|465:284,1,59.9999999999999,8|0,2:3|3:3,0:0:0:0:
498,130,150021,5,4,3:2:0:0:
425,207,150179,1,2,2:1:0:0:
378,81,150337,1,2,3:2:0:0:
398,84,150495,1,0,3:3:0:0:
330,9,150652,2,1,P|298:38|289:90,1,89.9999999999998,10|0,2:3|0:0,0:0:0:0:
301,104,150968,1,2,3:2:0:0:
212,31,151126,1,0,3:3:0:0:
141,79,151284,6,1,P|109:68|65:57,1,59.9999999999999,2|2,3:1|2:1,0:0:0:0:
0,187,151600,1,2,3:2:0:0:
103,164,151758,1,2,3:2:0:0:
103,164,151837,1,2,2:1:0:0:
103,164,151916,2,1,P|121:204|131:239,1,59.9999999999999,10|0,2:2|0:0,0:0:0:0:
118,252,152152,1,2,2:1:0:0:
118,252,152231,1,2,3:1:0:0:
205,170,152389,1,2,3:2:0:0:
236,311,152547,6,1,P|247:272|266:238,1,59.9999999999999,2|2,3:2|2:2,0:0:0:0:
361,359,152863,1,2,3:2:0:0:
338,273,153021,1,0,3:3:0:0:
389,202,153179,2,1,P|434:213|472:226,1,59.9999999999999,10|2,2:3|2:2,0:0:0:0:
494,294,153495,2,1,P|449:305|411:318,1,59.9999999999999,4|2,3:1|2:1,0:0:0:0:
484,93,153810,6,1,P|498:131|506:160,1,59.9999999999999,4|8,3:2|3:3,0:0:0:0:
332,118,154126,1,8,2:3:0:0:
409,6,154284,1,0,3:3:0:0:
416,141,154442,1,8,2:3:0:0:
318,32,154600,1,8,2:3:0:0:
239,138,154758,1,8,2:3:0:0:
244,126,154916,1,8,3:3:0:0:
232,19,155073,6,1,P|174:29|113:50,1,120,4|4,3:2|3:1,0:0:0:0:
118,160,155547,1,0,3:3:0:0:
22,113,155705,2,1,P|9:154|4:180,1,59.9999999999999,12|0,2:1|0:0,0:0:0:0:
77,243,156021,1,4,3:1:0:0:
80,266,156100,1,0,3:3:0:0:
84,289,156179,1,0,3:3:0:0:
88,312,156258,1,0,3:3:0:0:
93,335,156337,5,4,3:2:0:0:
214,217,156495,1,8,2:3:0:0:
259,350,156652,2,1,P|215:332|169:321,1,80,12|0,2:1|3:3,0:0:0:0:
326,213,156968,1,12,2:1:0:0:
442,367,157126,1,8,2:3:0:0:
441,211,157284,1,12,3:1:0:0:
376,282,157442,1,8,3:3:0:0:
331,134,157600,5,6,3:2:0:0:
99,42,160126,6,1,P|95:82|90:114,1,59.9999999999999,4|2,3:2|2:2,0:0:0:0:
17,158,160442,1,2,3:3:0:0:
83,252,160600,1,2,2:2:0:0:
83,252,160679,1,2,2:2:0:0:
83,252,160758,2,1,B|145:226|144:269|203:250,1,120,2|2,3:2|3:3,0:0:0:0:
430,326,161389,6,1,L|392:313,3,29.9999999999999,2|2|2|2,3:2|2:2|2:2|2:2,0:0:0:0:
335,361,161705,2,1,L|306:370,3,29.9999999999999,4|0|2|2,3:2|0:0|2:2|2:2,0:0:0:0:
321,233,162021,6,1,P|327:189|332:161,1,59.9999999999999,2|2,3:2|2:2,0:0:0:0:
169,0,162337,6,1,P|175:44|181:80,1,80,4|2,3:2|2:3,0:0:0:0:
257,122,162573,1,2,2:3:0:0:
257,122,162652,6,1,B|235:92|193:100|175:128|181:134|184:136|167:166|134:172|99:141,1,180,4|0,3:2|0:0,0:0:0:0:
21,221,163126,1,0,3:3:0:0:
21,221,163205,1,0,3:3:0:0:
21,221,163284,2,1,L|15:163,3,45,12|0|0|0,3:3|0:0|0:0|0:0,0:0:0:0:
65,293,163600,2,1,L|59:351,3,45,0|8|8|8,0:0|2:3|2:3|2:3,0:0:0:0:
147,253,163916,5,8,3:3:0:0:
164,250,163995,1,8,2:3:0:0:
177,247,164073,1,8,2:3:0:0:
190,243,164152,1,8,2:3:0:0:
216,248,164231,5,8,2:3:0:0:
233,245,164310,1,8,2:3:0:0:
246,242,164389,1,8,2:3:0:0:
259,238,164468,1,8,2:3:0:0:
274,227,164547,6,1,P|266:192|260:167,3,45,8|8|8|8,3:3|2:3|2:3|2:3,0:0:0:0:
348,280,164863,2,1,P|340:332|333:383,1,90.0000000000001,8|0,3:3|0:0,0:0:0:0:
431,232,165179,5,12,3:3:0:0:
436,216,165258,1,0,0:0:0:0:
440,202,165337,1,0,0:0:0:0:
445,189,165416,1,0,0:0:0:0:
451,176,165495,2,1,L|494:192,3,45,0|0|0|0,0:0|0:0|3:3|3:3,0:0:0:0:
439,83,165810,2,1,B|408:88|381:113|381:113|319:88|250:73,1,180,12|0,3:2|0:0,0:0:0:0:
146,27,166284,5,8,2:3:0:0:
146,27,166363,1,8,2:3:0:0:
146,27,166442,2,1,L|154:94,3,45,12|8|8|8,3:3|2:3|2:3|2:3,0:0:0:0:
89,126,166758,1,8,3:3:0:0:
245,6,166916,1,8,3:3:0:0:
210,168,167073,2,1,L|185:265,1,90.0000000000001,4|0,3:1|0:0,0:0:0:0:
43,266,167389,6,1,L|-13:252,3,45,4|0|8|8,3:2|0:0|2:3|2:3,0:0:0:0:
98,333,167705,2,1,L|154:319,3,45,8|8|8|8,3:3|2:3|2:3|2:3,0:0:0:0:
29,380,168021,1,0,3:3:0:0:
133,234,168179,5,8,2:3:0:0:
133,234,168258,1,8,2:3:0:0:
133,234,168337,2,1,L|123:177,3,45,8|8|8|8,3:3|2:3|2:3|2:3,0:0:0:0:
232,304,168652,2,1,L|222:361,3,45,8|8|8|8,3:3|2:3|2:3|2:3,0:0:0:0:
291,235,168968,6,1,P|338:217|388:232,1,90.0000000000001,8|8,3:3|2:3,0:0:0:0:
399,250,169205,1,8,2:3:0:0:
399,250,169284,2,1,L|392:307,3,45,8|8|8|8,3:3|2:3|2:3|2:3,0:0:0:0:
476,205,169600,5,8,3:3:0:0:
480,189,169679,1,8,2:3:0:0:
483,174,169758,1,8,2:3:0:0:
487,158,169837,1,8,2:3:0:0:
474,137,169916,5,8,3:3:0:0:
478,121,169995,1,8,2:3:0:0:
481,106,170073,1,8,2:3:0:0:
485,90,170152,1,8,2:3:0:0:
477,68,170231,5,4,3:2:0:0:
256,192,170310,12,1,172600,0:0:0:0:
262,47,172758,5,4,3:2:0:0:
310,16,172837,1,0,3:3:0:0:
367,19,172916,1,8,3:3:0:0:
410,56,172995,1,0,3:3:0:0:
419,112,173073,1,2,3:3:0:0:
396,165,173152,1,0,3:3:0:0:
356,207,173231,1,10,3:3:0:0:
359,264,173310,1,0,3:3:0:0:
404,299,173389,5,2,3:3:0:0:
435,265,173468,1,0,3:3:0:0:
437,219,173547,1,10,3:3:0:0:
403,186,173626,1,0,3:3:0:0:
357,183,173705,1,2,3:3:0:0:
315,203,173784,1,0,3:3:0:0:
269,196,173863,1,10,3:3:0:0:
234,165,173942,1,0,3:3:0:0:
237,119,174021,5,2,3:3:0:0:
294,116,174100,1,0,3:3:0:0:
339,150,174179,1,10,3:3:0:0:
339,207,174258,1,0,3:3:0:0:
298,248,174337,1,2,3:3:0:0:
240,248,174416,1,0,3:3:0:0:
183,259,174495,1,10,3:3:0:0:
156,309,174573,1,0,3:3:0:0:
161,366,174652,2,1,P|200:352|240:345,3,57.5,2|0|10|0,3:3|3:3|3:3|3:3,0:0:0:0:
87,282,174968,1,2,3:3:0:0:
87,282,175047,1,0,3:3:0:0:
87,282,175126,2,1,P|48:268|8:261,1,57.5,10|0,3:3|3:3,0:0:0:0:
195,240,175284,5,2,3:3:0:0:
219,194,175363,1,0,3:3:0:0:
200,145,175442,1,10,3:3:0:0:
148,136,175521,1,0,3:3:0:0:
101,159,175600,1,2,3:3:0:0:
49,154,175679,1,0,3:3:0:0:
19,111,175758,1,10,3:3:0:0:
25,59,175837,1,0,3:3:0:0:
67,30,175916,2,1,P|83:65|92:95,3,57.5,2|0|10|0,3:3|3:3|3:3|3:3,0:0:0:0:
159,143,176231,2,1,P|168:115|180:89,3,57.5,2|0|10|0,3:3|3:3|3:3|3:3,0:0:0:0:
252,12,176547,5,2,3:3:0:0:
297,6,176626,1,0,3:3:0:0:
337,28,176705,1,10,3:3:0:0:
347,72,176784,1,0,3:3:0:0:
323,111,176863,1,2,3:3:0:0:
284,135,176942,1,0,3:3:0:0:
277,180,177021,1,10,3:3:0:0:
297,221,177100,1,0,3:3:0:0:
341,232,177179,5,8,3:3:0:0:
376,186,177258,1,8,2:3:0:0:
361,130,177337,1,8,2:3:0:0:
309,104,177416,1,8,2:3:0:0:
253,117,177495,2,1,P|265:151|275:188,3,57.5,8|8|8|8,3:3|2:3|2:3|2:3,0:0:0:0:
224,299,177810,5,12,3:3:0:0:
169,331,177889,1,0,3:3:0:0:
107,315,177968,1,0,3:3:0:0:
81,257,178047,1,0,3:3:0:0:
104,198,178126,1,0,3:3:0:0:
143,148,178205,1,0,3:3:0:0:
135,85,178284,1,0,3:3:0:0:
77,57,178363,1,0,3:3:0:0:
18,80,178442,2,1,P|6:119|0:159,3,57.5,12|0|0|0,3:3|3:3|3:3|3:3,0:0:0:0:
117,202,178758,2,1,P|126:229|132:257,3,57.5,0|0|0|0,3:3|3:3|3:3|3:3,0:0:0:0:
50,336,179073,5,12,3:3:0:0:
97,381,179152,1,0,3:3:0:0:
163,378,179231,1,0,3:3:0:0:
209,331,179310,1,0,3:3:0:0:
221,265,179389,1,0,3:3:0:0:
269,220,179468,1,0,3:3:0:0:
335,218,179547,1,0,3:3:0:0:
382,263,179626,1,0,3:3:0:0:
370,328,179705,5,12,3:3:0:0:
324,330,179784,1,0,3:3:0:0:
290,298,179863,1,0,3:3:0:0:
290,251,179942,1,0,3:3:0:0:
316,213,180021,1,0,3:3:0:0:
360,202,180100,1,0,3:3:0:0:
404,214,180179,1,0,3:3:0:0:
425,254,180258,1,0,3:3:0:0:
417,299,180337,5,2,3:3:0:0:
348,290,180416,1,0,3:3:0:0:
323,225,180495,1,10,3:3:0:0:
348,161,180573,1,0,3:3:0:0:
409,130,180652,1,2,3:3:0:0:
426,63,180731,1,0,3:3:0:0:
389,4,180810,1,10,3:3:0:0:
320,1,180889,1,0,3:3:0:0:
271,50,180968,2,1,P|290:84|299:123,3,57.5,2|0|10|0,3:3|3:3|3:3|3:3,0:0:0:0:
208,197,181284,2,1,P|227:163|236:124,3,57.5,2|0|10|0,3:3|3:3|3:3|3:3,0:0:0:0:
117,15,181600,5,8,3:3:0:0:
59,21,181679,1,8,2:3:0:0:
25,67,181758,1,8,2:3:0:0:
27,124,181837,1,8,2:3:0:0:
72,159,181916,1,0,3:3:0:0:
116,185,181995,1,0,3:3:0:0:
127,228,182073,1,8,2:3:0:0:
108,263,182152,1,8,2:3:0:0:
76,276,182231,2,1,P|50:263|11:255,3,57.5,8|8|8|8,3:3|2:3|2:3|2:3,0:0:0:0:
158,349,182547,2,1,P|184:336|223:328,3,57.5,8|8|8|8,3:3|2:3|2:3|2:3,0:0:0:0:
297,371,182863,5,4,3:2:0:0:
330,331,182942,1,0,3:3:0:0:
341,280,183021,1,10,3:2:0:0:
330,229,183100,1,0,3:3:0:0:
299,187,183179,1,2,3:1:0:0:
259,153,183258,1,0,3:3:0:0:
245,102,183337,1,10,3:2:0:0:
258,52,183416,1,0,3:3:0:0:
301,24,183495,1,2,3:1:0:0:
352,22,183573,1,0,3:3:0:0:
393,53,183652,1,10,3:2:0:0:
402,103,183731,1,0,3:3:0:0:
387,152,183810,1,2,3:1:0:0:
341,176,183889,1,0,3:3:0:0:
289,171,183968,1,10,3:2:0:0:
256,130,184047,1,0,3:3:0:0:
250,78,184126,5,2,3:1:0:0:
307,73,184205,1,0,3:3:0:0:
348,112,184284,1,8,3:3:0:0:
354,169,184363,1,2,3:1:0:0:
327,219,184442,1,2,3:1:0:0:
325,276,184521,1,2,3:2:0:0:
358,322,184600,1,8,3:3:0:0:
413,336,184679,1,0,3:3:0:0:
464,309,184758,2,1,P|475:275|466:244,3,57.5,2|0|10|2,3:1|3:3|3:2|3:1,0:0:0:0:
512,179,185073,2,1,P|488:152|456:144,3,57.5,2|0|10|0,3:1|3:3|3:2|3:3,0:0:0:0:
409,36,185389,5,12,3:3:0:0:
369,92,185468,1,0,3:3:0:0:
300,98,185547,1,0,3:3:0:0:
244,57,185626,1,0,3:3:0:0:
190,13,185705,1,0,3:3:0:0:
120,11,185784,1,0,3:3:0:0:
64,51,185863,1,0,3:3:0:0:
51,118,185942,1,0,3:3:0:0:
96,170,186021,5,12,3:3:0:0:
136,174,186100,1,0,3:3:0:0:
172,156,186179,1,0,3:3:0:0:
191,120,186258,1,0,3:3:0:0:
189,79,186337,1,0,3:3:0:0:
164,46,186416,1,0,3:3:0:0:
126,30,186495,1,0,3:3:0:0:
86,28,186573,1,0,3:3:0:0:
49,45,186652,5,12,3:2:0:0:
58,110,186731,1,0,3:3:0:0:
116,140,186810,1,0,3:3:0:0:
179,121,186889,1,0,3:3:0:0:
221,70,186968,1,0,3:3:0:0:
279,39,187047,1,0,3:3:0:0:
343,53,187126,1,0,3:3:0:0:
380,107,187205,1,0,3:3:0:0:
377,173,187284,2,1,P|356:200|329:212,3,57.5,12|0|0|0,3:2|3:3|3:3|3:3,0:0:0:0:
265,293,187600,2,1,P|231:288|207:270,3,57.5,0|0|0|0,3:3|3:3|3:3|3:3,0:0:0:0:
370,363,187916,5,4,3:2:0:0:
425,376,187995,1,0,3:3:0:0:
478,356,188073,1,8,3:3:0:0:
504,305,188152,1,0,3:3:0:0:
501,247,188231,1,2,3:1:0:0:
462,204,188310,1,0,3:3:0:0:
405,194,188389,1,10,3:2:0:0:
353,218,188468,1,0,3:3:0:0:
333,272,188547,5,2,3:1:0:0:
376,287,188626,1,0,3:3:0:0:
420,276,188705,1,10,3:2:0:0:
445,237,188784,1,0,3:3:0:0:
442,191,188863,2,1,L|426:120,3,57.5,2|0|10|0,3:1|3:3|3:2|3:3,0:0:0:0:
371,41,189179,5,4,3:2:0:0:
319,18,189258,1,0,3:3:0:0:
263,24,189337,1,8,3:3:0:0:
218,57,189416,1,0,3:3:0:0:
191,105,189495,1,2,3:1:0:0:
185,159,189573,1,0,3:3:0:0:
150,203,189652,1,10,3:2:0:0:
96,217,189731,1,0,3:3:0:0:
41,201,189810,5,2,3:1:0:0:
47,143,189889,1,0,3:3:0:0:
79,95,189968,1,10,3:2:0:0:
135,82,190047,1,2,3:2:0:0:
192,85,190126,1,2,3:1:0:0:
239,117,190205,1,0,3:3:0:0:
261,169,190284,1,10,3:2:0:0:
248,225,190363,1,0,3:3:0:0:
221,276,190442,6,1,P|193:303|151:310,3,57.5,12|8|8|8,3:3|2:3|2:3|2:3,0:0:0:0:
119,366,190758,2,1,P|91:339|49:332,3,57.5,8|8|8|8,3:3|2:3|2:3|2:3,0:0:0:0:
0,169,191073,6,1,P|28:196|70:203,3,57.5,12|8|8|8,3:3|2:3|2:3|2:3,0:0:0:0:
102,259,191389,2,1,P|130:232|172:225,3,57.5,8|8|8|8,3:3|2:3|2:3|2:3,0:0:0:0:
124,103,191705,6,1,P|161:96|199:89,1,76.6666666666667,8|8,3:3|2:3,0:0:0:0:
253,19,191916,5,8,2:3:0:0:
253,19,192021,2,1,P|295:24|340:31,1,66.6666666666667,8|8,3:3|2:3,0:0:0:0:
419,73,192231,5,8,2:3:0:0:
419,73,192337,2,1,P|432:44|427:11,2,66.6666666666667,8|8|8,3:3|2:3|2:3,0:0:0:0:
315,132,192652,2,1,P|302:161|307:194,2,66.6666666666667,8|8|8,3:3|2:3|2:3,0:0:0:0:
429,241,192968,5,4,3:2:0:0:
449,294,193047,1,0,3:3:0:0:
434,349,193126,1,8,3:3:0:0:
382,374,193205,1,0,3:3:0:0:
326,357,193284,1,2,3:3:0:0:
297,307,193363,1,0,3:3:0:0:
246,280,193442,1,10,3:3:0:0:
189,289,193521,1,0,3:3:0:0:
164,341,193600,5,2,3:3:0:0:
204,363,193679,1,0,3:3:0:0:
249,356,193758,1,10,3:3:0:0:
280,322,193837,1,0,3:3:0:0:
287,276,193916,1,2,3:3:0:0:
266,234,193995,1,0,3:3:0:0:
235,199,194073,1,10,3:3:0:0:
235,152,194152,1,0,3:3:0:0:
261,114,194231,5,2,3:3:0:0:
308,146,194310,1,0,3:3:0:0:
307,203,194389,1,10,3:3:0:0:
258,233,194468,1,0,3:3:0:0:
201,223,194547,1,2,3:3:0:0:
164,178,194626,1,0,3:3:0:0:
108,161,194705,1,10,3:3:0:0:
54,182,194784,1,0,3:3:0:0:
32,235,194863,2,1,P|71:246|103:261,3,57.5,2|0|10|0,3:3|3:3|3:3|3:3,0:0:0:0:
173,311,195179,1,2,3:3:0:0:
173,311,195258,1,0,3:3:0:0:
173,311,195337,2,1,P|134:322|102:337,1,57.5,10|0,3:3|3:3,0:0:0:0:
115,140,195495,5,2,3:3:0:0:
154,107,195573,1,0,3:3:0:0:
205,101,195652,1,10,3:3:0:0:
249,126,195731,1,0,3:3:0:0:
279,167,195810,1,2,3:3:0:0:
330,174,195889,1,0,3:3:0:0:
377,152,195968,1,10,3:3:0:0:
398,104,196047,1,0,3:3:0:0:
371,59,196126,2,1,P|338:64|299:73,3,57.5,2|0|10|0,3:3|3:3|3:3|3:3,0:0:0:0:
391,148,196442,2,1,P|424:153|463:162,3,57.5,2|0|10|0,3:3|3:3|3:3|3:3,0:0:0:0:
497,228,196758,5,8,3:3:0:0:
512,271,196837,1,8,2:3:0:0:
498,315,196916,1,8,2:3:0:0:
457,336,196995,1,8,2:3:0:0:
411,330,197073,1,8,3:3:0:0:
380,295,197152,1,8,2:3:0:0:
360,253,197231,1,8,2:3:0:0:
321,228,197310,1,8,2:3:0:0:
274,228,197389,1,8,3:3:0:0:
239,258,197468,1,8,2:3:0:0:
232,303,197547,1,8,2:3:0:0:
260,339,197626,1,8,2:3:0:0:
305,348,197705,2,1,P|318:314|342:273,3,57.5,8|8|8|8,2:3|2:3|2:3|2:3,0:0:0:0:
432,170,198021,5,12,3:3:0:0:
404,113,198100,1,0,3:3:0:0:
342,96,198179,1,0,3:3:0:0:
285,123,198258,1,0,3:3:0:0:
245,172,198337,1,0,3:3:0:0:
181,171,198416,1,0,3:3:0:0:
132,130,198495,1,0,3:3:0:0:
123,68,198573,1,0,3:3:0:0:
163,19,198652,2,1,P|191:25|232:41,3,57.5,12|0|0|0,3:2|3:3|3:3|3:3,0:0:0:0:
333,109,198968,2,1,P|305:115|264:131,3,57.5,0|0|0|0,3:3|3:3|3:3|3:3,0:0:0:0:
171,177,199284,5,12,3:3:0:0:
128,227,199363,1,0,3:3:0:0:
136,292,199442,1,0,3:3:0:0:
196,319,199521,1,0,3:3:0:0:
254,288,199600,1,0,3:3:0:0:
295,236,199679,1,0,3:3:0:0:
361,232,199758,1,0,3:3:0:0:
409,277,199837,1,0,3:3:0:0:
399,342,199916,5,12,3:3:0:0:
354,351,199995,1,0,3:3:0:0:
312,332,200073,1,0,3:3:0:0:
296,288,200152,1,0,3:3:0:0:
308,243,200231,1,0,3:3:0:0:
347,220,200310,1,0,3:3:0:0:
392,224,200389,1,0,3:3:0:0:
424,256,200468,1,0,3:3:0:0:
424,302,200547,5,2,3:3:0:0:
355,309,200626,1,0,3:3:0:0:
307,258,200705,1,10,3:3:0:0:
323,190,200784,1,0,3:3:0:0:
383,157,200863,1,2,3:3:0:0:
414,95,200942,1,0,3:3:0:0:
393,28,201021,1,10,3:3:0:0:
327,7,201100,1,0,3:3:0:0:
263,33,201179,1,2,3:3:0:0:
238,97,201258,1,0,3:3:0:0:
177,130,201337,1,10,3:3:0:0:
113,104,201416,1,0,3:3:0:0:
96,36,201495,2,1,P|140:28|173:24,3,57.5,2|0|10|0,3:3|3:3|3:3|3:3,0:0:0:0:
293,151,201810,5,8,3:3:0:0:
302,207,201889,1,8,2:3:0:0:
267,253,201968,1,8,2:3:0:0:
209,260,202047,1,8,2:3:0:0:
160,228,202126,1,8,3:3:0:0:
108,227,202205,1,8,2:3:0:0:
71,255,202284,1,8,2:3:0:0:
70,295,202363,1,8,2:3:0:0:
87,324,202442,2,1,P|124:312|161:306,3,57.5,0|0|8|8,3:3|3:3|2:3|2:3,0:0:0:0:
222,245,202758,2,1,P|250:251|277:260,3,57.5,0|0|8|8,3:3|3:3|2:3|2:3,0:0:0:0:
346,343,203073,5,4,3:2:0:0:
395,358,203152,1,0,3:3:0:0:
446,349,203231,1,10,3:2:0:0:
479,309,203310,1,0,3:3:0:0:
485,257,203389,1,2,3:1:0:0:
463,209,203468,1,0,3:3:0:0:
416,185,203547,1,10,3:2:0:0:
364,189,203626,1,0,3:3:0:0:
321,217,203705,1,2,3:1:0:0:
269,221,203784,1,2,3:1:0:0:
223,195,203863,1,10,3:2:0:0:
198,149,203942,1,0,3:3:0:0:
200,97,204021,1,2,3:1:0:0:
234,58,204100,1,2,3:2:0:0:
284,47,204179,1,10,3:2:0:0:
331,67,204258,1,0,3:3:0:0:
357,111,204337,5,4,3:2:0:0:
308,142,204416,1,0,3:3:0:0:
250,139,204495,1,8,3:3:0:0:
202,108,204573,1,0,3:3:0:0:
171,57,204652,1,2,3:1:0:0:
130,16,204731,1,2,3:1:0:0:
74,3,204810,1,10,3:2:0:0:
21,26,204889,1,0,3:3:0:0:
1,80,204968,2,1,P|11:116|37:140,3,57.5,2|0|10|0,3:1|3:3|3:2|3:3,0:0:0:0:
9,210,205284,2,1,P|45:219|78:208,3,57.5,2|0|10|0,3:1|3:3|3:2|3:3,0:0:0:0:
97,333,205600,5,12,3:3:0:0:
150,376,205679,1,0,3:3:0:0:
219,377,205758,1,0,3:3:0:0:
273,334,205837,1,0,3:3:0:0:
293,268,205916,1,0,3:3:0:0:
275,201,205995,1,0,3:3:0:0:
219,161,206073,1,0,3:3:0:0:
150,163,206152,1,0,3:3:0:0:
93,202,206231,5,12,3:3:0:0:
113,236,206310,1,0,3:3:0:0:
147,257,206389,1,0,3:3:0:0:
186,261,206468,1,0,3:3:0:0:
223,246,206547,1,0,3:3:0:0:
253,219,206626,1,0,3:3:0:0:
272,183,206705,1,0,3:3:0:0:
278,143,206784,1,0,3:3:0:0:
264,105,206863,5,12,3:3:0:0:
197,109,206942,1,0,3:3:0:0:
142,146,207021,1,0,3:3:0:0:
126,210,207100,1,0,3:3:0:0:
143,273,207179,1,0,3:3:0:0:
200,306,207258,1,0,3:3:0:0:
265,311,207337,1,0,3:3:0:0:
319,273,207416,1,0,3:3:0:0:
349,214,207495,2,1,P|345:186|329:161,3,57.5,12|0|0|0,3:1|3:3|3:3|3:3,0:0:0:0:
467,133,207810,2,1,P|471:104|486:80,3,57.5,0|0|0|0,3:3|3:3|3:3|3:3,0:0:0:0:
328,31,208126,5,4,3:2:0:0:
270,23,208205,1,0,3:3:0:0:
215,41,208284,1,8,3:3:0:0:
182,88,208363,1,0,3:3:0:0:
175,145,208442,1,2,3:1:0:0:
149,196,208521,1,0,3:3:0:0:
97,221,208600,1,10,3:2:0:0:
41,207,208679,1,0,3:3:0:0:
13,156,208758,5,2,3:1:0:0:
47,125,208837,1,0,3:3:0:0:
92,117,208916,1,10,3:2:0:0:
134,134,208995,1,0,3:3:0:0:
161,170,209073,2,1,P|169:206|176:247,3,57.5,2|0|10|0,3:1|3:3|3:2|3:3,0:0:0:0:
71,333,209389,5,12,3:3:0:0:
126,379,209468,1,0,3:3:0:0:
197,374,209547,1,0,3:3:0:0:
248,323,209626,1,0,3:3:0:0:
279,258,209705,1,0,3:3:0:0:
342,223,209784,1,0,3:3:0:0:
413,232,209863,1,0,3:3:0:0:
459,286,209942,1,0,3:3:0:0:
454,357,210021,5,12,3:2:0:0:
390,383,210100,1,0,3:3:0:0:
324,361,210179,1,0,3:3:0:0:
284,304,210258,1,0,3:3:0:0:
285,234,210337,1,0,3:3:0:0:
324,177,210416,1,0,3:3:0:0:
389,155,210495,1,0,3:3:0:0:
455,176,210573,1,0,3:3:0:0:
500,228,210652,6,1,P|469:319|306:309,1,255.000000000001,12|0,3:3|0:0,0:0:0:0:
142,384,211284,6,1,P|137:322|133:281,1,85.0000000000003,8|0,3:3|0:0,0:0:0:0:
240,377,211600,1,8,3:3:0:0:
52,266,211758,1,8,3:3:0:0:
183,173,211916,2,1,P|188:111|192:70,1,85.0000000000003,8|0,3:3|0:0,0:0:0:0:
378,141,212547,5,8,3:3:0:0:
122,249,212758,5,8,3:3:0:0:
357,359,212968,5,8,3:3:0:0:
219,96,213179,6,1,B|158:60|103:104|125:129|67:177|-9:127,1,240,12|0,3:3|0:0,0:0:0:0:
