osu file format v14

[General]
AudioFilename: audio.ogg
AudioLeadIn: 0
PreviewTime: 102455
Countdown: 0
SampleSet: Drum
StackLeniency: 0.7
Mode: 0
LetterboxInBreaks: 0
WidescreenStoryboard: 0

[Editor]
Bookmarks: 24357,47835,68705,89574,102618,133922,144357,165227,178270,209574,220009,265661,276096,296966
DistanceSpacing: 0.4
BeatDivisor: 4
GridSize: 16
TimelineZoom: 3.000005

[Metadata]
Title:Night of Winterlight
TitleUnicode:Night of Winterlight
Artist:Twilight Force
ArtistUnicode:Twilight Force
Creator:nebuwua
Version:The Alluring Sea of Stars, so Beguiling in the Night Sky
Source:
Tags:alcoa aicoa symphonic melodic power metal adventure epic fantasy english nuclear blast records dawn of the dragonstar born borne Christer Björn Mikael Lundkvist Johan Philip Michael Lindh Eldhrimnir Daniel Beckman Gustaf Daniel Hansfeldt Aerendir Anders Joakim Johansson Alessandro Conti Ylva Eriksson Lynd Blackwald De'Azsh Aerendir Allyon
BeatmapID:3468687
BeatmapSetID:1697787

[Difficulty]
HPDrainRate:5
CircleSize:4.3
OverallDifficulty:9.5
ApproachRate:9.7
SliderMultiplier:2
SliderTickRate:1

[Events]
//Background and Video events
0,0,"winterlightt.png",0,0
//Break Periods
//Storyboard Layer 0 (Background)
//Storyboard Layer 1 (Fail)
//Storyboard Layer 2 (Pass)
//Storyboard Layer 3 (Foreground)
//Storyboard Layer 4 (Overlay)
//Storyboard Sound Samples

[TimingPoints]
-425,326.086956521739,4,3,1,15,1,0
553,-200,4,3,1,15,0,0
607,-200,4,3,1,23,0,0
661,-200,4,3,1,32,0,0
716,-200,4,3,1,39,0,0
770,-200,4,3,1,45,0,0
824,-200,4,3,1,53,0,0
879,-111.111111111111,4,3,1,60,0,0
1531,-111.111111111111,4,3,1,30,0,0
1857,-249.999999999999,4,3,1,30,0,0
3488,-500,4,3,1,60,0,0
4792,-500,4,3,1,30,0,0
5118,-250,4,3,1,30,0,0
6096,-222.222222222222,4,3,1,30,0,0
8705,-133.333333333333,4,3,2,60,0,0
10417,-133.333333333333,4,3,3,60,0,0
10498,-133.333333333333,4,3,3,60,0,0
10661,-133.333333333333,4,3,4,60,0,0
10988,-133.333333333333,4,3,5,60,0,0
11314,-181.818181818181,4,3,6,60,0,0
12536,-181.818181818181,4,3,6,5,0,0
12618,-133.333333333333,4,3,6,60,0,0
12699,-133.333333333333,4,3,6,5,0,0
12781,-133.333333333333,4,3,6,60,0,0
12862,-133.333333333333,4,3,6,5,0,0
12944,-133.333333333333,4,3,6,60,0,0
13840,-133.333333333333,4,3,6,5,0,0
13922,-100,4,3,2,60,0,0
14166,-100,4,3,2,5,0,0
14248,-100,4,3,2,60,0,0
14574,-100,4,3,3,60,0,0
14901,-100,4,3,2,60,0,0
15227,-100,4,3,3,60,0,0
15390,-100,4,3,2,60,0,0
15553,-100,4,3,5,60,0,0
15716,-100,4,3,3,60,0,0
15879,-100,4,3,7,60,0,0
16042,-100,4,3,4,60,0,0
16205,-100,4,3,3,60,0,0
16449,-100,4,3,3,5,0,0
16531,-100,4,3,2,60,0,0
16775,-100,4,3,2,5,0,0
16857,-100,4,3,2,60,0,0
17183,-100,4,3,3,60,0,0
17509,-100,4,3,2,60,0,0
17835,-100,4,3,3,60,0,0
18161,-100,4,3,2,60,0,0
18488,-100,4,3,3,60,0,0
18651,-100,4,3,2,60,0,0
18977,-100,4,3,2,5,0,0
19140,-142.857142857143,4,3,6,60,0,0
19955,-142.857142857143,4,3,6,5,0,0
20118,-142.857142857143,4,3,6,60,0,0
20281,-142.857142857143,4,3,6,5,0,0
20444,-117.647058823529,4,3,2,60,0,0
20933,-117.647058823529,4,3,2,5,0,0
21096,-117.647058823529,4,3,6,60,0,0
21585,-117.647058823529,4,3,6,5,0,0
21748,-117.647058823529,4,3,2,60,0,0
22074,-100,4,3,2,60,0,0
22401,-100,4,3,4,60,0,0
22727,-100,4,3,4,60,0,0
22890,-100,4,3,3,60,0,0
23053,-100,4,3,2,60,0,0
23216,-100,4,3,4,60,0,0
23379,-100,4,3,3,60,0,0
23542,-100,4,3,7,60,0,0
23705,-100,4,3,3,60,0,0
23868,-100,4,3,3,60,0,0
24357,-100,4,3,6,60,0,0
24439,-100,4,3,6,60,0,0
24683,-100,4,3,4,60,0,0
26966,-100,4,3,4,60,0,0
27292,-100,4,3,4,60,0,0
28270,-100,4,3,1,60,0,0
28922,-100,4,3,3,60,0,0
29574,-100,4,3,2,60,0,0
29901,-100,4,3,4,60,0,0
31531,-100,4,3,1,60,0,0
32183,-100,4,3,2,60,0,0
32835,-100,4,3,3,60,0,0
33488,-100,4,3,2,60,0,0
34140,-100,4,3,4,60,0,0
34466,-100,4,3,3,60,0,0
34629,-100,4,3,7,60,0,0
34792,-100,4,3,5,60,0,0
35199,-100,4,3,5,5,0,0
35281,-100,4,3,5,60,0,0
36096,-100,4,3,5,60,0,0
36503,-100,4,3,5,5,0,0
36585,-100,4,3,5,60,0,0
36748,-100,4,3,3,60,0,0
37074,-100,4,3,2,60,0,0
37401,-100,4,3,3,60,0,0
37482,-100,4,3,3,5,0,0
37564,-100,4,3,3,60,0,0
38053,-100,4,3,5,60,0,0
39683,-100,4,3,3,60,0,0
40009,-100,4,3,2,60,0,0
43270,-100,4,3,4,60,0,0
43922,-100,4,3,4,60,0,0
44574,-100,4,3,3,60,0,0
44901,-100,4,3,7,60,0,0
45227,-166.666666666667,4,3,5,60,0,0
46286,-166.666666666667,4,3,5,60,0,0
46531,-166.666666666667,4,3,3,60,0,0
47183,-166.666666666667,4,3,2,60,0,0
47428,-166.666666666667,4,3,4,60,0,0
47672,-166.666666666667,4,3,3,60,0,0
47835,-100,4,3,3,60,0,0
48161,-100,4,3,6,60,0,0
48569,-100,4,3,6,5,0,0
48651,-100,4,3,6,60,0,0
48896,-100,4,3,6,5,0,0
48977,-100,4,3,6,60,0,0
51177,-100,4,3,6,5,0,0
51259,-100,4,3,6,60,0,0
51503,-100,4,3,6,5,0,0
51585,-100,4,3,6,60,0,0
52482,-100,4,3,6,5,0,0
52564,-100,4,3,6,60,0,0
52808,-100,4,3,6,5,0,0
52890,-100,4,3,6,60,0,0
53053,-100,4,3,6,60,0,0
53379,-100,4,3,6,60,0,0
53786,-100,4,3,6,5,0,0
53868,-100,4,3,6,60,0,0
54112,-100,4,3,6,5,0,0
54194,-100,4,3,6,60,0,0
55742,-100,4,3,6,5,0,0
55824,-100,4,3,6,60,0,0
56721,-100,4,3,6,5,0,0
56803,-100,4,3,6,60,0,0
56966,-100,4,3,6,60,0,0
57047,-100,4,3,6,5,0,0
57129,-100,4,3,6,60,0,0
57292,-100,4,3,1,60,0,0
57618,-100,4,3,3,60,0,0
57781,-142.857142857143,4,3,3,60,0,0
58270,-100,4,3,2,60,0,0
58596,-100,4,3,6,60,0,0
60879,-100,4,3,6,60,0,0
62183,-100,4,3,2,60,0,0
62835,-100,4,3,3,60,0,0
63488,-100,4,3,2,60,0,0
66096,-100,4,3,1,60,0,0
66748,-100,4,3,2,60,0,0
67401,-100,4,3,3,60,0,0
67727,-100,4,3,4,60,0,0
68053,-100,4,3,3,60,0,0
68379,-100,4,3,7,60,0,0
68705,-100,4,3,4,60,0,0
69031,-100,4,3,4,60,0,0
73922,-100,4,3,2,60,0,0
74574,-100,4,3,1,60,0,0
75227,-100,4,3,3,60,0,0
75879,-100,4,3,1,60,0,0
76531,-100,4,3,2,60,0,0
77835,-100,4,3,4,60,0,0
78161,-100,4,3,3,60,0,0
78488,-100,4,3,4,60,0,0
78651,-100,4,3,3,60,0,0
78814,-100,4,3,7,60,0,0
78977,-100,4,3,6,60,0,0
79140,-100,4,3,6,60,0,0
79466,-100,4,3,6,60,0,0
79629,-100,4,3,6,60,0,0
81748,-100,4,3,6,60,0,0
82074,-100,4,3,6,60,0,0
83216,-100,4,3,3,60,0,0
83379,-100,4,3,4,60,0,0
83542,-100,4,3,3,60,0,0
83705,-100,4,3,7,60,0,0
83868,-100,4,3,3,60,0,0
84031,-100,4,3,7,60,0,0
84357,-100,4,3,2,60,0,0
86151,-100,4,3,3,60,0,0
86640,-100,4,3,1,60,0,0
86966,-100,4,3,2,60,0,0
87781,-100,4,3,4,60,0,0
87944,-100,4,3,3,60,0,0
88352,-100,4,3,7,60,0,0
88433,-100,4,3,7,60,0,0
88596,-100,4,3,3,60,0,0
88759,-100,4,3,3,60,0,0
89085,-100,4,3,5,60,0,0
89574,-100,4,3,5,60,0,0
90471,-100,4,3,5,5,0,0
90553,-100,4,3,5,60,0,0
91286,-100,4,3,5,5,0,0
91368,-100,4,3,5,60,0,0
91775,-100,4,3,5,5,0,0
91857,-100,4,3,3,60,0,0
92101,-100,4,3,3,5,0,0
92183,-100,4,3,2,60,0,0
93079,-100,4,3,2,5,0,0
93161,-100,4,3,2,60,0,0
93814,-100,4,3,4,60,0,0
93977,-100,4,3,3,60,0,0
94303,-100,4,3,4,60,0,0
94466,-100,4,3,3,60,0,0
94629,-100,4,3,7,60,0,0
94792,-100,4,3,7,60,0,0
95118,-100,4,3,1,60,0,0
95688,-100,4,3,1,5,0,0
95770,-100,4,3,1,60,0,0
96259,-100,4,3,1,60,0,0
96503,-100,4,3,1,5,0,0
96585,-100,4,3,1,60,0,0
97401,-100,4,3,3,60,0,0
97727,-100,4,3,4,60,0,0
97890,-100,4,3,3,60,0,0
98053,-100,4,3,5,60,0,0
98216,-100,4,3,3,60,0,0
98379,-100,4,3,7,60,0,0
99438,-100,4,3,7,5,0,0
99520,-100,4,3,7,60,0,0
99764,-100,4,3,7,5,0,0
99846,-100,4,3,7,60,0,0
100009,-232.558139534884,4,3,7,60,0,0
102618,-232.558139534884,4,3,8,60,0,1
102699,-232.558139534884,4,3,4,60,0,1
102944,-232.558139534884,4,3,4,60,0,1
104248,-100,4,3,4,60,0,1
105227,-100,4,3,4,60,0,1
105553,-100,4,3,4,60,0,1
107183,-100,4,3,4,60,0,1
107835,-100,4,3,2,60,0,1
108161,-100,4,3,4,60,0,1
110444,-100,4,3,2,60,0,1
111096,-100,4,3,3,60,0,1
111748,-100,4,3,2,60,0,1
112401,-100,4,3,3,60,0,1
113053,-100,4,3,2,60,0,1
113379,-100,4,3,4,60,0,1
115335,-100,4,3,4,60,0,1
115661,-100,4,3,2,60,0,1
115988,-100,4,3,4,60,0,1
117618,-100,4,3,4,60,0,1
118270,-100,4,3,2,60,0,1
118596,-100,4,3,4,60,0,1
120879,-100,4,3,2,60,0,1
121531,-100,4,3,3,60,0,1
122183,-100,4,3,2,60,0,1
122835,-100,4,3,4,60,0,1
122998,-100,4,3,3,60,0,1
123161,-100,4,3,3,60,0,1
123324,-100,4,3,7,60,0,1
123488,-100,4,3,5,60,0,1
123651,-100,4,3,5,60,0,1
123895,-100,4,3,5,5,0,1
123977,-100,4,3,5,60,0,1
125199,-100,4,3,5,5,0,1
125281,-100,4,3,5,60,0,1
125444,-100,4,3,5,60,0,1
125607,-100,4,3,3,60,0,1
125770,-100,4,3,4,60,0,1
125933,-100,4,3,4,60,0,1
126096,-100,4,3,5,60,0,1
126177,-100,4,3,5,5,0,1
126259,-100,4,3,5,60,0,1
126748,-100,4,3,5,60,0,1
128379,-100,4,3,4,60,0,1
128542,-100,4,3,4,60,0,1
128705,-100,4,3,2,60,0,1
131966,-100,4,3,3,60,0,1
132618,-100,4,3,9,60,0,1
132944,-100,4,3,3,60,0,1
133270,-100,4,3,4,60,0,1
133596,-100,4,3,7,60,0,1
133922,-200,4,3,7,60,0,0
135144,-200,4,3,7,5,0,0
135227,-200,4,3,2,60,0,0
136449,-200,4,3,2,5,0,0
136531,-200,4,3,1,60,0,0
137753,-200,4,3,1,5,0,0
137835,-200,4,3,2,60,0,0
139057,-200,4,3,2,5,0,0
139140,-142.857142857143,4,3,3,60,0,0
140362,-142.857142857143,4,3,3,5,0,0
140444,-142.857142857143,4,3,3,60,0,0
141504,-142.857142857143,4,3,4,60,0,0
141748,-142.857142857143,4,3,3,60,0,0
142074,-142.857142857143,4,3,4,60,0,0
142237,-142.857142857143,4,3,3,60,0,0
142318,-142.857142857143,4,3,4,60,0,0
142727,-142.857142857143,4,3,3,60,0,0
143053,-142.857142857143,4,3,7,60,0,0
143379,-142.857142857143,4,3,3,60,0,0
143705,-142.857142857143,4,3,7,60,0,0
144357,-142.857142857143,4,3,2,60,0,0
144683,-142.857142857143,4,3,4,60,0,0
149248,-100,4,3,4,60,0,0
149574,-100,4,3,4,60,0,0
150879,-100,4,3,2,60,0,0
151531,-100,4,3,3,60,0,0
152183,-100,4,3,2,60,0,0
153488,-100,4,3,4,60,0,0
153814,-100,4,3,3,60,0,0
154140,-100,4,3,7,60,0,0
154466,-100,4,3,5,60,0,0
154547,-100,4,3,7,60,0,0
154792,-100,4,3,6,60,0,0
155118,-100,4,3,6,60,0,0
157401,-100,4,3,6,60,0,0
157727,-100,4,3,6,60,0,0
159357,-100,4,3,6,60,0,0
159683,-100,4,3,6,60,0,0
160009,-100,4,3,2,60,0,0
163270,-100,4,3,3,60,0,0
163922,-100,4,3,2,60,0,0
164085,-100,4,3,4,60,0,0
164248,-100,4,3,3,60,0,0
164411,-100,4,3,7,60,0,0
164574,-100,4,3,1,60,0,0
164901,-100,4,3,4,60,0,0
165064,-100,4,3,3,60,0,0
165227,-100,4,3,2,60,0,0
166123,-100,4,3,2,5,0,0
166205,-100,4,3,2,60,0,0
166938,-100,4,3,2,5,0,0
167020,-100,4,3,2,60,0,0
167509,-100,4,3,4,60,0,0
167672,-100,4,3,3,60,0,0
168732,-100,4,3,3,5,0,0
168814,-100,4,3,3,60,0,0
170118,-100,4,3,4,60,0,0
170281,-100,4,3,5,60,0,0
170444,-100,4,3,3,60,0,0
171340,-100,4,3,3,5,0,0
171422,-100,4,3,3,60,0,0
173379,-100,4,3,4,60,0,0
173542,-100,4,3,3,60,0,0
174031,-100,4,3,7,60,0,0
174194,-100,4,3,3,60,0,0
174357,-100,4,3,7,60,0,0
174520,-100,4,3,3,60,0,0
174683,-100,4,3,4,60,0,0
174846,-100,4,3,3,60,0,0
175661,-232.558139534884,4,3,3,60,0,0
178270,-232.558139534884,4,3,8,60,0,1
178352,-232.558139534884,4,3,4,60,0,1
178596,-232.558139534884,4,3,4,60,0,1
179901,-100,4,3,4,60,0,1
180879,-100,4,3,4,60,0,1
181205,-100,4,3,4,60,0,1
182835,-100,4,3,4,60,0,1
183488,-100,4,3,2,60,0,1
183814,-100,4,3,4,60,0,1
186096,-100,4,3,2,60,0,1
186748,-100,4,3,3,60,0,1
187401,-100,4,3,2,60,0,1
187727,-100,4,3,3,60,0,1
187890,-100,4,3,7,60,0,1
188053,-100,4,3,3,60,0,1
188460,-100,4,3,4,60,0,1
188542,-100,4,3,3,60,0,1
188623,-100,4,3,7,60,0,1
188705,-100,4,3,2,60,0,1
189031,-100,4,3,4,60,0,1
190988,-100,4,3,4,60,0,1
191314,-100,4,3,2,60,0,1
191640,-100,4,3,4,60,0,1
193270,-100,4,3,4,60,0,1
193922,-100,4,3,2,60,0,1
194248,-100,4,3,4,60,0,1
196531,-100,4,3,2,60,0,1
197183,-100,4,3,3,60,0,1
197835,-100,4,3,10,60,0,1
197998,-100,4,3,4,60,0,1
198161,-100,4,3,3,60,0,1
198243,-100,4,3,4,60,0,1
198488,-100,4,3,3,60,0,1
198651,-100,4,3,7,60,0,1
198814,-100,4,3,1,60,0,1
198977,-100,4,3,7,60,0,1
199140,-100,4,3,5,60,0,1
199303,-100,4,3,5,60,0,1
199547,-100,4,3,5,5,0,1
199629,-100,4,3,5,60,0,1
200851,-100,4,3,5,5,0,1
200933,-100,4,3,5,60,0,1
201096,-100,4,3,5,60,0,1
201422,-100,4,3,3,60,0,1
201748,-100,4,3,5,60,0,1
201829,-100,4,3,5,5,0,1
201911,-100,4,3,5,60,0,1
202401,-100,4,3,5,60,0,1
203053,-100,4,3,3,60,0,1
204194,-100,4,3,4,60,0,1
204357,-100,4,3,2,60,0,1
207618,-100,4,3,3,60,0,1
208270,-100,4,3,9,60,0,1
208596,-100,4,3,3,60,0,1
208922,-100,4,3,4,60,0,1
209248,-100,4,3,7,60,0,1
209574,-200,4,3,4,60,0,0
210227,-200,4,3,4,60,0,0
210308,-200,4,3,4,60,0,0
210879,-200,4,3,2,60,0,0
210960,-200,4,3,3,60,0,0
212183,-142.857142857143,4,3,3,60,0,0
212264,-142.857142857143,4,3,7,60,0,0
212835,-125,4,3,1,60,0,0
212917,-125,4,3,7,60,0,0
213488,-166.666666666667,4,3,3,60,0,0
213569,-166.666666666667,4,3,3,60,0,0
214873,-166.666666666667,4,3,4,60,0,0
215444,-200,4,3,4,60,0,0
215525,-200,4,3,4,60,0,0
216096,-133.333333333333,4,3,2,60,0,0
216178,-133.333333333333,4,3,3,60,0,0
216340,-133.333333333333,4,3,3,60,0,0
216748,-133.333333333333,4,3,1,60,0,0
216830,-133.333333333333,4,3,3,60,0,0
216992,-133.333333333333,4,3,3,60,0,0
217401,-200,4,3,3,60,0,0
220009,-200,4,3,2,60,0,0
220335,-100,4,3,6,60,0,0
225227,-100,4,3,1,60,0,0
225879,-100,4,3,3,60,0,0
226531,-100,4,3,1,60,0,0
227183,-100,4,3,2,60,0,0
227916,-100,4,3,2,5,0,0
227998,-100,4,3,2,60,0,0
230770,-100,4,3,6,60,0,0
235661,-100,4,3,1,60,0,1
236314,-100,4,3,3,60,0,1
236966,-100,4,3,1,60,0,1
237618,-100,4,3,2,60,0,1
238270,-100,4,3,1,60,0,1
238922,-100,4,3,2,60,0,1
239248,-100,4,3,3,60,0,1
239574,-100,4,3,2,60,0,1
240879,-100,4,3,4,60,0,0
241042,-100,4,3,4,60,0,0
241205,-125,4,3,4,60,0,0
241368,-125,4,3,3,60,0,0
241531,-153.846153846154,4,3,3,60,0,0
241694,-153.846153846154,4,3,7,60,0,0
241775,-153.846153846154,4,3,3,60,0,0
241857,-153.846153846154,4,3,5,60,0,0
242020,-153.846153846154,4,3,7,60,0,0
242183,-100,4,3,3,60,0,0
243242,-100,4,3,3,5,0,0
243324,-100,4,3,3,60,0,0
244792,-100,4,3,1,60,0,0
246096,-100,4,3,3,60,0,0
246422,-100,4,3,1,60,0,0
246748,-100,4,3,3,60,0,0
247074,-100,4,3,1,60,0,0
247401,-100,4,3,2,60,0,0
251721,-100,4,3,4,60,0,0
251966,-100,4,3,4,60,0,0
252047,-100,4,3,3,60,0,0
252129,-100,4,3,4,60,0,0
252292,-100,4,3,4,60,0,0
252373,-100,4,3,3,60,0,0
252455,-100,4,3,7,60,0,0
252618,-100,4,3,3,60,0,0
253351,-100,4,3,3,5,0,0
253433,-100,4,3,3,60,0,0
254655,-100,4,3,3,5,0,0
254738,-100,4,3,3,60,0,0
256612,-100,4,3,3,5,0,0
256694,-100,4,3,3,60,0,0
257672,-100,4,3,4,60,0,0
257835,-111.111111111111,4,3,1,60,0,0
258405,-111.111111111111,4,3,1,5,0,0
258488,-111.111111111111,4,3,1,60,0,0
259547,-111.111111111111,4,3,1,5,0,0
259629,-111.111111111111,4,3,1,60,0,0
260444,-111.111111111111,4,3,3,60,0,0
261096,-111.111111111111,4,3,1,60,0,0
261585,-111.111111111111,4,3,11,60,0,0
261667,-111.111111111111,4,3,4,60,0,0
261748,-111.111111111111,4,3,12,60,0,0
262074,-111.111111111111,4,3,5,60,0,0
263053,-133.333333333333,4,3,3,60,0,0
265661,-133.333333333333,4,3,2,60,0,0
269411,-133.333333333333,4,3,12,60,0,0
269574,-250,4,3,5,60,0,0
269981,-250,4,3,5,5,0,0
270064,-250,4,3,12,60,0,0
270471,-250,4,3,12,5,0,0
270553,-250,4,3,5,60,0,0
270879,-250,4,3,5,60,0,0
271205,-250,4,3,1,60,0,0
271368,-250,4,3,1,5,0,0
271857,-250,4,3,1,60,0,0
272020,-250,4,3,1,5,0,0
272509,-250,4,3,1,60,0,0
272672,-250,4,3,1,5,0,0
272835,-250,4,3,1,60,0,0
272998,-250,4,3,1,5,0,0
273161,-250,4,3,1,60,0,0
273324,-250,4,3,1,5,0,0
273488,-111.111111111111,4,3,2,60,0,0
274140,-111.111111111111,4,3,6,60,0,0
274466,-111.111111111111,4,3,4,60,0,0
274629,-111.111111111111,4,3,3,60,0,0
274792,-111.111111111111,4,3,2,60,0,0
274873,-111.111111111111,4,3,4,60,0,0
275118,-111.111111111111,4,3,3,60,0,0
275444,-111.111111111111,4,3,7,60,0,0
275526,-111.111111111111,4,3,3,60,0,0
275607,-111.111111111111,4,3,7,60,0,0
275689,-111.111111111111,4,3,3,60,0,0
275770,-111.111111111111,4,3,7,60,0,0
276096,-111.111111111111,4,3,8,60,0,1
276178,-111.111111111111,4,3,4,60,0,1
276422,-111.111111111111,4,3,4,60,0,1
277727,-99.9999999999999,4,3,4,60,0,1
278705,-99.9999999999999,4,3,4,60,0,1
279031,-99.9999999999999,4,3,4,60,0,1
280661,-99.9999999999999,4,3,4,60,0,1
281314,-99.9999999999999,4,3,2,60,0,1
281640,-99.9999999999999,4,3,4,60,0,1
283922,-99.9999999999999,4,3,2,60,0,1
284248,-99.9999999999999,4,3,4,60,0,1
284574,-99.9999999999999,4,3,4,60,0,1
284656,-99.9999999999999,4,3,4,60,0,1
284901,-99.9999999999999,4,3,3,60,0,1
285064,-99.9999999999999,4,3,7,60,0,1
285227,-99.9999999999999,4,3,2,60,0,1
285553,-99.9999999999999,4,3,4,60,0,1
285716,-99.9999999999999,4,3,3,60,0,1
286368,-99.9999999999999,4,3,7,60,0,1
286531,-99.9999999999999,4,3,5,60,0,1
286694,-99.9999999999999,4,3,5,60,0,1
286938,-99.9999999999999,4,3,5,5,0,1
287020,-99.9999999999999,4,3,5,60,0,1
288242,-99.9999999999999,4,3,5,5,0,1
288324,-99.9999999999999,4,3,5,60,0,1
288488,-99.9999999999999,4,3,5,60,0,1
288651,-99.9999999999999,4,3,3,60,0,1
288814,-99.9999999999999,4,3,4,60,0,1
288977,-99.9999999999999,4,3,4,60,0,1
289140,-99.9999999999999,4,3,5,60,0,1
289221,-99.9999999999999,4,3,5,5,0,1
289303,-99.9999999999999,4,3,5,60,0,1
289792,-99.9999999999999,4,3,5,60,0,1
291422,-99.9999999999999,4,3,4,60,0,1
291585,-99.9999999999999,4,3,4,60,0,1
291748,-99.9999999999999,4,3,2,60,0,1
294357,-111.111111111111,4,3,3,60,0,0
295661,-125,4,3,2,60,0,0
296966,-125,4,3,11,60,0,0
299574,-125,4,3,2,60,0,0
302183,-125,4,3,2,5,0,0

[Colours]
Combo1 : 191,112,94
Combo2 : 242,214,162
Combo3 : 140,89,59
Combo4 : 217,179,145

[HitObjects]
79,289,553,6,0,L|75:320,5,16.6666666666667,0|0|0|0|0|0,2:2|2:2|2:2|2:2|2:2|2:2,0:0:0:0:
94,275,879,2,0,B|127:333|217:328|263:278|222:252|279:197|370:200|413:287,1,359.999989013672,4|0,1:3|2:2,0:0:0:0:
226,180,1857,6,0,P|247:163|266:160,2,40,0|0|0,2:0|2:0|2:0,2:0:0:0:
360,119,2509,2,0,P|385:127|398:141,2,40,0|0|0,2:0|2:0|2:0,2:0:0:0:
494,200,3161,2,0,P|501:225|496:244,1,40,0|0,2:0|2:0,2:0:0:0:
417,321,3488,6,0,P|396:278|417:170,1,160,2|0,2:3|2:2,0:0:0:0:
512,100,5118,2,0,B|472:109|472:109|428:95,2,80,0|0|0,2:2|2:2|2:2,0:0:0:0:
345,39,6096,6,0,B|275:-11|162:38|173:126|212:143|172:216|76:229|33:167|33:167|101:207|151:157,1,539.999983520508,0|0,2:2|2:2,0:0:0:0:
79,90,8379,1,0,2:2:0:0:
109,308,8705,6,0,B|60:295|15:341|15:341|63:258|142:258|190:311|168:330|226:374|301:364|344:299|344:299|305:241|347:146|452:142|526:224|463:312,1,825.000031471254,4|0,1:3|1:1,0:0:0:0:
452,326,10580,1,0,1:1:0:0:
452,326,10661,1,0,1:1:0:0:
385,365,10988,1,0,1:1:0:0:
270,248,11314,6,0,B|231:209|227:152|266:113|271:135|323:99|310:34|266:13|266:13|245:63|186:76|140:33,1,412.500012588501,4|0,1:3|0:0,0:0:0:0:
55,2,12618,6,0,P|70:17|81:45,1,37.5000014305115,4|0,1:3|0:0,0:0:0:0:
0,102,12781,2,0,P|5:81|24:57,1,37.5000014305115,0|0,2:2|0:0,0:0:0:0:
105,103,12944,2,0,B|141:129|163:176|140:221|92:248|45:228|45:228|99:267|144:228|131:220|167:194|219:199|252:238,1,412.500015735627,0|0,2:2|0:0,0:0:0:0:
263,285,13922,6,0,L|288:97,1,150,4|0,1:3|0:0,0:0:0:0:
286,111,14248,1,2,2:3:0:0:
296,98,14411,1,2,2:3:0:0:
460,32,14574,1,2,2:3:0:0:
401,217,14901,5,2,2:3:0:0:
396,199,15064,1,2,2:3:0:0:
289,19,15227,1,2,2:3:0:0:
228,56,15390,1,2,2:3:0:0:
147,1,15553,6,0,L|162:103,1,100,0|0,1:1|1:1,0:0:0:0:
167,124,15797,1,0,1:1:0:0:
167,124,15879,1,0,1:1:0:0:
50,48,16042,1,0,1:1:0:0:
107,196,16205,2,0,P|171:216|247:148,1,150,4|0,1:3|0:0,0:0:0:0:
261,129,16531,6,0,L|238:301,1,150,4|0,1:3|0:0,0:0:0:0:
231,301,16857,1,2,2:3:0:0:
216,312,17020,1,2,2:3:0:0:
426,366,17183,1,2,2:3:0:0:
278,214,17509,5,2,2:3:0:0:
128,324,17672,1,2,2:3:0:0:
113,326,17754,1,2,2:3:0:0:
98,328,17835,2,0,L|-5:343,1,100,2|0,2:3|2:2,0:0:0:0:
114,177,18161,5,2,2:3:0:0:
119,196,18324,1,2,2:3:0:0:
155,26,18488,1,2,2:3:0:0:
230,77,18651,1,2,2:3:0:0:
310,12,18814,2,0,B|328:62|328:62|309:110,1,100,2|0,2:3|2:2,0:0:0:0:
202,190,19140,6,0,B|251:147|328:165|351:221|344:238|386:288|463:299|513:219,1,349.999989318848,4|0,1:3|0:0,0:0:0:0:
435,186,20118,2,0,P|419:231|426:281,1,69.9999978637696,0|0,2:2|0:0,0:0:0:0:
351,352,20444,6,0,L|324:81,1,255.000004863739,4|0,1:3|0:0,0:0:0:0:
125,38,21096,2,0,L|98:309,1,255.000004863739,4|0,1:3|0:0,0:0:0:0:
150,365,21748,5,4,1:3:0:0:
343,249,21911,1,8,2:3:0:0:
132,174,22074,2,0,L|128:206,1,25,8|8,2:3|2:3,0:0:0:0:
352,241,22238,1,0,3:3:0:0:
190,286,22401,5,4,3:3:0:0:
243,85,22564,1,0,3:3:0:0:
247,70,22645,1,0,3:3:0:0:
252,55,22727,5,0,1:1:0:0:
290,86,22808,1,0,1:1:0:0:
335,88,22890,1,0,1:1:0:0:
371,73,22971,1,0,1:1:0:0:
395,28,23053,5,4,1:3:0:0:
374,42,23134,1,0,3:3:0:0:
362,64,23216,1,0,1:1:0:0:
360,88,23297,1,0,1:1:0:0:
366,112,23379,1,0,1:1:0:0:
381,131,23460,1,0,1:1:0:0:
403,141,23542,1,0,1:1:0:0:
427,141,23623,1,0,1:1:0:0:
464,107,23705,5,0,3:3:0:0:
445,99,23786,1,0,3:3:0:0:
425,101,23868,1,0,1:1:0:0:
408,111,23949,1,0,1:1:0:0:
396,127,24031,1,8,2:3:0:0:
369,141,24113,1,8,2:3:0:0:
329,141,24194,1,8,2:3:0:0:
286,113,24276,1,8,2:3:0:0:
278,53,24357,5,4,1:3:0:0:
328,54,24439,1,0,3:3:0:0:
367,84,24520,1,0,3:3:0:0:
375,133,24602,1,0,3:3:0:0:
353,177,24683,1,10,3:3:0:0:
309,201,24765,1,0,3:3:0:0:
259,194,24846,1,0,3:3:0:0:
224,156,24928,1,0,3:3:0:0:
210,108,25009,1,0,3:3:0:0:
167,80,25091,1,0,3:3:0:0:
117,81,25172,1,0,3:3:0:0:
73,106,25254,1,0,3:3:0:0:
58,153,25335,1,10,3:3:0:0:
69,201,25417,1,0,3:3:0:0:
103,236,25498,1,0,3:3:0:0:
152,244,25580,1,0,3:3:0:0:
195,219,25661,1,0,3:3:0:0:
237,192,25743,1,0,3:3:0:0:
286,198,25824,1,0,3:3:0:0:
321,233,25906,1,0,3:3:0:0:
328,282,25988,6,0,P|299:291|259:279,3,50,10|0|0|0,3:3|3:3|3:3|3:3,0:0:0:0:
233,354,26314,2,0,P|209:334|196:295,3,50,0|0|0|0,3:3|3:3|3:3|3:3,0:0:0:0:
128,323,26640,2,0,P|130:292|156:260,3,50,10|0|0|0,3:3|3:3|3:3|3:3,0:0:0:0:
143,112,26966,5,4,3:3:0:0:
188,73,27047,1,0,3:3:0:0:
248,69,27129,1,0,3:3:0:0:
299,99,27210,1,0,3:3:0:0:
318,156,27292,1,10,3:3:0:0:
361,197,27373,1,0,3:3:0:0:
420,208,27455,1,0,3:3:0:0:
474,184,27536,1,0,3:3:0:0:
500,130,27618,1,0,3:3:0:0:
490,76,27699,1,0,3:3:0:0:
451,43,27781,1,0,3:3:0:0:
406,36,27863,1,0,3:3:0:0:
369,50,27944,1,10,3:3:0:0:
355,82,28026,1,0,3:3:0:0:
361,111,28107,1,0,3:3:0:0:
380,127,28189,1,0,3:3:0:0:
399,130,28270,5,12,3:3:0:0:
387,70,28352,1,0,3:3:0:0:
334,42,28433,1,0,3:3:0:0:
274,50,28515,1,0,3:3:0:0:
237,97,28596,1,0,3:3:0:0:
236,157,28678,1,0,3:3:0:0:
276,200,28759,1,0,3:3:0:0:
325,208,28841,1,0,3:3:0:0:
360,190,28922,5,12,3:3:0:0:
341,162,29004,1,0,3:3:0:0:
314,148,29085,1,0,3:3:0:0:
283,149,29167,1,0,3:3:0:0:
256,162,29248,1,0,3:3:0:0:
236,184,29330,1,0,3:3:0:0:
207,192,29411,1,0,3:3:0:0:
178,183,29493,1,0,3:3:0:0:
156,162,29574,5,4,3:3:0:0:
203,124,29656,1,0,3:3:0:0:
261,137,29738,1,0,3:3:0:0:
293,187,29819,1,0,3:3:0:0:
295,247,29901,1,10,3:3:0:0:
327,296,29982,1,0,3:3:0:0:
381,322,30064,1,0,3:3:0:0:
437,303,30145,1,0,3:3:0:0:
467,251,30227,1,0,3:3:0:0:
446,195,30308,1,0,3:3:0:0:
393,164,30390,1,0,3:3:0:0:
378,106,30471,1,0,3:3:0:0:
409,54,30553,1,10,3:3:0:0:
463,48,30634,1,0,3:3:0:0:
504,76,30716,1,0,3:3:0:0:
507,120,30797,1,0,3:3:0:0:
488,155,30879,6,0,P|452:142|435:121,3,50,0|0|0|0,3:3|3:3|3:3|3:3,0:0:0:0:
299,222,31205,2,0,P|335:209|352:188,3,50,10|0|0|0,3:3|3:3|3:3|3:3,0:0:0:0:
190,164,31531,5,2,3:3:0:0:
176,185,31613,1,0,3:3:0:0:
173,209,31694,2,0,P|172:229|208:273,1,50,0|0,3:3|3:3,0:0:0:0:
278,112,31857,5,10,3:3:0:0:
266,89,31939,1,0,3:3:0:0:
247,74,32020,2,0,P|230:63|174:72,1,50,0|0,3:3|3:3,0:0:0:0:
48,214,32183,5,4,3:3:0:0:
75,278,32265,1,0,3:3:0:0:
135,312,32346,1,0,3:3:0:0:
204,304,32428,1,0,3:3:0:0:
250,252,32509,1,0,3:3:0:0:
261,182,32591,1,0,3:3:0:0:
229,120,32672,1,0,3:3:0:0:
161,99,32754,1,0,3:3:0:0:
99,131,32835,5,12,3:3:0:0:
141,193,32917,1,0,3:3:0:0:
214,205,32998,1,0,3:3:0:0:
284,177,33080,1,0,3:3:0:0:
321,112,33161,1,0,3:3:0:0:
389,79,33243,1,0,3:3:0:0:
462,93,33324,1,0,3:3:0:0:
504,155,33406,1,0,3:3:0:0:
499,230,33488,2,0,P|470:235|421:217,1,50,12|0,3:3|3:3,0:0:0:0:
368,333,33651,2,0,P|347:311|335:261,1,50,0|0,3:3|3:3,0:0:0:0:
234,135,33814,5,0,3:3:0:0:
198,99,33895,1,0,3:3:0:0:
148,88,33977,1,0,3:3:0:0:
101,105,34058,1,0,3:3:0:0:
74,147,34140,1,4,1:3:0:0:
74,191,34221,1,0,1:1:0:0:
99,228,34303,1,0,1:1:0:0:
139,247,34384,1,0,1:1:0:0:
182,236,34466,1,0,1:1:0:0:
203,202,34547,1,0,1:1:0:0:
196,167,34629,1,0,1:1:0:0:
169,152,34710,1,0,1:1:0:0:
144,156,34792,6,0,L|126:268,1,100,4|0,3:3|3:3,0:0:0:0:
296,184,35036,1,0,3:3:0:0:
296,184,35118,2,0,L|285:120,1,50,8|0,3:3|0:0,0:0:0:0:
227,81,35281,2,0,L|237:17,1,50,0|0,3:3|3:3,0:0:0:0:
383,18,35444,6,0,L|403:140,1,100,0|0,3:3|3:3,0:0:0:0:
407,144,35689,1,0,3:3:0:0:
407,144,35770,1,8,3:3:0:0:
337,286,35933,5,0,3:3:0:0:
337,286,36015,1,0,3:3:0:0:
337,286,36096,2,0,B|284:304|284:304|216:285,1,100,2|0,3:3|3:3,0:0:0:0:
123,233,36341,1,0,3:3:0:0:
123,233,36422,2,0,L|59:244,1,50,8|0,3:3|0:0,0:0:0:0:
16,357,36585,2,0,L|80:368,1,50,0|0,3:3|3:3,0:0:0:0:
190,170,36748,6,0,B|206:119|206:119|190:54,1,100,4|0,3:3|3:3,0:0:0:0:
45,61,36993,1,0,3:3:0:0:
45,61,37074,2,0,B|81:100|81:100|145:119,1,100,12|0,3:3|3:3,0:0:0:0:
306,53,37319,1,0,3:3:0:0:
306,53,37401,2,0,L|363:44,1,50,4|0,3:3|0:0,0:0:0:0:
496,146,37564,2,0,L|439:137,1,50,0|0,3:3|3:3,0:0:0:0:
352,215,37727,6,0,B|340:268|340:268|357:329,1,100,8|0,3:3|3:3,0:0:0:0:
507,305,37971,1,0,3:3:0:0:
507,305,38053,2,0,P|451:266|397:271,1,100,2|0,3:3|3:3,0:0:0:0:
188,384,38297,1,0,3:3:0:0:
188,384,38379,2,0,P|249:355|272:305,1,100,10|0,3:3|3:3,0:0:0:0:
268,72,38623,1,0,3:3:0:0:
268,72,38705,6,0,P|262:139|293:184,1,100,2|0,3:3|3:3,0:0:0:0:
357,239,38949,1,0,3:3:0:0:
357,239,39031,2,0,L|246:253,1,100,8|0,3:3|3:3,0:0:0:0:
79,177,39276,1,0,3:3:0:0:
79,177,39357,2,0,L|190:191,1,100,0|0,3:3|3:3,0:0:0:0:
206,194,39602,1,0,3:3:0:0:
206,194,39683,1,12,3:3:0:0:
68,318,39846,5,0,3:3:0:0:
68,318,39928,1,0,3:3:0:0:
68,318,40009,1,4,3:3:0:0:
107,286,40091,1,0,3:3:0:0:
156,284,40172,1,0,3:3:0:0:
201,305,40254,1,0,3:3:0:0:
229,345,40335,1,8,3:3:0:0:
278,352,40417,1,0,3:3:0:0:
321,328,40498,1,0,3:3:0:0:
338,280,40580,1,0,3:3:0:0:
318,234,40661,2,0,P|287:247|264:275,3,50,8|0|0|0,3:3|3:3|3:3|3:3,0:0:0:0:
418,318,40988,2,0,P|422:284|409:250,3,50,8|0|0|0,3:3|3:3|3:3|3:3,0:0:0:0:
349,153,41314,5,8,3:3:0:0:
310,121,41395,1,0,3:3:0:0:
259,116,41477,1,0,3:3:0:0:
216,141,41558,1,0,3:3:0:0:
186,181,41640,1,8,3:3:0:0:
137,190,41721,1,0,3:3:0:0:
90,170,41803,1,0,3:3:0:0:
63,128,41884,1,0,3:3:0:0:
71,78,41966,5,8,3:3:0:0:
93,88,42047,1,0,3:3:0:0:
106,108,42129,1,0,3:3:0:0:
110,132,42210,1,0,3:3:0:0:
105,156,42292,1,8,3:3:0:0:
88,174,42373,1,0,3:3:0:0:
65,185,42455,1,0,3:3:0:0:
45,184,42536,1,0,3:3:0:0:
32,176,42618,5,12,3:3:0:0:
84,138,42699,1,0,3:3:0:0:
148,146,42781,1,0,3:3:0:0:
193,193,42863,1,0,3:3:0:0:
208,255,42944,1,0,3:3:0:0:
251,304,43026,1,0,3:3:0:0:
314,313,43107,1,0,3:3:0:0:
374,287,43189,1,0,3:3:0:0:
399,227,43270,1,4,3:3:0:0:
382,163,43352,1,0,3:3:0:0:
324,134,43433,1,0,3:3:0:0:
259,142,43515,1,0,3:3:0:0:
223,195,43596,1,0,3:3:0:0:
235,248,43678,1,0,3:3:0:0:
274,278,43759,1,0,3:3:0:0:
319,274,43841,1,0,3:3:0:0:
344,243,43922,5,0,1:1:0:0:
310,181,44004,1,0,1:1:0:0:
247,163,44085,1,0,1:1:0:0:
190,184,44167,1,0,1:1:0:0:
155,226,44248,1,0,1:1:0:0:
106,237,44330,1,0,1:1:0:0:
64,219,44411,1,0,1:1:0:0:
44,183,44493,1,0,1:1:0:0:
46,148,44574,2,0,L|106:138,1,50,0|0,1:1|1:1,0:0:0:0:
286,173,44738,5,8,2:3:0:0:
329,227,44819,1,8,2:3:0:0:
314,285,44901,1,0,1:1:0:0:
276,317,44982,1,0,1:1:0:0:
230,321,45064,1,0,1:1:0:0:
199,296,45145,1,0,1:1:0:0:
191,261,45227,6,0,B|267:216|331:255|350:314|333:317|362:372|457:398|505:327,1,359.999989013672,6|0,2:3|0:0,0:0:0:0:
509,331,46286,1,0,3:3:0:0:
509,331,46368,1,0,3:3:0:0:
509,330,46449,1,0,3:3:0:0:
509,330,46531,1,12,2:3:0:0:
321,119,46939,5,0,3:3:0:0:
321,119,47020,1,0,3:3:0:0:
321,119,47102,1,0,3:3:0:0:
321,119,47183,1,12,2:3:0:0:
192,203,47428,1,0,1:1:0:0:
206,206,47509,1,0,0:0:0:0:
102,119,47672,1,0,1:1:0:0:
87,121,47754,1,0,0:0:0:0:
67,124,47835,6,0,L|50:240,1,100,4|0,2:3|3:3,0:0:0:0:
51,251,48080,1,0,3:3:0:0:
51,251,48161,1,10,3:3:0:0:
129,348,48324,5,0,3:3:0:0:
129,348,48406,1,0,3:3:0:0:
129,348,48488,2,0,L|181:357,1,50,2|0,3:3|0:0,0:0:0:0:
259,292,48651,1,0,3:3:0:0:
259,292,48733,1,0,3:3:0:0:
259,292,48815,2,0,L|311:283,1,50,10|0,3:3|0:0,0:0:0:0:
426,363,48977,5,0,3:3:0:0:
405,349,49058,1,0,3:3:0:0:
391,327,49140,2,0,P|382:287|409:234,1,100,2|0,3:3|3:3,0:0:0:0:
432,228,49384,1,0,3:3:0:0:
432,228,49466,1,10,3:3:0:0:
505,131,49629,5,0,3:3:0:0:
480,127,49710,1,0,3:3:0:0:
455,123,49792,2,0,L|346:103,1,100,2|0,3:3|3:3,0:0:0:0:
332,99,50036,1,0,3:3:0:0:
332,99,50118,1,10,3:3:0:0:
150,175,50281,5,0,3:3:0:0:
125,181,50363,1,0,3:3:0:0:
100,177,50444,2,0,P|66:157|51:87,1,100,2|0,3:3|3:3,0:0:0:0:
57,80,50689,1,0,3:3:0:0:
57,80,50770,1,10,3:3:0:0:
255,15,50933,5,0,3:3:0:0:
279,17,51015,1,0,3:3:0:0:
299,30,51096,2,0,P|311:43|323:84,1,50,2|0,3:3|0:0,0:0:0:0:
251,233,51259,5,0,3:3:0:0:
240,211,51341,1,0,3:3:0:0:
241,187,51422,2,0,P|246:169|276:138,1,50,10|0,3:3|0:0,0:0:0:0:
467,182,51585,5,0,3:3:0:0:
447,197,51667,1,0,3:3:0:0:
422,201,51748,2,0,P|392:198|342:138,1,100,2|0,3:3|3:3,0:0:0:0:
344,129,51993,1,0,3:3:0:0:
344,129,52074,1,10,3:3:0:0:
448,288,52238,5,0,3:3:0:0:
437,310,52319,1,0,3:3:0:0:
416,324,52401,2,0,P|389:333|345:317,1,50,2|0,3:3|0:0,0:0:0:0:
297,224,52564,5,0,3:3:0:0:
286,202,52645,1,0,3:3:0:0:
265,188,52727,2,0,P|238:179|194:195,1,50,10|0,3:3|0:0,0:0:0:0:
108,331,52890,5,0,3:3:0:0:
132,327,52971,1,0,3:3:0:0:
156,323,53053,2,0,L|261:307,1,100,4|0,3:3|3:3,0:0:0:0:
279,303,53297,1,0,3:3:0:0:
279,303,53379,1,10,3:3:0:0:
392,363,53542,5,0,3:3:0:0:
392,363,53623,1,0,3:3:0:0:
392,363,53705,2,0,L|403:299,1,50,2|0,3:3|0:0,0:0:0:0:
476,254,53868,5,0,3:3:0:0:
476,254,53949,1,0,3:3:0:0:
476,254,54031,2,0,L|465:190,1,50,10|0,3:3|0:0,0:0:0:0:
398,104,54194,5,0,3:3:0:0:
380,86,54276,1,0,3:3:0:0:
357,74,54357,2,0,P|301:74|267:103,1,100,2|0,3:3|3:3,0:0:0:0:
260,126,54602,1,0,3:3:0:0:
260,126,54683,1,10,3:3:0:0:
143,230,54846,5,0,3:3:0:0:
145,205,54928,1,0,3:3:0:0:
147,180,55009,2,0,L|162:62,1,100,2|0,3:3|3:3,0:0:0:0:
164,59,55254,1,0,3:3:0:0:
164,59,55335,1,10,3:3:0:0:
20,262,55498,5,0,3:3:0:0:
35,281,55580,1,0,3:3:0:0:
57,292,55661,2,0,P|84:298|136:282,1,50,2|0,3:3|0:0,0:0:0:0:
194,355,55824,2,0,P|214:335|229:283,1,50,0|0,3:3|3:3,0:0:0:0:
325,258,55988,6,0,L|341:137,1,100,10|0,3:3|3:3,0:0:0:0:
342,134,56232,1,0,3:3:0:0:
342,134,56314,1,2,3:3:0:0:
170,149,56477,5,0,3:3:0:0:
187,165,56558,1,0,3:3:0:0:
209,174,56640,2,0,P|241:174|271:160,1,50,10|0,3:3|0:0,0:0:0:0:
367,49,56803,5,0,3:3:0:0:
384,33,56884,1,0,3:3:0:0:
406,24,56966,2,0,P|438:23|468:37,1,50,4|0,3:3|0:0,0:0:0:0:
505,177,57129,5,0,3:3:0:0:
505,177,57210,1,0,3:3:0:0:
505,177,57292,1,10,3:3:0:0:
216,88,57455,1,0,3:3:0:0:
326,205,57618,5,4,3:3:0:0:
222,75,57781,2,0,L|106:90,1,104.999996795654,0|0,3:3|0:0,0:0:0:0:
17,175,58107,5,8,2:3:0:0:
41,180,58189,1,8,2:3:0:0:
64,185,58270,2,0,L|166:204,1,100,4|0,3:3|3:3,0:0:0:0:
187,206,58515,1,0,3:3:0:0:
187,206,58596,1,10,3:3:0:0:
295,345,58759,5,0,3:3:0:0:
282,323,58841,1,0,3:3:0:0:
279,298,58922,2,0,P|286:264|341:219,1,100,2|0,3:3|3:3,0:0:0:0:
452,306,59167,1,0,3:3:0:0:
452,306,59248,2,0,P|419:316|352:291,1,100,10|0,3:3|3:3,0:0:0:0:
259,166,59493,1,0,3:3:0:0:
261,141,59574,6,0,L|275:22,1,100,2|0,3:3|3:3,0:0:0:0:
276,20,59819,1,0,3:3:0:0:
276,20,59901,1,10,3:3:0:0:
467,122,60064,5,0,3:3:0:0:
448,105,60145,1,0,3:3:0:0:
424,96,60227,2,0,P|380:91|329:119,1,100,2|0,3:3|3:3,0:0:0:0:
189,213,60471,1,0,3:3:0:0:
165,222,60553,2,0,P|121:227|70:199,1,100,10|0,3:3|3:3,0:0:0:0:
25,78,60797,1,0,3:3:0:0:
34,54,60879,5,12,3:3:0:0:
89,31,60960,1,0,3:3:0:0:
147,47,61042,1,0,3:3:0:0:
175,99,61123,1,0,3:3:0:0:
192,156,61205,1,0,3:3:0:0:
240,190,61286,1,0,3:3:0:0:
299,199,61368,1,0,3:3:0:0:
349,167,61449,1,0,3:3:0:0:
367,109,61531,5,12,3:3:0:0:
308,92,61613,1,0,3:3:0:0:
253,115,61694,1,0,3:3:0:0:
225,168,61776,1,0,3:3:0:0:
236,226,61857,1,0,3:3:0:0:
278,268,61939,1,0,3:3:0:0:
336,281,62020,1,0,3:3:0:0:
389,253,62102,1,0,3:3:0:0:
414,199,62183,5,12,3:3:0:0:
356,179,62265,1,0,3:3:0:0:
299,197,62346,1,0,3:3:0:0:
267,248,62428,1,0,3:3:0:0:
241,301,62509,1,0,3:3:0:0:
185,325,62591,1,0,3:3:0:0:
127,310,62672,1,0,3:3:0:0:
102,254,62754,1,0,3:3:0:0:
119,197,62835,5,12,3:3:0:0:
162,221,62917,1,0,3:3:0:0:
170,269,62998,1,0,3:3:0:0:
143,311,63080,1,0,3:3:0:0:
98,332,63161,5,8,2:3:0:0:
120,270,63243,1,8,2:3:0:0:
177,241,63324,1,8,2:3:0:0:
241,248,63406,1,8,2:3:0:0:
289,291,63488,6,0,P|331:315|407:297,1,100,4|0,3:3|3:3,0:0:0:0:
366,116,63732,1,0,3:3:0:0:
366,116,63814,2,0,P|324:140|301:215,1,100,10|2,3:3|3:3,0:0:0:0:
496,261,64058,1,0,3:3:0:0:
496,261,64140,2,0,P|495:212|442:155,1,100,2|2,3:3|3:3,0:0:0:0:
285,299,64384,1,0,3:3:0:0:
285,299,64466,2,0,P|327:323|403:305,1,100,10|2,3:3|3:3,0:0:0:0:
316,151,64710,1,0,3:3:0:0:
291,147,64792,6,0,L|176:129,1,100,2|2,3:3|3:3,0:0:0:0:
171,129,65036,1,0,3:3:0:0:
171,129,65118,1,10,2:3:0:0:
41,282,65281,5,2,3:3:0:0:
66,279,65363,1,0,3:3:0:0:
91,275,65445,2,0,L|206:257,1,100,2|2,3:3|3:3,0:0:0:0:
211,257,65689,1,0,3:3:0:0:
211,257,65771,1,10,3:3:0:0:
328,32,65933,5,2,3:3:0:0:
328,32,66015,1,0,3:3:0:0:
328,32,66096,1,4,3:3:0:0:
385,13,66178,1,0,3:3:0:0:
442,28,66259,1,0,3:3:0:0:
478,76,66341,1,0,3:3:0:0:
482,135,66422,1,0,3:3:0:0:
447,184,66504,1,0,3:3:0:0:
391,206,66585,1,0,3:3:0:0:
333,188,66667,1,0,3:3:0:0:
309,133,66748,5,12,3:3:0:0:
368,125,66830,1,0,3:3:0:0:
420,152,66911,1,0,3:3:0:0:
445,206,66993,1,0,3:3:0:0:
436,265,67074,1,0,3:3:0:0:
394,308,67156,1,0,3:3:0:0:
334,316,67238,1,0,3:3:0:0:
284,282,67319,1,0,3:3:0:0:
269,223,67401,5,0,1:1:0:0:
333,228,67482,1,8,2:3:0:0:
374,278,67564,1,8,2:3:0:0:
369,342,67645,1,8,2:3:0:0:
312,374,67727,1,0,1:1:0:0:
265,355,67808,1,0,1:1:0:0:
243,315,67890,1,0,1:1:0:0:
220,281,67971,1,0,1:1:0:0:
185,272,68053,1,0,1:1:0:0:
156,280,68134,1,0,1:1:0:0:
140,299,68216,1,0,1:1:0:0:
137,318,68297,1,0,1:1:0:0:
141,337,68379,2,0,P|160:349|202:348,3,50,0|0|0|0,1:1|1:1|1:1|1:1,0:0:0:0:
280,213,68705,5,4,3:3:0:0:
249,173,68786,1,0,3:3:0:0:
200,160,68868,1,0,3:3:0:0:
151,172,68949,1,0,3:3:0:0:
115,207,69031,1,10,3:3:0:0:
65,215,69113,1,0,3:3:0:0:
21,191,69194,1,0,3:3:0:0:
1,144,69276,1,0,3:3:0:0:
14,96,69357,1,0,3:3:0:0:
54,66,69439,1,0,3:3:0:0:
103,63,69520,1,0,3:3:0:0:
147,85,69602,1,0,3:3:0:0:
170,128,69683,1,10,3:3:0:0:
169,178,69765,1,0,3:3:0:0:
145,221,69846,1,0,3:3:0:0:
100,244,69928,1,0,3:3:0:0:
50,236,70009,5,0,3:3:0:0:
69,189,70091,1,0,3:3:0:0:
111,163,70172,1,0,3:3:0:0:
161,163,70254,1,0,3:3:0:0:
203,188,70335,1,10,3:3:0:0:
230,229,70417,1,0,3:3:0:0:
275,248,70498,1,0,3:3:0:0:
324,239,70580,1,0,3:3:0:0:
355,200,70661,5,0,3:3:0:0:
314,201,70743,1,0,3:3:0:0:
282,225,70824,1,0,3:3:0:0:
273,264,70906,1,0,3:3:0:0:
282,303,70988,1,10,3:3:0:0:
312,329,71069,1,0,3:3:0:0:
350,341,71151,1,0,3:3:0:0:
389,333,71232,1,0,3:3:0:0:
416,303,71314,5,0,3:3:0:0:
380,267,71395,1,0,3:3:0:0:
330,261,71477,1,0,3:3:0:0:
283,279,71558,1,0,3:3:0:0:
247,314,71640,1,10,3:3:0:0:
198,326,71721,1,0,3:3:0:0:
149,314,71803,1,0,3:3:0:0:
118,274,71884,1,0,3:3:0:0:
111,224,71966,1,0,3:3:0:0:
130,178,72047,1,0,3:3:0:0:
172,150,72129,1,0,3:3:0:0:
221,151,72210,1,0,3:3:0:0:
263,178,72292,1,10,3:3:0:0:
272,221,72373,1,0,3:3:0:0:
255,257,72455,1,0,3:3:0:0:
223,270,72536,1,0,3:3:0:0:
194,259,72618,5,0,3:3:0:0:
218,215,72699,1,0,3:3:0:0:
264,196,72781,1,0,3:3:0:0:
314,199,72863,1,0,3:3:0:0:
350,232,72944,1,10,3:3:0:0:
384,268,73026,1,0,3:3:0:0:
432,277,73107,1,0,3:3:0:0:
478,258,73189,1,0,3:3:0:0:
501,214,73270,5,0,3:3:0:0:
482,197,73352,1,0,3:3:0:0:
458,190,73433,1,0,3:3:0:0:
433,192,73515,1,0,3:3:0:0:
411,204,73596,2,0,P|395:219|388:262,3,50,10|0|0|0,3:3|3:3|3:3|3:3,0:0:0:0:
417,98,73922,5,4,3:3:0:0:
374,55,74004,1,0,3:3:0:0:
314,48,74085,1,0,3:3:0:0:
258,71,74167,1,0,3:3:0:0:
233,125,74248,1,0,3:3:0:0:
240,184,74330,1,0,3:3:0:0:
281,226,74411,1,0,3:3:0:0:
340,237,74493,1,0,3:3:0:0:
394,211,74574,5,12,3:3:0:0:
357,162,74656,1,0,3:3:0:0:
300,141,74738,1,0,3:3:0:0:
242,156,74819,1,0,3:3:0:0:
201,200,74901,1,0,3:3:0:0:
149,230,74982,1,0,3:3:0:0:
88,228,75064,1,0,3:3:0:0:
47,184,75145,1,0,3:3:0:0:
47,123,75227,5,12,3:3:0:0:
102,102,75308,1,0,3:3:0:0:
160,116,75390,1,0,3:3:0:0:
197,162,75471,1,0,3:3:0:0:
201,222,75553,1,0,3:3:0:0:
174,275,75634,1,0,3:3:0:0:
121,304,75716,1,0,3:3:0:0:
61,298,75797,1,0,3:3:0:0:
15,258,75879,5,12,3:3:0:0:
62,222,75960,1,0,3:3:0:0:
122,225,76042,1,0,3:3:0:0:
170,259,76123,1,0,3:3:0:0:
195,313,76205,1,0,3:3:0:0:
247,341,76286,1,0,3:3:0:0:
307,337,76368,1,0,3:3:0:0:
352,298,76449,1,0,3:3:0:0:
368,239,76531,2,0,P|367:204|338:169,1,50,4|0,3:3|3:3,0:0:0:0:
410,105,76694,2,0,P|380:86|335:90,1,50,0|0,3:3|3:3,0:0:0:0:
254,19,76857,5,8,3:3:0:0:
190,4,76939,1,0,3:3:0:0:
130,29,77020,1,0,3:3:0:0:
109,91,77102,1,0,3:3:0:0:
129,152,77183,1,0,3:3:0:0:
189,175,77265,1,0,3:3:0:0:
241,213,77346,1,0,3:3:0:0:
252,277,77428,1,0,3:3:0:0:
207,323,77509,5,8,3:3:0:0:
161,269,77591,1,8,2:3:0:0:
178,201,77672,1,8,2:3:0:0:
240,168,77754,1,8,2:3:0:0:
307,183,77835,1,0,1:1:0:0:
313,191,77917,2,0,L|320:245,2,50,0|0|0,1:1|1:1|1:1,0:0:0:0:
403,234,78161,2,0,L|396:288,3,50,0|0|0|0,1:1|1:1|1:1|1:1,0:0:0:0:
311,347,78488,5,0,1:1:0:0:
380,69,78651,1,0,1:1:0:0:
478,265,78814,1,0,1:1:0:0:
277,118,78977,5,0,3:3:0:0:
277,118,79058,1,0,3:3:0:0:
277,118,79140,2,0,B|241:87|241:87|78:121,1,200,4|10,2:3|2:3,0:0:0:0:
21,222,79629,1,0,3:3:0:0:
25,246,79710,1,0,3:3:0:0:
29,270,79792,2,0,L|42:374,1,100,2|0,3:3|3:3,0:0:0:0:
207,268,80118,2,0,L|220:164,1,100,10|0,3:3|3:3,0:0:0:0:
144,344,80444,5,2,3:3:0:0:
274,98,80607,1,0,3:3:0:0:
400,316,80770,2,0,B|350:331|350:331|284:311,1,100,10|0,3:3|3:3,0:0:0:0:
284,311,81015,1,0,3:3:0:0:
284,311,81096,1,2,3:3:0:0:
475,257,81259,5,0,3:3:0:0:
211,212,81422,1,10,3:3:0:0:
392,117,81585,1,0,3:3:0:0:
392,117,81667,1,0,3:3:0:0:
392,117,81748,2,0,B|356:93|356:93|174:117,1,200,4|10,3:3|3:3,0:0:0:0:
95,207,82238,5,0,3:3:0:0:
90,182,82319,1,0,3:3:0:0:
85,157,82401,2,0,L|66:47,1,100,2|0,3:3|3:3,0:0:0:0:
302,190,82727,2,0,L|321:80,1,100,10|0,3:3|3:3,0:0:0:0:
111,288,83053,5,2,3:3:0:0:
166,93,83216,1,0,1:1:0:0:
220,212,83379,1,8,1:3:0:0:
11,143,83542,1,0,1:1:0:0:
225,203,83705,5,0,1:1:0:0:
4,261,83868,1,0,1:1:0:0:
198,323,84031,1,0,1:1:0:0:
108,207,84194,1,8,2:3:0:0:
108,207,84276,1,8,2:3:0:0:
108,207,84357,5,4,3:3:0:0:
146,174,84439,1,0,3:3:0:0:
195,173,84520,1,0,3:3:0:0:
240,194,84602,1,0,3:3:0:0:
255,246,84683,5,8,3:3:0:0:
295,275,84765,1,0,3:3:0:0:
343,283,84846,1,0,3:3:0:0:
387,260,84928,1,0,3:3:0:0:
410,216,85009,1,0,3:3:0:0:
405,165,85091,1,0,3:3:0:0:
368,131,85172,5,8,3:3:0:0:
340,172,85254,1,0,3:3:0:0:
354,219,85335,1,0,3:3:0:0:
396,246,85417,1,0,3:3:0:0:
445,246,85498,1,0,3:3:0:0:
484,214,85580,1,0,3:3:0:0:
486,164,85661,5,12,3:3:0:0:
430,162,85743,1,0,3:3:0:0:
382,189,85824,1,0,3:3:0:0:
359,239,85906,1,0,3:3:0:0:
314,272,85988,1,0,3:3:0:0:
259,268,86069,1,0,3:3:0:0:
226,223,86151,5,12,3:3:0:0:
274,198,86232,1,0,3:3:0:0:
328,207,86314,1,0,3:3:0:0:
361,250,86395,1,0,3:3:0:0:
366,305,86477,1,0,3:3:0:0:
340,353,86558,1,0,3:3:0:0:
289,375,86640,2,0,P|280:339|295:299,3,50,12|0|0|0,3:3|3:3|3:3|3:3,0:0:0:0:
208,124,86966,5,12,2:3:0:0:
157,93,87047,1,8,2:3:0:0:
96,98,87129,1,8,2:3:0:0:
56,142,87210,1,8,2:3:0:0:
48,201,87292,1,8,2:3:0:0:
73,249,87373,1,8,2:3:0:0:
121,275,87455,1,8,2:3:0:0:
175,266,87536,1,8,2:3:0:0:
209,222,87618,1,8,2:3:0:0:
249,193,87699,1,0,3:3:0:0:
294,190,87781,1,0,1:1:0:0:
330,207,87863,1,0,1:1:0:0:
347,237,87944,1,0,1:1:0:0:
348,267,88026,1,0,1:1:0:0:
337,289,88107,1,0,1:1:0:0:
320,300,88189,1,0,1:1:0:0:
305,302,88270,6,0,L|299:266,1,25,8|8,2:3|2:3,0:0:0:0:
272,58,88433,1,0,1:1:0:0:
171,197,88596,2,0,P|118:217|56:188,1,100,0|0,3:3|1:1,0:0:0:0:
64,191,88841,1,0,1:1:0:0:
64,191,88922,1,4,3:3:0:0:
136,307,89085,5,0,1:1:0:0:
205,346,89248,1,0,3:3:0:0:
280,318,89411,1,0,1:1:0:0:
334,156,89574,6,0,B|361:150|377:133|377:133|347:288,1,200,4|0,2:3|3:3,0:0:0:0:
336,258,89982,1,0,3:3:0:0:
317,241,90064,1,0,3:3:0:0:
293,233,90145,1,0,3:3:0:0:
267,235,90227,2,0,B|219:228|198:265|206:270|166:301|103:274,1,150,8|0,2:3|0:0,0:0:0:0:
110,269,90553,1,0,3:3:0:0:
189,72,90716,1,0,3:3:0:0:
274,337,90879,5,0,3:3:0:0:
401,234,91042,2,0,L|424:44,1,150,8|0,2:3|0:0,0:0:0:0:
499,41,91368,1,0,3:3:0:0:
331,182,91531,2,0,P|263:182|213:108,1,150,8|0,2:3|0:0,0:0:0:0:
174,0,91857,2,0,P|208:58|168:139,1,150,4|0,3:3|0:0,0:0:0:0:
52,143,92183,6,0,B|66:222|66:222|98:253|98:253|116:348,1,200,4|0,3:3|3:3,0:0:0:0:
129,309,92591,1,0,3:3:0:0:
152,301,92672,1,0,3:3:0:0:
177,303,92754,1,0,3:3:0:0:
198,311,92835,2,0,P|258:345|346:289,1,150,8|0,2:3|0:0,0:0:0:0:
339,294,93161,1,0,3:3:0:0:
160,384,93324,1,0,3:3:0:0:
237,191,93488,5,0,3:3:0:0:
350,378,93651,1,8,2:3:0:0:
385,226,93814,1,0,1:1:0:0:
315,290,93977,1,0,1:1:0:0:
453,368,94140,5,8,2:3:0:0:
403,98,94303,1,0,1:1:0:0:
305,275,94466,1,0,1:1:0:0:
327,143,94629,1,0,1:1:0:0:
225,233,94792,6,0,B|154:259|130:198|143:201|111:152|35:176,1,200,4|0,2:3|3:3,0:0:0:0:
28,186,95199,1,0,3:3:0:0:
33,161,95281,1,0,3:3:0:0:
39,136,95363,1,0,3:3:0:0:
45,112,95444,2,0,B|78:88|78:88|203:121,1,150,8|0,2:3|0:0,0:0:0:0:
207,123,95770,1,0,3:3:0:0:
269,305,95933,1,0,3:3:0:0:
362,94,96096,5,0,3:3:0:0:
422,137,96259,2,0,B|431:147|450:156|450:156|313:175,1,150,2|0,2:3|0:0,0:0:0:0:
310,174,96585,1,0,3:3:0:0:
189,251,96748,6,0,P|173:305|226:370,1,100,8|0,2:3|0:0,0:0:0:0:
354,367,97074,2,0,P|369:320|353:274,1,100,0|0,3:3|0:0,0:0:0:0:
218,155,97401,5,4,2:3:0:0:
221,174,97564,1,0,0:0:0:0:
165,83,97727,1,0,1:1:0:0:
121,238,97890,1,0,1:1:0:0:
63,51,98053,5,0,1:1:0:0:
112,245,98216,1,0,1:1:0:0:
216,29,98379,2,0,L|320:42,1,100,0|0,1:1|1:1,0:0:0:0:
331,60,98623,1,0,1:1:0:0:
331,60,98705,1,0,1:1:0:0:
503,21,98868,5,0,1:1:0:0:
421,0,99031,1,0,1:1:0:0:
327,150,99194,5,0,1:1:0:0:
331,174,99276,1,0,1:1:0:0:
335,198,99357,2,0,L|348:283,1,50,8|0,2:3|0:0,0:0:0:0:
489,191,99520,5,0,1:1:0:0:
493,168,99602,1,0,1:1:0:0:
497,144,99683,2,0,L|510:59,1,50,0|0,1:1|0:0,0:0:0:0:
448,299,99846,5,0,1:1:0:0:
451,323,99928,1,0,1:1:0:0:
454,347,100009,2,0,B|396:401|275:404|240:280|279:278|238:170|107:184|69:264|69:264|116:215|178:214|219:263,1,645.000009841919,4|0,2:3|0:0,0:0:0:0:
122,318,102618,5,4,1:3:0:0:
76,336,102699,1,0,3:3:0:0:
27,323,102781,1,0,3:3:0:0:
0,280,102863,1,0,3:3:0:0:
3,230,102944,1,10,3:3:0:0:
34,190,103026,1,0,3:3:0:0:
81,174,103107,1,0,3:3:0:0:
129,186,103189,1,0,3:3:0:0:
161,223,103270,1,2,3:3:0:0:
210,229,103352,1,0,3:3:0:0:
254,207,103433,1,0,3:3:0:0:
274,161,103515,1,0,3:3:0:0:
262,112,103596,1,10,3:3:0:0:
223,79,103678,1,0,3:3:0:0:
173,82,103759,1,0,3:3:0:0:
137,117,103841,1,0,3:3:0:0:
140,166,103922,1,2,3:3:0:0:
171,198,104004,1,0,3:3:0:0:
210,198,104085,1,0,3:3:0:0:
238,177,104167,1,0,3:3:0:0:
243,147,104248,6,0,P|214:145|180:159,3,50,10|0|0|0,3:3|3:3|3:3|3:3,0:0:0:0:
324,121,104574,2,0,P|309:95|278:75,3,50,2|0|0|0,3:3|3:3|3:3|3:3,0:0:0:0:
388,166,104901,2,0,P|400:139|400:103,3,50,10|0|0|0,3:3|3:3|3:3|3:3,0:0:0:0:
322,270,105227,5,4,3:3:0:0:
360,315,105308,1,0,3:3:0:0:
419,325,105390,1,0,3:3:0:0:
471,296,105471,1,0,3:3:0:0:
493,240,105553,1,10,3:3:0:0:
479,182,105634,1,0,3:3:0:0:
427,150,105716,1,0,3:3:0:0:
367,147,105797,1,0,3:3:0:0:
317,181,105879,1,2,3:3:0:0:
290,234,105960,1,0,3:3:0:0:
234,257,106042,1,0,3:3:0:0:
175,244,106123,1,0,3:3:0:0:
141,193,106205,1,10,3:3:0:0:
145,133,106286,1,0,3:3:0:0:
186,89,106368,1,0,3:3:0:0:
244,75,106449,1,0,3:3:0:0:
299,99,106531,1,2,3:3:0:0:
317,151,106613,1,0,3:3:0:0:
293,194,106694,1,0,3:3:0:0:
250,209,106776,1,0,3:3:0:0:
212,195,106857,6,0,P|242:175|283:184,3,50,10|0|0|0,3:3|3:3|3:3|3:3,0:0:0:0:
362,243,107183,1,4,3:3:0:0:
374,251,107265,1,0,3:3:0:0:
388,255,107346,1,0,3:3:0:0:
402,258,107428,1,0,3:3:0:0:
416,258,107509,1,8,3:3:0:0:
430,255,107591,1,0,3:3:0:0:
443,249,107672,1,0,3:3:0:0:
454,239,107754,1,0,3:3:0:0:
462,226,107835,5,4,3:3:0:0:
432,173,107917,1,0,3:3:0:0:
377,148,107998,1,0,3:3:0:0:
318,163,108080,1,0,3:3:0:0:
287,213,108161,1,10,3:3:0:0:
271,271,108243,1,0,3:3:0:0:
224,307,108324,1,0,3:3:0:0:
164,315,108406,1,0,3:3:0:0:
110,287,108488,1,2,3:3:0:0:
92,235,108569,1,0,3:3:0:0:
102,185,108651,1,0,3:3:0:0:
137,157,108732,1,0,3:3:0:0:
177,152,108814,1,10,3:3:0:0:
209,165,108895,1,0,3:3:0:0:
224,190,108977,1,0,3:3:0:0:
223,214,109058,1,0,3:3:0:0:
210,230,109140,6,0,P|182:234|152:223,3,50,2|0|0|0,3:3|3:3|3:3|3:3,0:0:0:0:
274,106,109466,2,0,P|291:128|296:159,3,50,10|0|0|0,3:3|3:3|3:3|3:3,0:0:0:0:
120,152,109792,5,2,3:3:0:0:
111,128,109873,1,0,3:3:0:0:
113,102,109955,2,0,P|124:74|162:51,1,50,0|0,3:3|3:3,0:0:0:0:
259,211,110118,5,10,3:3:0:0:
242,230,110199,1,0,3:3:0:0:
219,242,110281,2,0,P|189:246|150:225,1,50,0|0,3:3|3:3,0:0:0:0:
249,52,110444,5,4,3:3:0:0:
310,17,110526,1,0,3:3:0:0:
377,33,110607,1,0,3:3:0:0:
415,91,110689,1,0,3:3:0:0:
408,160,110770,1,0,3:3:0:0:
359,210,110852,1,0,3:3:0:0:
329,273,110933,1,0,3:3:0:0:
355,338,111015,1,0,3:3:0:0:
421,359,111096,5,12,3:3:0:0:
421,283,111178,1,0,3:3:0:0:
377,222,111259,1,0,3:3:0:0:
305,197,111341,1,0,3:3:0:0:
231,208,111422,1,0,3:3:0:0:
179,263,111504,1,0,3:3:0:0:
108,285,111585,1,0,3:3:0:0:
38,255,111667,1,0,3:3:0:0:
3,188,111748,2,0,P|0:158|15:120,1,50,12|0,3:3|3:3,0:0:0:0:
123,68,111911,2,0,P|146:48|186:39,1,50,0|0,3:3|3:3,0:0:0:0:
326,90,112074,5,0,3:3:0:0:
382,122,112156,1,0,3:3:0:0:
400,184,112238,1,0,3:3:0:0:
381,245,112319,1,0,3:3:0:0:
322,273,112401,1,12,3:3:0:0:
257,264,112482,1,0,3:3:0:0:
223,207,112564,1,0,3:3:0:0:
174,164,112645,1,0,3:3:0:0:
108,166,112727,1,8,3:3:0:0:
73,208,112808,1,8,3:3:0:0:
69,253,112890,1,8,3:3:0:0:
89,281,112971,1,8,3:3:0:0:
115,295,113053,5,12,3:3:0:0:
173,282,113134,1,0,3:3:0:0:
196,226,113216,1,0,3:3:0:0:
179,168,113297,1,0,3:3:0:0:
138,122,113379,1,10,3:3:0:0:
141,62,113460,1,0,3:3:0:0:
177,14,113542,1,0,3:3:0:0:
236,7,113623,1,0,3:3:0:0:
287,38,113705,1,2,3:3:0:0:
308,93,113786,1,0,3:3:0:0:
297,152,113868,1,0,3:3:0:0:
308,210,113949,1,0,3:3:0:0:
354,248,114031,1,10,3:3:0:0:
414,250,114113,1,0,3:3:0:0:
462,215,114194,1,0,3:3:0:0:
466,154,114276,1,0,3:3:0:0:
425,110,114357,1,2,3:3:0:0:
369,110,114439,1,0,3:3:0:0:
339,150,114520,1,0,3:3:0:0:
349,194,114602,1,0,3:3:0:0:
385,210,114683,6,0,P|400:182|387:136,3,50,10|0|0|0,3:3|3:3|3:3|3:3,0:0:0:0:
237,263,115009,2,0,P|253:289|300:301,3,50,2|0|0|0,3:3|3:3|3:3|3:3,0:0:0:0:
252,120,115335,2,0,P|220:121|186:155,3,50,12|0|0|0,3:3|3:3|3:3|3:3,0:0:0:0:
59,245,115661,5,4,3:3:0:0:
87,298,115743,1,0,3:3:0:0:
143,317,115824,1,0,3:3:0:0:
201,302,115906,1,0,3:3:0:0:
231,249,115988,1,10,3:3:0:0:
268,202,116069,1,0,3:3:0:0:
326,187,116151,1,0,3:3:0:0:
383,204,116232,1,0,3:3:0:0:
415,254,116314,1,2,3:3:0:0:
417,313,116395,1,0,3:3:0:0:
381,361,116477,1,0,3:3:0:0:
323,376,116558,1,0,3:3:0:0:
266,355,116640,1,10,3:3:0:0:
236,303,116721,1,0,3:3:0:0:
246,243,116803,1,0,3:3:0:0:
290,203,116884,1,0,3:3:0:0:
315,148,116966,1,2,3:3:0:0:
306,99,117047,1,0,3:3:0:0:
275,72,117129,1,0,3:3:0:0:
245,70,117210,1,0,3:3:0:0:
219,85,117292,6,0,P|233:124|266:144,3,50,10|0|0|0,3:3|3:3|3:3|3:3,0:0:0:0:
126,172,117618,1,4,3:3:0:0:
113,179,117699,1,0,3:3:0:0:
98,181,117781,1,0,3:3:0:0:
82,180,117863,1,0,3:3:0:0:
68,174,117944,1,8,3:3:0:0:
56,164,118026,1,0,3:3:0:0:
47,151,118107,1,0,3:3:0:0:
43,136,118189,1,0,3:3:0:0:
43,121,118270,5,4,3:3:0:0:
90,83,118352,1,0,3:3:0:0:
149,87,118433,1,0,3:3:0:0:
193,127,118515,1,0,3:3:0:0:
213,182,118596,1,10,3:3:0:0:
264,213,118678,1,0,3:3:0:0:
323,206,118759,1,0,3:3:0:0:
361,159,118841,1,0,3:3:0:0:
370,100,118922,1,2,3:3:0:0:
340,53,119004,1,0,3:3:0:0:
291,43,119085,1,0,3:3:0:0:
247,56,119167,1,0,3:3:0:0:
225,89,119248,1,10,3:3:0:0:
225,124,119330,1,0,3:3:0:0:
240,149,119411,1,0,3:3:0:0:
263,159,119493,1,0,3:3:0:0:
283,154,119574,6,0,P|298:118|286:76,3,50,2|0|0|0,3:3|3:3|3:3|3:3,0:0:0:0:
154,154,119901,2,0,P|156:178|168:200,3,50,10|0|0|0,3:3|3:3|3:3|3:3,0:0:0:0:
204,103,120227,5,2,3:3:0:0:
186,85,120308,1,0,3:3:0:0:
161,78,120390,2,0,P|140:75|101:98,1,50,0|0,3:3|3:3,0:0:0:0:
190,274,120553,5,10,3:3:0:0:
214,267,120634,1,0,3:3:0:0:
233,249,120716,2,0,P|246:232|245:187,1,50,0|0,3:3|3:3,0:0:0:0:
63,202,120879,5,4,3:3:0:0:
31,263,120960,1,0,3:3:0:0:
51,330,121042,1,0,3:3:0:0:
110,366,121123,1,0,3:3:0:0:
179,356,121205,1,0,3:3:0:0:
226,304,121286,1,0,3:3:0:0:
267,246,121368,1,0,3:3:0:0:
335,232,121449,1,0,3:3:0:0:
401,254,121531,5,4,3:3:0:0:
359,317,121613,1,0,3:3:0:0:
287,337,121694,1,0,3:3:0:0:
214,317,121776,1,0,3:3:0:0:
173,254,121857,1,0,3:3:0:0:
180,178,121939,1,0,3:3:0:0:
227,120,122020,1,0,3:3:0:0:
301,107,122102,1,0,3:3:0:0:
368,137,122183,2,0,P|374:172|363:217,1,50,12|0,3:3|3:3,0:0:0:0:
370,322,122346,2,0,P|344:346|300:362,1,50,0|0,3:3|3:3,0:0:0:0:
183,350,122509,5,0,3:3:0:0:
132,316,122591,1,0,3:3:0:0:
121,257,122672,1,0,3:3:0:0:
153,206,122754,1,0,3:3:0:0:
209,185,122835,1,4,1:3:0:0:
251,150,122917,1,0,1:1:0:0:
260,101,122998,1,8,2:3:0:0:
239,60,123080,1,8,2:3:0:0:
201,45,123161,1,0,1:1:0:0:
162,56,123243,1,0,1:1:0:0:
140,83,123324,1,0,1:1:0:0:
138,113,123406,1,0,1:1:0:0:
150,135,123488,6,0,L|253:121,1,100,4|0,2:3|3:3,0:0:0:0:
349,11,123732,1,0,3:3:0:0:
349,11,123814,2,0,L|360:74,1,50,8|0,3:3|0:0,0:0:0:0:
462,138,123977,2,0,L|451:201,1,50,0|0,3:3|3:3,0:0:0:0:
308,280,124140,6,0,B|364:270|364:270|412:302,1,100,0|0,3:3|3:3,0:0:0:0:
424,310,124384,1,0,3:3:0:0:
424,310,124466,1,8,3:3:0:0:
226,357,124629,5,0,3:3:0:0:
226,357,124710,1,0,3:3:0:0:
226,357,124792,2,0,L|115:343,1,100,2|0,3:3|3:3,0:0:0:0:
8,285,125036,1,0,3:3:0:0:
8,285,125118,2,0,L|-2:344,1,50,8|0,3:3|0:0,0:0:0:0:
147,206,125281,2,0,L|157:265,1,50,0|0,3:3|3:3,0:0:0:0:
43,119,125444,6,0,B|87:98|87:98|143:110,1,100,4|0,3:3|1:1,0:0:0:0:
285,243,125689,1,0,1:1:0:0:
285,243,125770,2,0,B|329:264|329:264|385:252,1,100,4|0,1:3|3:3,0:0:0:0:
460,153,126015,1,0,3:3:0:0:
460,153,126096,2,0,L|468:93,1,50,4|0,3:3|0:0,0:0:0:0:
338,49,126259,2,0,L|330:-11,1,50,0|0,3:3|3:3,0:0:0:0:
227,123,126422,6,0,L|211:242,1,100,8|0,3:3|3:3,0:0:0:0:
313,286,126667,1,0,3:3:0:0:
313,286,126748,2,0,P|373:265|400:210,1,100,2|0,3:3|3:3,0:0:0:0:
138,187,126993,1,0,3:3:0:0:
138,187,127074,2,0,P|126:249|160:300,1,100,10|0,3:3|3:3,0:0:0:0:
304,78,127319,1,0,3:3:0:0:
304,78,127401,6,0,P|255:36|194:40,1,100,2|0,3:3|3:3,0:0:0:0:
226,167,127645,1,0,3:3:0:0:
226,167,127727,2,0,B|277:182|277:182|350:158,1,100,8|0,3:3|3:3,0:0:0:0:
389,61,127971,1,0,3:3:0:0:
389,61,128053,2,0,B|440:46|440:46|513:70,1,100,0|0,3:3|3:3,0:0:0:0:
512,70,128297,1,0,3:3:0:0:
512,70,128379,1,12,3:3:0:0:
440,268,128542,5,0,1:1:0:0:
440,268,128623,1,0,1:1:0:0:
440,268,128705,1,4,3:3:0:0:
401,299,128786,1,0,3:3:0:0:
350,303,128868,1,0,3:3:0:0:
308,275,128949,1,0,3:3:0:0:
292,227,129031,1,8,3:3:0:0:
251,197,129113,1,0,3:3:0:0:
201,197,129194,1,0,3:3:0:0:
161,228,129276,1,0,3:3:0:0:
149,276,129357,5,8,3:3:0:0:
208,286,129439,1,0,3:3:0:0:
259,256,129520,1,0,3:3:0:0:
273,197,129602,1,0,3:3:0:0:
256,139,129683,1,8,3:3:0:0:
201,112,129765,1,0,3:3:0:0:
142,123,129846,1,0,3:3:0:0:
102,168,129928,1,0,3:3:0:0:
102,227,130009,5,8,3:3:0:0:
152,222,130091,1,0,3:3:0:0:
184,184,130172,1,0,3:3:0:0:
190,134,130254,1,0,3:3:0:0:
218,93,130335,1,8,3:3:0:0:
262,70,130417,1,0,3:3:0:0:
311,73,130498,1,0,3:3:0:0:
352,101,130580,1,0,3:3:0:0:
361,149,130661,5,8,3:3:0:0:
338,159,130743,1,0,3:3:0:0:
313,155,130824,1,0,3:3:0:0:
291,142,130906,1,0,3:3:0:0:
277,120,130988,1,8,3:3:0:0:
275,95,131069,1,0,3:3:0:0:
284,71,131151,1,0,3:3:0:0:
301,61,131232,1,0,3:3:0:0:
316,60,131314,5,12,3:3:0:0:
355,110,131395,1,0,3:3:0:0:
357,175,131477,1,0,3:3:0:0:
318,226,131558,1,0,3:3:0:0:
253,235,131640,1,8,3:3:0:0:
197,202,131721,1,0,3:3:0:0:
168,143,131803,1,0,3:3:0:0:
107,121,131884,1,0,3:3:0:0:
43,136,131966,1,12,3:3:0:0:
17,195,132047,1,0,3:3:0:0:
33,258,132129,1,0,3:3:0:0:
88,290,132210,1,0,3:3:0:0:
153,283,132292,1,8,3:3:0:0:
188,235,132373,1,0,3:3:0:0:
179,180,132455,1,0,3:3:0:0:
133,159,132536,1,0,3:3:0:0:
91,176,132618,5,4,1:3:0:0:
122,238,132699,1,0,1:1:0:0:
182,263,132781,1,0,1:1:0:0:
239,244,132863,1,0,1:1:0:0:
274,202,132944,1,0,1:1:0:0:
322,188,133026,1,0,1:1:0:0:
364,200,133107,2,0,L|375:260,1,50,0|0,1:1|1:1,0:0:0:0:
317,372,133270,5,0,1:1:0:0:
295,384,133352,1,0,1:1:0:0:
270,380,133433,1,0,1:1:0:0:
254,361,133515,1,0,1:1:0:0:
254,336,133596,1,0,1:1:0:0:
270,316,133678,1,0,1:1:0:0:
295,312,133759,1,0,1:1:0:0:
317,325,133841,1,0,1:1:0:0:
324,346,133922,6,0,B|247:379|173:328|165:269|196:254|159:195|90:167|12:206,1,375,6|0,2:3|0:0,0:0:0:0:
81,279,135227,6,0,P|168:277|74:120,1,375,4|0,2:3|0:0,0:0:0:0:
124,197,136531,6,0,B|194:187|265:183|265:183|299:161|327:133|327:133|404:119|489:117,1,375,4|0,2:3|0:0,0:0:0:0:
438,39,137835,6,0,B|359:67|367:188|425:215|439:187|502:223|502:322|426:359,1,375,4|0,2:3|0:0,0:0:0:0:
382,281,139140,6,0,B|346:238|292:237|276:267|292:276|214:305|169:244|169:244|246:265|314:230|323:110|237:78|172:105,1,524.999983978272,4|0,2:3|0:0,0:0:0:0:
210,175,140444,6,0,P|276:75|125:110,1,349.999989318848,4|0,2:3|0:0,0:0:0:0:
126,107,141341,1,8,2:3:0:0:
127,124,141422,1,8,2:3:0:0:
128,141,141504,1,0,1:1:0:0:
129,158,141585,1,0,1:1:0:0:
130,175,141667,1,0,1:1:0:0:
131,194,141748,6,0,L|173:201,3,34.9999989318848,0|0|0|0,1:1|1:1|1:1|1:1,0:0:0:0:
63,247,142074,2,0,L|21:254,3,34.9999989318848,0|0|0|0,1:1|1:1|1:1|1:1,0:0:0:0:
135,296,142401,1,8,1:3:0:0:
151,300,142482,1,0,1:1:0:0:
168,304,142564,2,0,L|210:311,1,34.9999989318848,0|0,1:1|1:1,0:0:0:0:
64,356,142727,2,0,L|22:363,3,34.9999989318848,0|0|0|0,1:1|1:1|1:1|1:1,0:0:0:0:
179,381,143053,5,0,1:1:0:0:
196,378,143134,1,0,1:1:0:0:
213,375,143216,1,0,1:1:0:0:
230,372,143297,1,0,1:1:0:0:
247,369,143379,1,0,1:1:0:0:
264,366,143460,1,0,1:1:0:0:
281,363,143542,1,0,1:1:0:0:
298,361,143623,1,0,1:1:0:0:
323,337,143705,5,0,1:1:0:0:
333,338,143786,1,0,1:1:0:0:
343,339,143868,1,0,1:1:0:0:
353,340,143949,1,0,1:1:0:0:
363,341,144031,1,0,1:1:0:0:
373,343,144113,1,0,1:1:0:0:
382,345,144194,2,0,L|429:350,1,34.9999989318848,0|0,1:1|1:1,0:0:0:0:
480,378,144357,5,4,3:3:0:0:
500,332,144439,1,0,3:3:0:0:
490,283,144520,1,0,3:3:0:0:
450,251,144602,1,0,3:3:0:0:
400,246,144683,1,10,3:3:0:0:
352,263,144765,1,0,3:3:0:0:
302,260,144846,1,0,3:3:0:0:
267,223,144928,1,0,3:3:0:0:
258,174,145009,1,0,3:3:0:0:
276,127,145091,1,0,3:3:0:0:
318,101,145172,1,0,3:3:0:0:
368,103,145254,1,0,3:3:0:0:
408,131,145335,1,10,3:3:0:0:
410,176,145417,1,0,3:3:0:0:
385,207,145498,1,0,3:3:0:0:
350,212,145580,1,0,3:3:0:0:
323,198,145661,5,0,3:3:0:0:
362,166,145743,1,0,3:3:0:0:
411,168,145824,1,0,3:3:0:0:
453,195,145906,1,0,3:3:0:0:
466,243,145988,1,10,3:3:0:0:
452,290,146069,1,0,3:3:0:0:
408,314,146151,1,0,3:3:0:0:
358,311,146232,1,0,3:3:0:0:
322,275,146314,5,0,3:3:0:0:
303,310,146395,1,0,3:3:0:0:
265,324,146477,1,0,3:3:0:0:
225,317,146558,1,0,3:3:0:0:
197,287,146640,1,10,3:3:0:0:
169,258,146721,1,0,3:3:0:0:
129,250,146803,1,0,3:3:0:0:
91,261,146884,1,0,3:3:0:0:
69,294,146966,5,0,3:3:0:0:
108,324,147047,1,0,3:3:0:0:
158,326,147129,1,0,3:3:0:0:
196,295,147210,1,0,3:3:0:0:
210,246,147292,1,10,3:3:0:0:
197,197,147373,1,0,3:3:0:0:
157,166,147455,1,0,3:3:0:0:
107,160,147536,1,0,3:3:0:0:
63,185,147618,5,0,3:3:0:0:
90,213,147699,1,0,3:3:0:0:
129,218,147781,1,0,3:3:0:0:
166,203,147863,1,0,3:3:0:0:
189,170,147944,1,10,3:3:0:0:
205,133,148026,1,0,3:3:0:0:
238,110,148107,1,0,3:3:0:0:
277,104,148189,1,0,3:3:0:0:
313,120,148270,5,0,3:3:0:0:
270,147,148352,1,0,3:3:0:0:
221,138,148433,1,0,3:3:0:0:
190,98,148515,1,0,3:3:0:0:
193,48,148596,1,10,3:3:0:0:
228,12,148678,1,0,3:3:0:0:
277,6,148759,1,0,3:3:0:0:
320,31,148841,1,0,3:3:0:0:
345,73,148922,1,0,3:3:0:0:
386,90,149004,1,0,3:3:0:0:
425,84,149085,1,0,3:3:0:0:
450,59,149167,1,0,3:3:0:0:
456,29,149248,2,0,P|426:21|387:34,3,50,10|0|0|0,3:3|3:3|3:3|3:3,0:0:0:0:
292,144,149574,5,4,3:3:0:0:
268,199,149656,1,0,3:3:0:0:
286,256,149738,1,0,3:3:0:0:
333,291,149819,1,0,3:3:0:0:
393,290,149901,1,8,3:3:0:0:
435,248,149982,1,0,3:3:0:0:
441,188,150064,1,0,3:3:0:0:
408,137,150145,1,0,3:3:0:0:
350,118,150227,1,0,3:3:0:0:
291,127,150308,1,0,3:3:0:0:
251,172,150390,1,0,3:3:0:0:
199,202,150471,1,0,3:3:0:0:
139,189,150553,1,8,3:3:0:0:
113,140,150634,1,0,3:3:0:0:
123,90,150716,1,0,3:3:0:0:
159,63,150797,1,0,3:3:0:0:
199,61,150879,5,4,3:3:0:0:
229,118,150960,1,0,3:3:0:0:
208,179,151042,1,0,3:3:0:0:
159,221,151123,1,0,3:3:0:0:
135,282,151205,1,8,3:3:0:0:
155,343,151286,1,0,3:3:0:0:
215,367,151368,1,0,3:3:0:0:
277,349,151449,1,0,3:3:0:0:
301,288,151531,5,4,3:3:0:0:
246,261,151613,1,0,3:3:0:0:
187,274,151694,1,0,3:3:0:0:
151,322,151776,1,0,3:3:0:0:
97,347,151857,1,8,3:3:0:0:
39,327,151939,1,0,3:3:0:0:
4,278,152020,1,0,3:3:0:0:
7,217,152102,1,0,3:3:0:0:
45,171,152183,2,0,P|70:157|111:161,1,50,4|0,3:3|3:3,0:0:0:0:
150,71,152346,2,0,P|175:83|195:120,1,50,0|0,3:3|3:3,0:0:0:0:
290,212,152509,5,8,3:3:0:0:
339,246,152591,1,0,3:3:0:0:
397,236,152672,1,0,3:3:0:0:
432,187,152754,1,0,3:3:0:0:
430,127,152835,1,0,3:3:0:0:
383,89,152917,1,0,3:3:0:0:
323,88,152998,1,0,3:3:0:0:
275,124,153080,1,0,3:3:0:0:
247,176,153161,1,8,3:3:0:0:
197,201,153243,1,0,3:3:0:0:
149,187,153324,1,0,3:3:0:0:
122,149,153406,1,0,3:3:0:0:
123,108,153488,6,0,L|178:101,3,50,4|0|0|0,1:3|1:1|1:1|1:1,0:0:0:0:
61,181,153814,1,0,1:1:0:0:
54,204,153895,1,0,1:1:0:0:
49,228,153977,2,0,L|-6:221,3,50,0|0|0|0,1:1|1:1|1:1|1:1,0:0:0:0:
103,276,154303,1,0,1:1:0:0:
107,290,154384,1,0,1:1:0:0:
111,304,154466,2,0,L|166:297,3,50,0|0|0|0,1:1|1:1|1:1|1:1,0:0:0:0:
56,364,154792,6,0,B|97:386|97:386|266:358,1,200,4|10,3:3|3:3,0:0:0:0:
337,165,155281,1,0,3:3:0:0:
411,336,155444,1,2,3:3:0:0:
241,225,155607,1,0,3:3:0:0:
241,225,155689,1,0,3:3:0:0:
241,225,155770,2,0,L|254:118,1,100,10|0,3:3|3:3,0:0:0:0:
142,40,156096,5,2,3:3:0:0:
192,282,156259,1,0,3:3:0:0:
23,176,156422,2,0,B|79:155|79:155|135:174,1,100,10|0,3:3|3:3,0:0:0:0:
144,178,156667,1,0,0:0:0:0:
144,178,156748,1,2,3:3:0:0:
56,284,156911,5,0,3:3:0:0:
146,47,157074,1,10,3:3:0:0:
241,219,157238,1,8,3:3:0:0:
265,224,157319,1,0,0:0:0:0:
289,229,157401,2,0,B|330:239|330:239|441:197|441:197|494:213,1,200,4|10,3:3|3:3,0:0:0:0:
415,325,157890,5,0,3:3:0:0:
458,117,158053,1,2,3:3:0:0:
421,300,158216,1,0,3:3:0:0:
279,173,158379,2,0,B|229:158|229:158|178:173,1,100,10|0,3:3|3:3,0:0:0:0:
91,231,158623,1,0,3:3:0:0:
91,231,158705,6,0,L|106:116,1,100,2|0,3:3|3:3,0:0:0:0:
273,32,159031,1,10,3:3:0:0:
13,135,159194,1,0,3:3:0:0:
201,243,159357,1,4,3:3:0:0:
99,25,159520,1,0,3:3:0:0:
99,25,159602,1,0,3:3:0:0:
99,25,159683,2,0,L|-20:41,1,100,10|0,3:3|3:3,0:0:0:0:
51,255,160009,5,4,3:3:0:0:
83,278,160091,1,0,3:3:0:0:
122,279,160172,1,0,3:3:0:0:
156,257,160254,1,0,3:3:0:0:
178,212,160335,5,8,3:3:0:0:
223,189,160417,1,0,3:3:0:0:
272,190,160498,1,0,3:3:0:0:
313,217,160580,1,0,3:3:0:0:
355,243,160661,1,0,3:3:0:0:
404,233,160743,1,0,3:3:0:0:
429,190,160824,5,8,3:3:0:0:
385,165,160906,1,0,3:3:0:0:
334,169,160988,1,0,3:3:0:0:
296,201,161069,1,0,3:3:0:0:
286,250,161151,1,0,3:3:0:0:
300,297,161232,1,0,3:3:0:0:
341,325,161314,5,8,3:3:0:0:
358,273,161395,1,0,3:3:0:0:
335,222,161477,1,0,3:3:0:0:
286,196,161558,1,0,3:3:0:0:
231,203,161640,1,0,3:3:0:0:
192,241,161721,1,0,3:3:0:0:
187,296,161803,5,8,3:3:0:0:
241,293,161884,1,0,3:3:0:0:
272,247,161966,1,0,3:3:0:0:
266,192,162047,1,0,3:3:0:0:
225,153,162129,1,0,3:3:0:0:
212,99,162210,1,0,3:3:0:0:
239,50,162292,2,0,P|266:42|298:44,3,50,8|0|0|0,3:3|3:3|3:3|3:3,0:0:0:0:
448,164,162618,5,12,3:3:0:0:
427,219,162699,1,0,3:3:0:0:
375,249,162781,1,0,3:3:0:0:
316,233,162863,1,0,3:3:0:0:
283,183,162944,1,0,3:3:0:0:
231,151,163026,1,0,3:3:0:0:
171,157,163107,1,0,3:3:0:0:
128,199,163189,1,0,3:3:0:0:
121,258,163270,5,12,3:3:0:0:
179,273,163352,1,0,3:3:0:0:
232,246,163433,1,0,3:3:0:0:
262,194,163515,1,0,3:3:0:0:
254,135,163596,1,0,3:3:0:0:
211,91,163678,1,0,3:3:0:0:
152,85,163759,1,0,3:3:0:0:
98,114,163841,1,0,3:3:0:0:
73,167,163922,2,0,P|74:204|99:240,1,50,12|0,3:3|3:3,0:0:0:0:
201,350,164085,5,0,1:1:0:0:
257,371,164167,1,0,1:1:0:0:
306,349,164248,1,0,1:1:0:0:
327,303,164330,1,0,1:1:0:0:
355,267,164411,1,0,1:1:0:0:
392,251,164493,1,0,1:1:0:0:
425,256,164574,6,0,L|431:290,1,25,8|8,3:3|2:3,0:0:0:0:
252,293,164738,1,0,3:3:0:0:
506,355,164901,1,0,1:1:0:0:
334,122,165064,1,0,1:1:0:0:
244,308,165227,6,0,B|203:332|203:332|46:293,1,200,4|0,2:3|3:3,0:0:0:0:
48,267,165634,1,0,3:3:0:0:
48,241,165716,1,0,3:3:0:0:
59,218,165797,1,0,3:3:0:0:
77,200,165879,2,0,P|108:143|58:61,1,150,8|0,2:3|0:0,0:0:0:0:
49,68,166205,1,0,3:3:0:0:
112,327,166368,1,0,3:3:0:0:
227,108,166531,5,0,3:3:0:0:
317,199,166694,2,0,B|363:218|391:193|384:180|419:151|462:172,1,150,8|0,2:3|0:0,0:0:0:0:
476,181,167020,1,0,3:3:0:0:
277,368,167183,1,8,2:3:0:0:
245,212,167346,1,0,3:3:0:0:
380,271,167509,1,0,1:1:0:0:
362,357,167672,1,0,1:1:0:0:
161,256,167835,6,0,L|189:52,1,200,4|0,3:3|3:3,0:0:0:0:
205,39,168243,1,0,3:3:0:0:
229,35,168324,1,0,3:3:0:0:
253,40,168406,1,0,3:3:0:0:
271,56,168488,2,0,P|344:76|409:35,1,150,8|0,2:3|0:0,0:0:0:0:
412,16,168814,1,0,3:3:0:0:
473,261,168977,1,0,3:3:0:0:
338,70,169140,5,0,3:3:0:0:
301,226,169303,2,0,B|366:257|404:210|389:199|431:145|504:177,1,200,8|0,2:3|3:3,0:0:0:0:
490,340,169792,5,8,2:3:0:0:
218,157,169955,1,0,1:1:0:0:
342,331,170118,1,0,1:1:0:0:
400,157,170281,1,0,1:1:0:0:
222,361,170444,6,0,B|212:279|212:279|225:252|225:252|215:156,1,200,4|0,2:3|3:3,0:0:0:0:
202,143,170852,1,0,3:3:0:0:
178,134,170933,1,0,3:3:0:0:
153,136,171015,1,0,3:3:0:0:
132,149,171096,2,0,P|75:159|6:89,1,150,8|0,2:3|0:0,0:0:0:0:
10,77,171422,1,8,2:3:0:0:
98,349,171585,1,8,2:3:0:0:
181,280,171748,6,0,L|63:266,1,100,0|0,3:3|3:3,0:0:0:0:
363,205,172074,5,8,2:3:0:0:
177,356,172238,1,0,3:3:0:0:
197,124,172401,1,8,2:3:0:0:
363,354,172564,1,0,3:3:0:0:
448,209,172727,2,0,B|441:170|441:170|426:148|426:148|417:88,1,100,0|0,3:3|3:3,0:0:0:0:
255,59,173053,5,4,2:3:0:0:
284,54,173216,1,0,0:0:0:0:
191,119,173379,5,0,1:1:0:0:
49,91,173542,1,0,1:1:0:0:
191,248,173705,5,8,1:3:0:0:
136,9,173868,1,0,1:1:0:0:
5,257,174031,5,0,1:1:0:0:
44,87,174194,1,0,1:1:0:0:
136,312,174357,6,0,B|186:328|186:328|251:309,1,100,0|0,1:1|1:1,0:0:0:0:
258,308,174602,1,0,0:0:0:0:
258,308,174683,1,0,1:1:0:0:
109,214,174846,1,0,1:1:0:0:
230,153,175009,5,0,3:3:0:0:
351,189,175172,1,0,1:1:0:0:
404,243,175335,5,8,3:3:0:0:
499,214,175498,1,0,1:1:0:0:
453,101,175661,6,0,B|439:60|389:30|326:49|307:107|307:107|249:48|166:75|145:131|157:136|127:186|46:198|12:146|12:146|51:172|96:161|122:137,1,645.000009841919,4|0,2:3|0:0,0:0:0:0:
52,63,178270,5,4,1:3:0:0:
21,102,178352,1,0,3:3:0:0:
21,151,178433,1,0,3:3:0:0:
50,191,178515,1,0,3:3:0:0:
96,207,178596,1,10,3:3:0:0:
145,198,178678,1,0,3:3:0:0:
184,167,178759,1,0,3:3:0:0:
200,119,178841,1,0,3:3:0:0:
238,88,178922,1,2,3:3:0:0:
288,87,179004,1,0,3:3:0:0:
331,111,179085,1,0,3:3:0:0:
350,157,179167,1,0,3:3:0:0:
339,205,179248,1,10,3:3:0:0:
301,238,179330,1,0,3:3:0:0:
251,245,179411,1,0,3:3:0:0:
206,221,179493,1,0,3:3:0:0:
196,172,179574,1,2,3:3:0:0:
218,132,179656,1,0,3:3:0:0:
256,119,179738,1,0,3:3:0:0:
289,126,179819,1,0,3:3:0:0:
308,148,179901,6,0,P|291:171|252:190,3,50,10|0|0|0,3:3|3:3|3:3|3:3,0:0:0:0:
377,109,180227,2,0,P|386:135|380:178,3,50,2|0|0|0,3:3|3:3|3:3|3:3,0:0:0:0:
391,35,180553,2,0,P|418:42|450:71,3,50,10|0|0|0,3:3|3:3|3:3|3:3,0:0:0:0:
269,43,180879,5,4,3:3:0:0:
220,77,180960,1,0,3:3:0:0:
210,136,181042,1,0,3:3:0:0:
243,185,181123,1,0,3:3:0:0:
295,214,181205,1,10,3:3:0:0:
337,255,181286,1,0,3:3:0:0:
342,315,181368,1,0,3:3:0:0:
303,360,181449,1,0,3:3:0:0:
244,376,181531,1,2,3:3:0:0:
191,345,181613,1,0,3:3:0:0:
173,288,181694,1,0,3:3:0:0:
136,239,181776,1,0,3:3:0:0:
82,212,181857,1,10,3:3:0:0:
24,229,181939,1,0,3:3:0:0:
5,285,182020,1,0,3:3:0:0:
26,341,182102,1,0,3:3:0:0:
82,358,182183,1,2,3:3:0:0:
131,334,182265,1,0,3:3:0:0:
141,285,182346,1,0,3:3:0:0:
116,247,182428,1,0,3:3:0:0:
76,241,182509,6,0,P|70:277|78:301,3,50,10|0|0|0,3:3|3:3|3:3|3:3,0:0:0:0:
162,166,182835,1,4,3:3:0:0:
171,154,182917,1,0,3:3:0:0:
178,140,182998,1,0,3:3:0:0:
181,125,183080,1,0,3:3:0:0:
179,110,183161,1,8,3:3:0:0:
172,96,183243,1,0,3:3:0:0:
161,85,183324,1,0,3:3:0:0:
147,78,183406,1,0,3:3:0:0:
132,75,183488,5,4,3:3:0:0:
96,122,183569,1,0,3:3:0:0:
104,181,183651,1,0,3:3:0:0:
151,217,183732,1,0,3:3:0:0:
211,215,183814,1,10,3:3:0:0:
256,176,183895,1,0,3:3:0:0:
278,119,183977,1,0,3:3:0:0:
328,87,184058,1,0,3:3:0:0:
388,91,184140,1,2,3:3:0:0:
430,132,184221,1,0,3:3:0:0:
431,187,184303,1,0,3:3:0:0:
397,223,184384,1,0,3:3:0:0:
351,227,184466,1,10,3:3:0:0:
321,200,184547,1,0,3:3:0:0:
315,165,184629,1,0,3:3:0:0:
332,140,184710,1,0,3:3:0:0:
357,133,184792,6,0,P|389:138|415:157,3,50,2|0|0|0,3:3|3:3|3:3|3:3,0:0:0:0:
475,282,185118,2,0,P|452:293|428:295,3,50,10|0|0|0,3:3|3:3|3:3|3:3,0:0:0:0:
270,282,185444,5,2,3:3:0:0:
261,305,185526,1,0,3:3:0:0:
265,329,185607,2,0,P|274:351|320:380,1,50,0|0,3:3|3:3,0:0:0:0:
332,218,185770,5,10,3:3:0:0:
316,198,185852,1,0,3:3:0:0:
293,190,185933,2,0,P|269:186|221:212,1,50,0|0,3:3|3:3,0:0:0:0:
149,281,186096,5,4,3:3:0:0:
81,300,186178,1,0,3:3:0:0:
19,267,186259,1,0,3:3:0:0:
1,198,186341,1,0,3:3:0:0:
34,137,186422,1,0,3:3:0:0:
99,112,186504,1,0,3:3:0:0:
164,135,186585,1,0,3:3:0:0:
232,117,186667,1,0,3:3:0:0:
265,55,186748,5,12,3:3:0:0:
193,30,186830,1,0,3:3:0:0:
122,54,186911,1,0,3:3:0:0:
83,119,186993,1,0,3:3:0:0:
91,193,187074,1,0,3:3:0:0:
143,247,187156,1,0,3:3:0:0:
217,255,187238,1,0,3:3:0:0:
281,217,187319,1,0,3:3:0:0:
301,144,187401,2,0,P|261:142|228:159,1,50,12|0,3:3|3:3,0:0:0:0:
100,187,187564,2,0,P|75:219|71:255,1,50,8|8,3:3|3:3,0:0:0:0:
148,353,187727,5,0,1:1:0:0:
205,381,187808,1,0,1:1:0:0:
268,365,187890,1,0,1:1:0:0:
305,312,187971,1,0,1:1:0:0:
333,253,188053,1,12,3:3:0:0:
388,220,188134,1,8,3:3:0:0:
452,228,188216,1,8,3:3:0:0:
489,273,188297,1,8,3:3:0:0:
485,328,188379,1,0,1:1:0:0:
452,366,188460,1,0,1:1:0:0:
407,375,188542,1,0,1:1:0:0:
368,363,188623,1,0,1:1:0:0:
347,340,188705,5,12,3:3:0:0:
349,280,188786,1,0,3:3:0:0:
388,234,188868,1,0,3:3:0:0:
447,228,188949,1,0,3:3:0:0:
498,196,189031,1,10,3:3:0:0:
512,137,189113,1,0,3:3:0:0:
488,82,189194,1,0,3:3:0:0:
431,60,189276,1,0,3:3:0:0:
373,77,189357,1,2,3:3:0:0:
343,129,189439,1,0,3:3:0:0:
311,179,189520,1,0,3:3:0:0:
254,199,189602,1,0,3:3:0:0:
198,177,189683,1,10,3:3:0:0:
168,124,189765,1,0,3:3:0:0:
182,66,189846,1,0,3:3:0:0:
231,31,189928,1,0,3:3:0:0:
289,41,190009,1,2,3:3:0:0:
323,84,190091,1,0,3:3:0:0:
316,133,190172,1,0,3:3:0:0:
281,162,190254,1,0,3:3:0:0:
241,160,190335,6,0,P|235:124|247:90,3,50,10|0|0|0,3:3|3:3|3:3|3:3,0:0:0:0:
129,87,190661,2,0,P|100:110|65:116,3,50,2|0|0|0,3:3|3:3|3:3|3:3,0:0:0:0:
120,209,190988,2,0,P|154:221|177:249,3,50,12|0|0|0,3:3|3:3|3:3|3:3,0:0:0:0:
205,333,191314,5,4,3:3:0:0:
262,347,191395,1,0,3:3:0:0:
314,317,191477,1,0,3:3:0:0:
328,259,191558,1,0,3:3:0:0:
303,203,191640,1,10,3:3:0:0:
246,184,191721,1,0,3:3:0:0:
187,200,191803,1,0,3:3:0:0:
156,251,191884,1,0,3:3:0:0:
104,283,191966,1,2,3:3:0:0:
45,269,192047,1,0,3:3:0:0:
12,218,192129,1,0,3:3:0:0:
18,158,192210,1,0,3:3:0:0:
57,112,192292,1,10,3:3:0:0:
116,104,192373,1,0,3:3:0:0:
167,135,192455,1,0,3:3:0:0:
226,131,192536,1,0,3:3:0:0:
265,85,192618,1,2,3:3:0:0:
258,35,192699,1,0,3:3:0:0:
228,7,192781,1,0,3:3:0:0:
197,9,192863,1,0,3:3:0:0:
173,18,192944,6,0,P|170:41|190:78,3,50,10|0|0|0,3:3|3:3|3:3|3:3,0:0:0:0:
266,195,193270,1,4,3:3:0:0:
271,208,193352,1,0,3:3:0:0:
272,222,193433,1,0,3:3:0:0:
271,237,193515,1,0,3:3:0:0:
267,251,193596,1,8,3:3:0:0:
261,264,193678,1,0,3:3:0:0:
253,276,193759,1,0,3:3:0:0:
242,286,193841,1,0,3:3:0:0:
229,294,193922,5,4,3:3:0:0:
192,246,194004,1,0,3:3:0:0:
201,187,194085,1,0,3:3:0:0:
244,145,194167,1,0,3:3:0:0:
303,140,194248,1,10,3:3:0:0:
353,172,194330,1,0,3:3:0:0:
383,223,194411,1,0,3:3:0:0:
439,244,194493,1,0,3:3:0:0:
494,221,194574,1,2,3:3:0:0:
510,162,194656,1,0,3:3:0:0:
486,106,194738,1,0,3:3:0:0:
429,87,194819,1,0,3:3:0:0:
370,102,194901,1,10,3:3:0:0:
343,149,194982,1,0,3:3:0:0:
309,186,195064,1,0,3:3:0:0:
265,194,195145,1,0,3:3:0:0:
227,179,195227,6,0,P|208:156|205:114,3,50,2|0|0|0,3:3|3:3|3:3|3:3,0:0:0:0:
106,243,195553,2,0,P|98:266|81:285,3,50,10|0|0|0,3:3|3:3|3:3|3:3,0:0:0:0:
216,340,195879,5,2,3:3:0:0:
235,355,195960,1,0,3:3:0:0:
260,357,196042,2,0,P|291:352|309:333,1,50,0|0,3:3|3:3,0:0:0:0:
285,136,196205,5,10,3:3:0:0:
262,144,196286,1,0,3:3:0:0:
248,165,196368,2,0,P|236:194|244:219,1,50,0|0,3:3|3:3,0:0:0:0:
439,326,196531,5,4,3:3:0:0:
486,274,196613,1,0,3:3:0:0:
493,204,196694,1,0,3:3:0:0:
455,144,196776,1,0,3:3:0:0:
390,118,196857,1,0,3:3:0:0:
320,131,196939,1,0,3:3:0:0:
282,189,197020,1,0,3:3:0:0:
284,259,197102,1,0,3:3:0:0:
328,312,197183,5,4,3:3:0:0:
360,243,197265,1,0,3:3:0:0:
327,176,197346,1,0,3:3:0:0:
254,154,197428,1,0,3:3:0:0:
187,187,197509,1,0,3:3:0:0:
114,167,197591,1,0,3:3:0:0:
75,103,197672,1,0,3:3:0:0:
93,29,197754,1,0,3:3:0:0:
161,0,197835,2,0,P|179:26|182:62,1,50,12|0,1:3|1:1,0:0:0:0:
259,164,197998,2,0,P|247:193|219:216,1,50,0|0,1:1|1:1,0:0:0:0:
141,293,198161,5,0,1:1:0:0:
95,332,198243,1,0,1:1:0:0:
40,333,198324,1,0,1:1:0:0:
2,299,198406,1,0,1:1:0:0:
2,253,198488,5,8,1:3:0:0:
23,241,198569,1,0,1:1:0:0:
48,239,198651,1,0,1:1:0:0:
72,244,198732,1,0,1:1:0:0:
93,256,198814,1,0,3:3:0:0:
111,272,198895,1,0,3:3:0:0:
134,280,198977,1,0,1:1:0:0:
158,279,199058,1,0,1:1:0:0:
182,269,199140,6,0,L|202:150,1,100,4|0,2:3|3:3,0:0:0:0:
130,105,199384,1,0,3:3:0:0:
130,105,199466,2,0,L|190:97,1,50,8|0,3:3|0:0,0:0:0:0:
280,7,199629,2,0,L|340:15,1,50,0|0,3:3|3:3,0:0:0:0:
402,145,199792,6,0,B|457:156|457:156|511:132,1,100,0|0,3:3|3:3,0:0:0:0:
512,119,200036,1,0,3:3:0:0:
512,119,200118,1,8,3:3:0:0:
303,153,200281,5,0,3:3:0:0:
303,153,200363,1,0,3:3:0:0:
303,153,200444,2,0,L|290:257,1,100,2|0,3:3|3:3,0:0:0:0:
414,307,200689,1,0,3:3:0:0:
414,307,200770,2,0,L|345:322,1,50,8|0,3:3|0:0,0:0:0:0:
263,384,200933,2,0,L|194:369,1,50,0|0,3:3|3:3,0:0:0:0:
112,276,201096,6,0,B|95:227|95:227|114:154,1,100,4|8,3:3|3:3,0:0:0:0:
227,99,201341,1,0,3:3:0:0:
227,99,201422,2,0,B|244:50|244:50|225:-23,1,100,4|0,3:3|3:3,0:0:0:0:
53,65,201667,1,0,3:3:0:0:
53,65,201748,2,0,L|60:129,1,50,4|0,3:3|0:0,0:0:0:0:
214,269,201911,2,0,L|221:205,1,50,0|0,3:3|3:3,0:0:0:0:
330,108,202074,6,0,L|442:97,1,100,8|0,3:3|3:3,0:0:0:0:
478,161,202319,1,0,3:3:0:0:
478,161,202401,2,0,P|475:218|425:261,1,100,2|0,3:3|3:3,0:0:0:0:
272,58,202645,1,0,3:3:0:0:
272,58,202727,2,0,P|322:32|385:53,1,100,10|0,3:3|3:3,0:0:0:0:
284,273,202971,1,0,3:3:0:0:
284,273,203053,6,0,P|236:241|223:177,1,100,2|0,3:3|3:3,0:0:0:0:
107,69,203297,1,0,3:3:0:0:
107,69,203379,2,0,L|94:179,1,100,8|0,3:3|3:3,0:0:0:0:
22,235,203623,1,0,3:3:0:0:
22,235,203705,2,0,L|35:345,1,100,0|0,3:3|3:3,0:0:0:0:
40,362,203949,1,0,3:3:0:0:
40,362,204031,1,12,3:3:0:0:
176,275,204194,5,0,1:1:0:0:
176,275,204276,1,0,1:1:0:0:
176,275,204357,1,4,3:3:0:0:
218,301,204439,1,0,3:3:0:0:
267,296,204520,1,0,3:3:0:0:
305,263,204602,1,0,3:3:0:0:
313,214,204683,1,10,3:3:0:0:
289,169,204765,1,0,3:3:0:0:
247,142,204846,1,2,3:3:0:0:
222,97,204928,1,0,3:3:0:0:
234,48,205009,5,10,3:3:0:0:
286,76,205091,1,0,3:3:0:0:
309,130,205172,1,2,3:3:0:0:
288,186,205254,1,0,3:3:0:0:
236,216,205335,1,10,3:3:0:0:
175,214,205417,1,0,3:3:0:0:
132,171,205498,1,2,3:3:0:0:
124,111,205580,1,0,3:3:0:0:
158,62,205661,5,10,3:3:0:0:
190,100,205743,1,0,3:3:0:0:
192,149,205824,1,2,3:3:0:0:
165,191,205906,1,0,3:3:0:0:
129,226,205988,1,10,3:3:0:0:
111,272,206069,1,0,3:3:0:0:
127,319,206151,1,2,3:3:0:0:
171,341,206232,1,0,3:3:0:0:
218,325,206314,5,10,3:3:0:0:
203,304,206395,1,0,3:3:0:0:
179,294,206477,1,2,3:3:0:0:
154,292,206558,1,0,3:3:0:0:
130,299,206640,1,10,3:3:0:0:
114,318,206721,1,0,3:3:0:0:
105,341,206803,1,2,3:3:0:0:
109,360,206884,1,0,3:3:0:0:
118,371,206966,5,12,3:3:0:0:
176,344,207047,1,0,3:3:0:0:
202,284,207129,1,0,3:3:0:0:
180,223,207210,1,0,3:3:0:0:
122,191,207292,1,8,3:3:0:0:
100,130,207373,1,0,3:3:0:0:
116,66,207455,1,0,3:3:0:0:
171,32,207536,1,0,3:3:0:0:
236,35,207618,1,12,3:3:0:0:
281,80,207699,1,0,3:3:0:0:
317,134,207781,1,0,3:3:0:0:
380,147,207863,1,0,3:3:0:0:
439,120,207944,1,8,3:3:0:0:
459,63,208026,1,0,3:3:0:0:
437,12,208107,1,0,3:3:0:0:
388,0,208189,1,0,3:3:0:0:
348,18,208270,5,4,1:3:0:0:
330,70,208352,1,0,1:1:0:0:
350,120,208433,1,0,1:1:0:0:
398,146,208515,1,0,1:1:0:0:
444,174,208596,1,0,1:1:0:0:
461,226,208678,1,0,1:1:0:0:
445,278,208759,1,0,1:1:0:0:
402,313,208841,1,0,1:1:0:0:
347,310,208922,1,0,1:1:0:0:
305,273,209004,1,0,1:1:0:0:
265,234,209085,1,0,1:1:0:0:
209,235,209167,1,0,1:1:0:0:
174,277,209248,1,0,1:1:0:0:
177,327,209330,1,0,1:1:0:0:
214,351,209411,1,0,1:1:0:0:
247,338,209493,1,0,1:1:0:0:
250,310,209574,6,0,L|224:314,7,25,4|0|0|0|0|0|0|0,1:3|1:1|1:1|1:1|1:1|1:1|1:1|1:1,0:0:0:0:
128,377,210227,2,0,L|102:373,7,25,0|0|0|0|0|0|0|0,3:3|1:1|1:1|1:1|1:1|1:1|1:1|1:1,0:0:0:0:
39,296,210879,6,0,L|35:270,7,25,12|0|0|0|0|0|0|0,3:3|1:1|1:1|1:1|1:1|1:1|1:1|1:1,0:0:0:0:
89,209,211531,2,0,L|93:183,7,25,0|0|0|0|0|0|0|0,3:3|1:1|1:1|1:1|1:1|1:1|1:1|1:1,0:0:0:0:
28,113,212183,6,0,L|72:107,7,34.9999989318848,0|0|0|0|0|0|0|0,3:3|1:1|1:1|1:1|1:1|1:1|1:1|1:1,0:0:0:0:
122,49,212835,2,0,L|166:55,7,40,0|0|0|0|0|0|0|0,3:3|1:1|1:1|1:1|1:1|1:1|1:1|1:1,0:0:0:0:
241,142,213488,6,0,L|235:108,3,29.9999990844727,0|0|0|0,3:3|1:1|1:1|1:1,0:0:0:0:
314,199,213814,2,0,L|320:165,3,29.9999990844727,0|0|0|0,1:1|1:1|1:1|1:1,0:0:0:0:
244,265,214140,2,0,L|238:231,3,29.9999990844727,0|0|0|0,3:3|1:1|1:1|1:1,0:0:0:0:
330,295,214466,1,0,1:1:0:0:
327,309,214547,1,0,1:1:0:0:
324,323,214629,1,0,1:1:0:0:
322,337,214710,1,0,1:1:0:0:
320,351,214792,6,0,L|367:345,3,29.9999990844727,4|0|0|0,3:3|1:1|1:1|1:1,0:0:0:0:
446,263,215118,2,0,L|399:257,3,29.9999990844727,0|0|0|0,1:1|1:1|1:1|1:1,0:0:0:0:
345,194,215444,2,0,L|392:188,3,25,0|0|0|0,3:3|1:1|1:1|1:1,0:0:0:0:
400,112,215770,2,0,L|353:106,3,25,0|0|0|0,1:1|1:1|1:1|1:1,0:0:0:0:
305,67,216096,6,0,L|170:84,1,112.500004291535,4|0,3:3|1:1,0:0:0:0:
121,116,216422,1,0,1:1:0:0:
112,98,216504,1,0,1:1:0:0:
112,79,216585,1,0,1:1:0:0:
31,206,216748,6,0,L|166:223,1,112.500004291535,4|0,3:3|1:1,0:0:0:0:
217,248,217074,1,0,1:1:0:0:
226,230,217156,1,0,1:1:0:0:
226,211,217237,1,0,1:1:0:0:
222,192,217319,1,0,1:1:0:0:
208,175,217401,2,0,B|174:129|113:136|113:136|155:101|206:110|239:145|239:145|278:187|347:190|374:139|374:139|349:200|396:298|550:287|562:140|483:101,1,750,4|0,3:3|0:0,0:0:0:0:
447,167,220009,5,4,3:3:0:0:
427,202,220091,1,0,3:3:0:0:
423,241,220172,1,0,3:3:0:0:
438,278,220254,1,0,3:3:0:0:
467,304,220335,2,0,P|506:302|534:275,1,50,10|0,3:3|3:3,0:0:0:0:
359,184,220498,2,0,P|335:175|311:177,1,50,0|0,3:3|3:3,0:0:0:0:
231,258,220661,5,0,3:3:0:0:
195,293,220743,1,0,3:3:0:0:
146,301,220824,1,0,3:3:0:0:
101,277,220906,1,0,3:3:0:0:
85,229,220988,1,10,3:3:0:0:
97,180,221069,1,0,3:3:0:0:
138,151,221151,1,0,3:3:0:0:
162,107,221232,1,0,3:3:0:0:
160,56,221314,1,0,3:3:0:0:
121,24,221395,1,0,3:3:0:0:
70,24,221477,1,0,3:3:0:0:
32,57,221558,1,0,3:3:0:0:
29,107,221640,1,10,3:3:0:0:
62,136,221721,1,0,3:3:0:0:
102,132,221803,1,0,3:3:0:0:
122,103,221884,1,0,3:3:0:0:
117,78,221966,5,0,3:3:0:0:
82,98,222047,1,0,3:3:0:0:
71,136,222129,1,0,3:3:0:0:
82,174,222210,1,0,3:3:0:0:
110,202,222292,2,0,P|141:212|186:191,3,50,10|0|0|0,3:3|3:3|3:3|3:3,0:0:0:0:
276,83,222618,6,0,P|251:104|247:154,1,50,0|0,3:3|3:3,0:0:0:0:
349,263,222781,2,0,P|342:231|301:202,1,50,0|0,3:3|3:3,0:0:0:0:
409,132,222944,1,10,3:3:0:0:
454,153,223026,1,0,3:3:0:0:
477,196,223107,1,0,3:3:0:0:
471,246,223189,1,0,3:3:0:0:
439,284,223270,1,0,3:3:0:0:
390,297,223352,1,0,3:3:0:0:
345,275,223433,1,0,3:3:0:0:
324,228,223515,1,0,3:3:0:0:
282,200,223596,1,10,3:3:0:0:
231,200,223678,1,0,3:3:0:0:
190,228,223759,1,0,3:3:0:0:
174,275,223841,1,0,3:3:0:0:
185,323,223922,1,0,3:3:0:0:
222,348,224004,1,0,3:3:0:0:
261,350,224085,1,0,3:3:0:0:
292,333,224167,1,0,3:3:0:0:
305,306,224248,1,10,3:3:0:0:
302,281,224330,1,0,3:3:0:0:
290,264,224411,1,0,3:3:0:0:
275,259,224493,1,0,3:3:0:0:
263,262,224574,5,0,3:3:0:0:
235,291,224656,1,0,3:3:0:0:
238,331,224738,1,0,3:3:0:0:
264,360,224819,1,0,3:3:0:0:
301,375,224901,2,0,P|327:372|362:335,3,50,10|0|0|0,3:3|3:3|3:3|3:3,0:0:0:0:
338,185,225227,5,12,3:3:0:0:
296,141,225308,1,0,3:3:0:0:
235,137,225390,1,0,3:3:0:0:
184,168,225471,1,0,3:3:0:0:
170,226,225553,1,0,3:3:0:0:
138,276,225634,1,0,3:3:0:0:
82,300,225716,1,0,3:3:0:0:
27,275,225797,1,0,3:3:0:0:
11,216,225879,5,12,3:3:0:0:
59,172,225960,1,0,3:3:0:0:
123,185,226042,1,0,3:3:0:0:
167,231,226123,1,0,3:3:0:0:
181,294,226205,1,0,3:3:0:0:
236,326,226286,1,0,3:3:0:0:
299,312,226368,1,0,3:3:0:0:
326,253,226449,1,0,3:3:0:0:
304,191,226531,5,12,3:3:0:0:
259,232,226613,1,0,3:3:0:0:
259,291,226694,1,0,3:3:0:0:
288,343,226776,1,0,3:3:0:0:
345,357,226857,1,0,3:3:0:0:
402,339,226939,1,0,3:3:0:0:
425,284,227020,1,0,3:3:0:0:
422,223,227102,1,0,3:3:0:0:
375,186,227183,5,12,3:3:0:0:
345,213,227265,1,0,3:3:0:0:
343,252,227346,1,0,3:3:0:0:
360,287,227428,1,0,3:3:0:0:
394,305,227509,5,8,3:3:0:0:
368,244,227591,1,8,3:3:0:0:
310,213,227672,1,8,3:3:0:0:
246,227,227754,1,8,3:3:0:0:
207,278,227835,6,0,P|199:314|214:348,1,50,2|0,3:3|0:0,0:0:0:0:
116,370,227998,2,0,P|88:345|51:341,1,50,0|0,3:3|3:3,0:0:0:0:
16,272,228161,2,0,L|36:142,1,100,10|2,3:3|3:3,0:0:0:0:
37,151,228406,1,2,3:3:0:0:
37,151,228488,1,2,3:3:0:0:
120,37,228651,5,0,3:3:0:0:
120,37,228732,1,0,3:3:0:0:
120,37,228814,1,10,3:3:0:0:
175,14,228895,1,0,0:0:0:0:
227,32,228977,1,0,3:3:0:0:
246,77,229058,1,0,3:3:0:0:
243,122,229140,1,2,3:3:0:0:
257,158,229221,1,0,0:0:0:0:
289,171,229303,1,0,3:3:0:0:
318,168,229384,1,0,3:3:0:0:
336,150,229466,1,10,3:3:0:0:
342,120,229547,1,0,0:0:0:0:
321,91,229629,1,10,3:3:0:0:
281,87,229710,1,10,3:3:0:0:
242,111,229792,1,2,3:3:0:0:
236,160,229873,1,0,0:0:0:0:
256,211,229955,1,0,3:3:0:0:
295,255,230036,1,0,3:3:0:0:
288,320,230118,1,10,3:3:0:0:
232,362,230199,1,8,3:3:0:0:
157,352,230281,2,0,P|131:332|117:285,1,50,8|8,3:3|3:3,0:0:0:0:
32,153,230444,5,4,3:3:0:0:
73,109,230526,1,0,3:3:0:0:
132,105,230607,1,0,3:3:0:0:
182,138,230689,1,0,3:3:0:0:
205,192,230770,1,10,3:3:0:0:
249,233,230852,1,0,3:3:0:0:
308,229,230933,1,0,3:3:0:0:
346,182,231015,1,0,3:3:0:0:
352,122,231096,1,0,3:3:0:0:
310,78,231178,1,0,3:3:0:0:
250,74,231259,1,0,3:3:0:0:
204,114,231341,1,0,3:3:0:0:
202,173,231422,1,10,3:3:0:0:
240,212,231504,1,0,3:3:0:0:
289,209,231585,1,0,3:3:0:0:
319,175,231667,1,0,3:3:0:0:
314,135,231748,5,0,3:3:0:0:
253,130,231830,1,0,3:3:0:0:
204,165,231911,1,0,3:3:0:0:
196,224,231993,1,0,3:3:0:0:
218,279,232074,1,10,3:3:0:0:
275,298,232156,1,0,3:3:0:0:
332,278,232238,1,0,3:3:0:0:
360,225,232319,1,0,3:3:0:0:
415,201,232401,1,0,3:3:0:0:
473,214,232482,1,0,3:3:0:0:
506,264,232564,1,0,3:3:0:0:
507,323,232645,1,0,3:3:0:0:
463,364,232727,2,0,P|436:372|396:357,3,50,10|0|0|0,3:3|3:3|3:3|3:3,0:0:0:0:
227,197,233053,5,0,3:3:0:0:
175,167,233134,1,0,3:3:0:0:
114,172,233216,1,0,3:3:0:0:
71,213,233297,1,0,3:3:0:0:
65,273,233379,1,10,3:3:0:0:
91,326,233460,1,0,3:3:0:0:
145,351,233542,1,0,3:3:0:0:
204,344,233623,1,0,3:3:0:0:
242,297,233705,5,0,3:3:0:0:
210,272,233786,1,0,3:3:0:0:
169,271,233868,1,0,3:3:0:0:
136,293,233949,1,0,3:3:0:0:
118,328,234031,2,0,P|114:354|127:388,1,50,10|0,3:3|3:3,0:0:0:0:
15,289,234194,1,0,3:3:0:0:
15,289,234276,1,0,3:3:0:0:
15,289,234357,5,0,3:3:0:0:
69,262,234439,1,0,3:3:0:0:
96,209,234520,1,0,3:3:0:0:
76,151,234602,1,0,3:3:0:0:
28,114,234683,1,10,3:3:0:0:
9,61,234765,1,0,3:3:0:0:
34,18,234846,1,0,3:3:0:0:
77,6,234928,1,0,3:3:0:0:
114,19,235009,1,0,3:3:0:0:
129,50,235091,1,0,3:3:0:0:
121,78,235172,1,0,3:3:0:0:
100,92,235254,1,0,3:3:0:0:
79,90,235335,2,0,P|71:60|79:33,3,50,10|0|0|0,3:3|3:3|3:3|3:3,0:0:0:0:
213,10,235661,5,12,3:3:0:0:
277,2,235743,1,0,3:3:0:0:
332,35,235824,1,0,3:3:0:0:
343,99,235906,1,0,3:3:0:0:
311,156,235988,1,0,3:3:0:0:
252,184,236069,1,0,3:3:0:0:
207,231,236151,1,0,3:3:0:0:
209,295,236232,1,0,3:3:0:0:
252,344,236314,1,12,3:3:0:0:
316,352,236395,1,0,3:3:0:0:
369,314,236477,1,0,3:3:0:0:
373,249,236558,1,0,3:3:0:0:
328,200,236640,1,0,3:3:0:0:
268,201,236721,1,0,3:3:0:0:
235,245,236803,1,0,3:3:0:0:
243,294,236884,1,0,3:3:0:0:
282,315,236966,5,12,3:3:0:0:
328,256,237047,1,0,3:3:0:0:
312,182,237129,1,0,3:3:0:0:
246,147,237210,1,0,3:3:0:0:
174,171,237292,1,0,3:3:0:0:
129,230,237373,1,0,3:3:0:0:
53,237,237455,1,0,3:3:0:0:
9,176,237536,1,0,3:3:0:0:
24,102,237618,1,12,3:3:0:0:
87,72,237699,1,0,3:3:0:0:
148,95,237781,1,0,3:3:0:0:
158,154,237863,1,0,3:3:0:0:
118,191,237944,1,0,3:3:0:0:
67,191,238026,1,0,3:3:0:0:
36,158,238107,1,0,3:3:0:0:
44,118,238189,1,0,3:3:0:0:
74,101,238270,5,12,3:3:0:0:
136,133,238352,1,0,3:3:0:0:
168,194,238433,1,0,3:3:0:0:
147,261,238515,1,0,3:3:0:0:
171,326,238596,1,0,3:3:0:0:
236,352,238678,1,0,3:3:0:0:
300,326,238759,1,0,3:3:0:0:
326,260,238841,1,0,3:3:0:0:
294,197,238922,2,0,P|259:206|230:242,3,50,12|0|0|0,3:3|3:3|3:3|3:3,0:0:0:0:
167,334,239248,2,0,P|188:346|212:350,3,50,4|0|0|0,3:3|3:3|3:3|3:3,0:0:0:0:
412,280,239574,5,12,3:3:0:0:
463,225,239656,1,0,3:3:0:0:
456,149,239738,1,0,3:3:0:0:
397,102,239819,1,0,3:3:0:0:
321,107,239901,1,0,3:3:0:0:
267,159,239982,1,0,3:3:0:0:
236,228,240064,1,0,3:3:0:0:
165,248,240145,1,0,3:3:0:0:
99,210,240227,1,8,3:3:0:0:
84,136,240308,1,0,3:3:0:0:
124,72,240390,1,0,3:3:0:0:
197,57,240471,1,0,3:3:0:0:
261,94,240553,5,8,3:3:0:0:
216,159,240634,1,8,3:3:0:0:
137,175,240716,1,8,3:3:0:0:
65,140,240797,1,8,3:3:0:0:
36,64,240879,6,0,P|73:58|97:65,3,50,4|0|0|0,3:3|3:3|1:1|1:1,0:0:0:0:
142,11,241205,2,0,P|165:35|173:58,3,40,0|0|0|0,1:1|1:1|1:1|1:1,0:0:0:0:
249,37,241531,2,0,P|241:70|226:89,3,32.4999985122681,0|0|0|0,1:1|1:1|1:1|1:1,0:0:0:0:
293,121,241857,1,0,1:1:0:0:
211,206,242020,1,0,1:1:0:0:
216,238,242102,1,0,1:1:0:0:
221,269,242183,6,0,B|268:279|268:279|324:267,1,100,4|0,3:3|3:3,0:0:0:0:
356,104,242428,1,0,3:3:0:0:
356,104,242509,2,0,B|323:139|323:139|306:194,1,100,8|0,3:3|3:3,0:0:0:0:
433,302,242754,1,0,3:3:0:0:
433,302,242835,2,0,B|418:256|418:256|379:213,1,100,0|0,3:3|3:3,0:0:0:0:
230,160,243080,1,0,3:3:0:0:
230,160,243161,2,0,L|165:168,1,50,8|0,3:3|0:0,0:0:0:0:
70,336,243324,2,0,L|135:344,1,50,0|0,3:3|3:3,0:0:0:0:
270,293,243488,5,0,3:3:0:0:
312,251,243569,1,0,3:3:0:0:
319,196,243651,1,0,3:3:0:0:
292,154,243732,1,0,3:3:0:0:
250,136,243814,1,8,3:3:0:0:
234,99,243895,1,0,3:3:0:0:
241,64,243977,1,0,3:3:0:0:
265,46,244058,1,0,3:3:0:0:
290,48,244140,5,0,3:3:0:0:
280,106,244221,1,0,3:3:0:0:
238,142,244303,1,0,3:3:0:0:
188,147,244384,1,0,3:3:0:0:
152,119,244466,1,8,3:3:0:0:
136,82,244547,1,0,3:3:0:0:
102,69,244629,1,0,3:3:0:0:
73,77,244710,1,0,3:3:0:0:
57,96,244792,6,0,L|41:207,1,100,4|0,3:3|3:3,0:0:0:0:
179,259,245036,1,0,3:3:0:0:
179,259,245118,2,0,L|163:148,1,100,8|0,3:3|3:3,0:0:0:0:
72,322,245363,1,0,3:3:0:0:
80,333,245444,5,0,3:3:0:0:
114,354,245526,1,0,3:3:0:0:
153,350,245607,2,0,P|185:338|202:305,1,50,0|0,3:3|3:3,0:0:0:0:
266,215,245770,5,8,3:3:0:0:
300,194,245852,1,0,0:0:0:0:
339,198,245933,2,0,P|371:210|388:243,1,50,0|0,3:3|3:3,0:0:0:0:
465,377,246096,5,12,3:3:0:0:
435,350,246178,1,0,3:3:0:0:
421,312,246259,1,0,3:3:0:0:
426,272,246341,1,0,3:3:0:0:
476,239,246422,5,12,3:3:0:0:
502,196,246504,1,0,3:3:0:0:
502,146,246585,1,0,3:3:0:0:
470,107,246667,1,0,3:3:0:0:
411,97,246748,5,12,3:3:0:0:
378,120,246830,1,0,3:3:0:0:
338,117,246911,1,0,3:3:0:0:
306,91,246993,1,0,3:3:0:0:
289,44,247074,5,12,3:3:0:0:
262,29,247156,1,0,3:3:0:0:
231,28,247238,1,0,3:3:0:0:
202,37,247319,1,0,3:3:0:0:
173,65,247401,6,0,L|160:178,1,100,4|0,3:3|0:0,0:0:0:0:
160,192,247645,1,0,3:3:0:0:
160,192,247727,1,8,2:3:0:0:
238,105,247890,1,0,3:3:0:0:
126,296,248053,2,0,L|189:285,1,50,0|0,3:3|0:0,0:0:0:0:
72,143,248216,2,0,L|9:132,1,50,0|0,0:0|3:3,0:0:0:0:
14,317,248379,1,8,2:3:0:0:
104,74,248542,1,0,3:3:0:0:
225,232,248705,6,0,B|249:250|249:250|336:232,1,100,0|0,3:3|0:0,0:0:0:0:
345,232,248949,1,0,3:3:0:0:
345,232,249031,1,8,2:3:0:0:
404,85,249194,1,0,3:3:0:0:
504,268,249357,2,0,L|514:212,1,50,0|0,3:3|0:0,0:0:0:0:
313,104,249520,2,0,L|323:160,1,50,0|0,0:0|3:3,0:0:0:0:
475,22,249683,1,8,2:3:0:0:
350,223,249846,1,0,3:3:0:0:
222,70,250009,5,12,3:3:0:0:
166,45,250091,1,0,3:3:0:0:
107,58,250172,1,0,3:3:0:0:
75,109,250254,1,0,3:3:0:0:
82,168,250335,1,0,3:3:0:0:
125,209,250417,1,0,3:3:0:0:
184,216,250498,1,0,3:3:0:0:
231,178,250580,1,0,3:3:0:0:
280,144,250661,1,8,3:3:0:0:
335,145,250743,1,0,3:3:0:0:
373,176,250824,1,0,3:3:0:0:
384,219,250906,1,0,3:3:0:0:
375,258,250988,1,0,3:3:0:0:
345,276,251069,1,0,3:3:0:0:
314,275,251151,1,0,3:3:0:0:
294,259,251232,1,0,3:3:0:0:
287,239,251314,5,0,3:3:0:0:
336,206,251395,1,8,3:3:0:0:
394,219,251477,1,0,3:3:0:0:
430,265,251558,1,8,2:3:0:0:
425,325,251640,1,8,2:3:0:0:
382,359,251721,1,0,1:1:0:0:
326,361,251803,1,0,1:1:0:0:
294,322,251884,1,0,1:1:0:0:
277,274,251966,1,0,3:3:0:0:
237,253,252047,1,0,1:1:0:0:
196,256,252129,1,0,1:1:0:0:
172,281,252210,1,0,1:1:0:0:
166,310,252292,1,0,3:3:0:0:
177,332,252373,1,0,1:1:0:0:
193,343,252455,1,0,1:1:0:0:
207,345,252536,1,0,1:1:0:0:
220,341,252618,6,0,L|232:274,1,50,4|0,3:3|0:0,0:0:0:0:
127,221,252781,2,0,L|106:109,1,100,8|0,3:3|0:0,0:0:0:0:
107,101,253026,1,0,3:3:0:0:
107,101,253107,1,8,3:3:0:0:
15,192,253270,6,0,P|9:161|15:127,1,50,0|0,3:3|0:0,0:0:0:0:
103,24,253433,1,8,3:3:0:0:
213,209,253596,2,0,P|219:178|213:144,1,50,0|0,0:0|3:3,0:0:0:0:
113,19,253759,1,8,3:3:0:0:
87,187,253922,6,0,L|141:178,1,50,0|0,3:3|0:0,0:0:0:0:
236,90,254085,2,0,L|341:107,1,100,8|0,3:3|0:0,0:0:0:0:
363,112,254330,1,0,3:3:0:0:
363,112,254411,1,8,3:3:0:0:
469,252,254574,6,0,P|449:262|404:259,1,50,0|0,3:3|0:0,0:0:0:0:
244,169,254738,1,8,3:3:0:0:
177,309,254901,2,0,P|197:319|242:316,1,50,0|0,0:0|3:3,0:0:0:0:
333,204,255065,1,8,3:3:0:0:
329,376,255227,6,0,L|269:365,1,50,0|0,3:3|0:0,0:0:0:0:
177,234,255390,2,0,L|63:254,1,100,8|0,3:3|0:0,0:0:0:0:
57,258,255634,1,0,3:3:0:0:
57,258,255716,1,8,3:3:0:0:
247,146,255879,6,0,P|275:175|283:228,2,66.6666666666667,0|0|0,3:3|2:0|2:0,0:0:0:0:
106,89,256205,2,0,P|82:112|70:143,2,66.6666666666667,0|0|0,0:0|2:3|2:0,0:0:0:0:
198,22,256531,6,0,L|254:34,1,50,0|0,3:3|0:0,0:0:0:0:
337,89,256694,2,0,L|444:66,1,100,8|0,3:3|0:0,0:0:0:0:
462,64,256939,1,0,3:3:0:0:
462,64,257020,1,8,3:3:0:0:
456,203,257183,6,0,P|425:201|388:176,1,50,0|0,3:3|0:0,0:0:0:0:
292,19,257346,2,0,P|315:10|340:9,1,50,8|0,3:3|0:0,0:0:0:0:
207,201,257509,1,8,2:3:0:0:
152,226,257591,1,8,2:3:0:0:
104,210,257672,1,0,1:1:0:0:
89,172,257754,1,0,1:1:0:0:
98,143,257835,6,0,B|149:106|228:130|219:191|212:195|231:264|311:282|372:205,1,314.999990386963,4|0,3:3|0:0,0:0:0:0:
399,166,258488,6,0,P|390:218|432:276,1,89.9999972534181,8|0,3:3|0:0,0:0:0:0:
475,115,258814,2,0,P|434:81|363:88,1,89.9999972534181,0|0,3:3|0:0,0:0:0:0:
285,134,259140,6,0,B|265:148|244:156|244:156|182:137|118:123|118:123|94:137|66:145,1,224.999993133545,0|0,3:3|0:0,0:0:0:0:
10,113,259629,1,0,3:3:0:0:
159,239,259792,6,0,L|188:34,1,179.999994506836,8|0,3:3|3:3,0:0:0:0:
434,99,260444,5,4,3:3:0:0:
286,154,260607,1,0,3:3:0:0:
409,226,260770,1,0,3:3:0:0:
331,277,260933,1,0,3:3:0:0:
442,87,261096,5,12,3:3:0:0:
276,149,261259,1,0,3:3:0:0:
414,230,261422,1,0,3:3:0:0:
326,287,261585,1,0,1:1:0:0:
326,287,261667,1,0,1:1:0:0:
326,287,261748,5,4,1:3:0:0:
215,245,262074,2,0,L|242:241,1,22.4999993133545,0|0,1:1|0:0,0:0:0:0:
109,341,262401,1,8,3:3:0:0:
123,270,262564,1,0,3:3:0:0:
138,199,262727,1,0,3:3:0:0:
221,106,262890,1,0,3:3:0:0:
221,106,262971,1,0,3:3:0:0:
221,106,263053,2,0,B|267:143|331:111|346:66|317:68|357:9|429:5|470:48|470:48|396:41|341:124|401:219|494:201|521:136|521:136|512:213|436:247|399:217|399:217|351:176|286:193|286:193|357:245|367:337|297:386|221:375|204:296|265:253,1,1200.00004577637,4|4,2:3|1:3,0:0:0:0:
247,269,266314,5,2,2:3:0:0:
247,269,266966,1,2,2:3:0:0:
247,269,267618,1,2,2:3:0:0:
247,269,268270,1,2,2:3:0:0:
247,269,268922,1,2,2:3:0:0:
193,221,269411,5,0,1:1:0:0:
173,217,269493,1,0,1:1:0:0:
153,214,269574,2,0,L|54:195,1,100,0|0,1:1|0:0,0:0:0:0:
11,128,270064,2,0,L|109:109,1,100,0|0,1:1|1:0,0:0:0:0:
180,133,270553,1,0,1:1:0:0:
345,6,270879,5,8,2:3:0:0:
467,88,271205,2,0,P|471:73|470:47,1,40,2|0,2:3|2:2,0:0:0:0:
474,98,271857,2,0,P|480:83|484:58,1,40,2|0,2:3|2:2,0:0:0:0:
398,162,272509,6,0,L|350:169,1,40,2|0,2:3|2:2,0:0:0:0:
473,212,272835,2,0,L|521:219,1,40,2|0,2:3|2:2,0:0:0:0:
382,262,273161,2,0,L|334:269,1,40,2|2,2:3|2:3,0:0:0:0:
236,316,273488,6,0,B|190:357|130:347|116:287|125:282|93:238|43:228|-1:276,1,269.999991760254,4|0,1:3|0:0,0:0:0:0:
50,349,274140,1,4,1:3:0:0:
142,188,274303,5,0,0:0:0:0:
160,137,274384,1,0,0:0:0:0:
141,95,274466,1,0,1:1:0:0:
107,82,274547,1,0,1:1:0:0:
75,88,274629,1,0,1:1:0:0:
56,107,274710,1,0,1:1:0:0:
48,127,274792,6,0,P|66:143|111:146,1,44.999998626709,4|0,1:3|1:1,0:0:0:0:
265,79,274955,2,0,P|242:86|217:124,1,44.999998626709,0|0,1:1|1:1,0:0:0:0:
223,251,275118,1,0,1:1:0:0:
248,268,275199,1,0,1:1:0:0:
279,271,275281,1,0,1:1:0:0:
309,260,275363,1,0,1:1:0:0:
330,236,275444,1,8,1:3:0:0:
332,199,275526,1,0,1:1:0:0:
310,165,275607,1,0,1:1:0:0:
265,159,275689,1,0,1:1:0:0:
217,171,275770,1,0,1:1:0:0:
165,153,275852,1,0,1:1:0:0:
130,106,275933,1,0,1:1:0:0:
139,43,276015,1,0,1:1:0:0:
195,3,276096,5,4,1:3:0:0:
241,42,276178,1,0,3:3:0:0:
238,101,276259,1,0,3:3:0:0:
196,145,276341,1,0,3:3:0:0:
138,160,276422,1,10,3:3:0:0:
99,206,276504,1,0,3:3:0:0:
96,265,276585,1,0,3:3:0:0:
127,316,276667,1,0,3:3:0:0:
184,332,276748,1,2,3:3:0:0:
240,311,276830,1,0,3:3:0:0:
266,257,276911,1,0,3:3:0:0:
313,220,276993,1,0,3:3:0:0:
372,225,277074,1,10,3:3:0:0:
413,268,277156,1,0,3:3:0:0:
418,328,277238,1,0,3:3:0:0:
376,371,277319,1,0,3:3:0:0:
316,383,277401,1,2,3:3:0:0:
272,350,277482,1,0,3:3:0:0:
271,299,277564,1,0,3:3:0:0:
300,264,277645,1,0,3:3:0:0:
340,265,277727,6,0,P|349:294|341:325,3,50,10|0|0|0,3:3|3:3|3:3|3:3,0:0:0:0:
285,139,278053,2,0,P|305:116|336:108,3,50,2|0|0|0,3:3|3:3|3:3|3:3,0:0:0:0:
206,257,278379,2,0,P|176:249|153:226,3,50,10|0|0|0,3:3|3:3|3:3|3:3,0:0:0:0:
92,165,278705,5,4,3:3:0:0:
43,200,278786,1,0,3:3:0:0:
34,259,278868,1,0,3:3:0:0:
61,312,278949,1,0,3:3:0:0:
117,332,279031,1,10,3:3:0:0:
175,317,279113,1,0,3:3:0:0:
205,265,279194,1,0,3:3:0:0:
201,204,279276,1,0,3:3:0:0:
163,157,279357,1,2,3:3:0:0:
160,96,279439,1,0,3:3:0:0:
194,47,279520,1,0,3:3:0:0:
252,30,279602,1,0,3:3:0:0:
307,52,279683,1,10,3:3:0:0:
331,107,279765,1,0,3:3:0:0:
317,164,279846,1,0,3:3:0:0:
271,203,279928,1,0,3:3:0:0:
211,203,280009,1,2,3:3:0:0:
173,162,280091,1,0,3:3:0:0:
139,125,280172,1,0,3:3:0:0:
93,121,280254,1,0,3:3:0:0:
59,142,280335,6,0,P|53:165|63:198,3,50,10|0|0|0,3:3|3:3|3:3|3:3,0:0:0:0:
118,294,280661,1,4,3:3:0:0:
105,285,280743,1,0,3:3:0:0:
92,280,280824,1,0,3:3:0:0:
77,277,280906,1,0,3:3:0:0:
63,277,280988,1,8,3:3:0:0:
49,280,281069,1,0,3:3:0:0:
35,286,281151,1,0,3:3:0:0:
23,294,281232,1,0,3:3:0:0:
15,305,281314,5,4,3:3:0:0:
37,361,281395,1,0,3:3:0:0:
94,378,281477,1,0,3:3:0:0:
150,358,281558,1,0,3:3:0:0:
175,303,281640,1,10,3:3:0:0:
204,251,281721,1,0,3:3:0:0:
256,222,281803,1,0,3:3:0:0:
314,231,281884,1,0,3:3:0:0:
354,276,281966,1,2,3:3:0:0:
350,330,282047,1,0,3:3:0:0:
310,361,282129,1,0,3:3:0:0:
265,355,282210,1,0,3:3:0:0:
237,326,282292,1,10,3:3:0:0:
240,291,282373,1,0,3:3:0:0:
263,271,282455,1,0,3:3:0:0:
287,276,282536,1,0,3:3:0:0:
299,291,282618,6,0,P|307:322|291:358,3,50,2|0|0|0,3:3|3:3|3:3|3:3,0:0:0:0:
151,384,282944,2,0,P|147:359|155:335,3,50,10|0|0|0,3:3|3:3|3:3|3:3,0:0:0:0:
67,224,283270,5,2,3:3:0:0:
48,238,283352,1,0,3:3:0:0:
39,259,283433,2,0,P|33:296|52:330,1,50,0|0,3:3|3:3,0:0:0:0:
180,164,283596,5,10,3:3:0:0:
176,140,283678,1,0,3:3:0:0:
164,122,283759,2,0,P|135:99|96:98,1,50,0|0,3:3|3:3,0:0:0:0:
163,279,283922,5,4,3:3:0:0:
217,323,284004,1,0,3:3:0:0:
286,317,284085,1,0,3:3:0:0:
332,263,284167,1,0,3:3:0:0:
334,193,284248,1,0,1:1:0:0:
291,136,284330,1,0,1:1:0:0:
295,66,284411,1,0,1:1:0:0:
349,22,284493,1,0,1:1:0:0:
417,33,284574,5,12,3:3:0:0:
415,108,284656,1,0,1:1:0:0:
358,157,284738,1,0,1:1:0:0:
284,168,284819,1,0,1:1:0:0:
221,125,284901,1,0,1:1:0:0:
190,57,284982,1,0,1:1:0:0:
116,39,285064,1,0,1:1:0:0:
45,64,285145,1,0,1:1:0:0:
13,132,285227,2,0,P|14:169|31:201,1,50,4|8,3:3|2:3,0:0:0:0:
102,262,285390,2,0,P|133:281|169:285,1,50,8|8,2:3|2:3,0:0:0:0:
321,196,285553,5,0,1:1:0:0:
369,152,285634,1,0,1:1:0:0:
434,150,285716,1,0,1:1:0:0:
487,186,285797,1,0,1:1:0:0:
498,250,285879,1,4,2:3:0:0:
480,312,285960,1,0,0:0:0:0:
426,350,286042,1,8,3:3:0:0:
367,336,286123,1,8,3:3:0:0:
329,294,286205,1,0,1:1:0:0:
280,281,286286,1,0,1:1:0:0:
237,295,286368,1,0,1:1:0:0:
215,328,286449,1,0,1:1:0:0:
223,362,286531,6,0,B|280:375|280:375|347:350,1,100,4|0,2:3|3:3,0:0:0:0:
410,261,286776,1,0,3:3:0:0:
410,261,286857,2,0,L|419:186,1,50,8|0,3:3|0:0,0:0:0:0:
298,144,287020,2,0,L|289:69,1,50,0|0,3:3|3:3,0:0:0:0:
405,11,287183,6,0,L|278:-3,1,100,0|0,3:3|3:3,0:0:0:0:
284,0,287428,1,0,3:3:0:0:
284,0,287509,1,8,3:3:0:0:
193,92,287672,1,0,3:3:0:0:
193,92,287754,1,0,3:3:0:0:
193,92,287835,6,0,L|66:106,1,100,2|0,3:3|3:3,0:0:0:0:
9,52,288080,1,0,3:3:0:0:
9,52,288161,2,0,L|-3:119,1,50,8|0,3:3|0:0,0:0:0:0:
99,190,288324,2,0,L|111:257,1,50,0|0,3:3|3:3,0:0:0:0:
20,354,288488,6,0,B|68:334|68:334|139:349,1,100,4|0,3:3|1:1,0:0:0:0:
139,348,288732,1,0,1:1:0:0:
179,350,288814,1,4,1:3:0:0:
211,327,288895,1,0,0:0:0:0:
220,287,288977,1,0,3:3:0:0:
207,254,289058,1,0,3:3:0:0:
178,245,289140,6,0,L|234:237,1,50,4|0,3:3|0:0,0:0:0:0:
311,303,289303,2,0,L|367:311,1,50,0|0,3:3|3:3,0:0:0:0:
463,188,289466,2,0,B|477:232|477:232|461:283,1,100,8|0,3:3|3:3,0:0:0:0:
332,384,289710,1,0,3:3:0:0:
332,384,289792,6,0,P|270:379|234:319,1,100,2|0,3:3|3:3,0:0:0:0:
317,125,290036,1,0,3:3:0:0:
317,125,290118,2,0,P|343:181|309:242,1,100,10|0,3:3|3:3,0:0:0:0:
107,236,290363,1,0,3:3:0:0:
107,236,290445,6,0,P|142:184|212:183,1,100,2|0,3:3|3:3,0:0:0:0:
276,279,290689,1,0,3:3:0:0:
276,279,290770,2,0,B|332:292|332:292|395:273,1,100,8|0,3:3|3:3,0:0:0:0:
180,111,291015,1,0,3:3:0:0:
180,111,291096,6,0,B|124:98|124:98|61:117,1,100,0|0,3:3|3:3,0:0:0:0:
64,126,291341,1,0,3:3:0:0:
61,140,291422,1,12,3:3:0:0:
58,154,291504,1,0,0:0:0:0:
55,168,291585,1,0,1:1:0:0:
52,182,291667,1,0,1:1:0:0:
49,196,291748,5,4,3:3:0:0:
80,234,291830,1,0,3:3:0:0:
128,244,291911,1,0,3:3:0:0:
173,223,291993,1,0,3:3:0:0:
198,180,292074,1,8,3:3:0:0:
242,156,292156,1,0,3:3:0:0:
292,160,292238,1,0,3:3:0:0:
329,192,292319,1,0,3:3:0:0:
338,241,292401,5,8,3:3:0:0:
278,235,292482,1,0,3:3:0:0:
239,188,292564,1,0,3:3:0:0:
235,128,292645,1,0,3:3:0:0:
268,77,292727,1,8,3:3:0:0:
325,60,292808,1,0,3:3:0:0:
382,79,292890,1,0,3:3:0:0:
414,129,292971,1,0,3:3:0:0:
405,188,293053,5,8,3:3:0:0:
358,170,293134,1,0,3:3:0:0:
334,125,293216,1,0,3:3:0:0:
334,75,293297,1,0,3:3:0:0:
366,36,293379,1,8,3:3:0:0:
413,22,293460,1,0,3:3:0:0:
462,33,293542,1,0,3:3:0:0:
494,70,293623,1,0,3:3:0:0:
505,118,293705,5,8,3:3:0:0:
480,113,293786,1,0,3:3:0:0:
458,100,293868,1,0,3:3:0:0:
444,79,293949,1,0,3:3:0:0:
440,54,294031,1,8,3:3:0:0:
447,29,294113,1,0,3:3:0:0:
464,10,294194,1,0,3:3:0:0:
483,6,294276,1,0,3:3:0:0:
497,9,294357,6,0,B|481:118|369:142|281:65|318:53|271:-11|113:-8|89:112|89:112|127:36|205:41,1,629.999980773926,12|0,3:3|0:0,0:0:0:0:
29,165,295661,6,0,B|-31:215|-26:286|60:357|138:310|155:233|155:233|188:288|247:285|274:260|267:250|300:213|342:219|383:256,1,560,4|0,3:3|0:0,0:0:0:0:
435,362,296966,6,0,B|372:395|266:361|249:248|321:197|326:198|331:201|356:173|368:104|337:41|275:33|275:33|352:71|402:214|253:339|107:266|51:120|167:35|167:35|95:89|12:30,1,1200,6|0,3:3|3:3,0:0:0:0:
13,27,299493,1,0,3:3:0:0:
4,8,299574,1,4,3:3:0:0:
256,192,299656,12,0,302183,2:0:0:0:
