osu file format v14

[General]
AudioFilename: audio.ogg
AudioLeadIn: 0
PreviewTime: 62026
Countdown: 0
SampleSet: Drum
StackLeniency: 0.5
Mode: 0
LetterboxInBreaks: 0
WidescreenStoryboard: 1

[Editor]
DistanceSpacing: 1.5
BeatDivisor: 4
GridSize: 8
TimelineZoom: 2.500005

[Metadata]
Title:Dawn of the Dragonstar
TitleUnicode:Dawn of the Dragonstar
Artist:Twilight Force
ArtistUnicode:Twilight Force
Creator:nebuwua
Version:Maki's Expert
Source:
Tags:makidonalds dcs meiikyuu werhakon gloryhammer roupus symphonic melodic power metal powermetal adventure epic fantasy english nuclear blast records born borne Christer Björn Mikael Lundkvist Johan Philip Michael Lindh Eldhrimnir Daniel Beckman Gustaf Hansfeldt Aerendir Anders Joakim Johansson Alessandro Conti Ylva Eriksson Lynd Blackwald De'Azsh Allyon
BeatmapID:4033854
BeatmapSetID:1837608

[Difficulty]
HPDrainRate:5
CircleSize:4.2
OverallDifficulty:9
ApproachRate:9.2
SliderMultiplier:1.6
SliderTickRate:1

[Events]
//Background and Video events
0,0,"phuoc-quan-dragon-rise-test-small.jpg",0,0
//Break Periods
//Storyboard Layer 0 (Background)
//Storyboard Layer 1 (Fail)
//Storyboard Layer 2 (Pass)
//Storyboard Layer 3 (Foreground)
//Storyboard Layer 4 (Overlay)
//Storyboard Sound Samples

[TimingPoints]
312,342.857142857143,4,3,1,60,1,0
6997,-100,4,3,1,5,0,0
7169,-100,4,3,1,60,0,0
9912,-100,4,3,2,60,0,0
10254,-100,4,3,1,60,0,0
15397,-100,4,3,9,60,0,0
16769,-100,4,3,3,60,0,0
17454,-100,4,3,4,60,0,0
17540,-100,4,3,5,60,0,0
17626,-100,4,3,6,60,0,0
17797,-100,4,3,1,60,0,0
18140,-80,4,3,1,60,0,0
18482,-80,4,3,2,60,0,0
18826,-100,4,3,2,60,0,0
19340,-100,4,3,1,60,0,0
19425,-100,4,3,2,60,0,0
20369,-100,4,3,1,60,0,0
20540,-100,4,3,2,60,0,0
20712,-100,4,3,1,60,0,0
20883,-100,4,3,7,60,0,0
21226,-100,4,3,5,60,0,0
21569,-100,4,3,1,60,0,0
21912,-100,4,3,8,60,0,0
22083,-100,4,3,7,60,0,0
22940,-100,4,3,1,60,0,0
23283,-100,4,3,4,60,0,0
23369,-100,4,3,8,60,0,0
23454,-100,4,3,1,60,0,0
23626,-80,4,3,2,60,0,0
24312,-100,4,3,1,60,0,0
24483,-100,4,3,2,60,0,0
24912,-100,4,3,1,60,0,0
25340,-100,4,3,2,60,0,0
25683,-100,4,3,1,60,0,0
25854,-100,4,3,2,60,0,0
27054,-100,4,3,7,60,0,0
27740,-100,4,3,1,60,0,0
28940,-100,4,3,4,60,0,0
29112,-111.111111111111,4,3,1,60,0,0
33054,-111.111111111111,4,3,4,60,0,0
33140,-111.111111111111,4,3,8,60,0,0
33226,-111.111111111111,4,3,7,60,0,0
33740,-111.111111111111,4,3,9,60,0,0
34597,-111.111111111111,4,3,1,60,0,0
35797,-90.9090909090909,4,3,1,60,0,0
36140,-111.111111111111,4,3,1,60,0,0
39054,-111.111111111111,4,3,3,60,0,0
39397,-111.111111111111,4,3,4,60,0,0
39483,-111.111111111111,4,3,6,60,0,0
39826,-111.111111111111,4,3,1,60,0,0
40083,-90.9090909090909,4,3,1,60,0,0
40769,-111.111111111111,4,3,1,60,0,0
42826,-111.111111111111,4,3,9,60,0,0
43512,-111.111111111111,4,3,7,60,0,0
44026,-111.111111111111,4,3,4,60,0,0
44112,-111.111111111111,4,3,6,60,0,0
44197,-111.111111111111,4,3,7,60,0,0
44712,-111.111111111111,4,3,1,60,0,0
45054,-111.111111111111,4,3,4,60,0,0
45226,-111.111111111111,4,3,6,60,0,0
45397,-111.111111111111,4,3,8,60,0,0
45569,-111.111111111111,4,3,9,60,0,0
46083,-111.111111111111,4,3,1,60,0,0
48312,-142.857142857143,4,3,9,60,0,0
48654,-99.9999999999999,4,3,9,60,0,0
48997,-76.9230769230769,4,3,9,60,0,0
49340,-111.111111111111,4,3,9,60,0,0
49940,-111.111111111111,4,3,1,60,0,0
50111,-111.111111111111,4,3,3,60,0,0
50369,-111.111111111111,4,3,2,60,0,0
50883,-111.111111111111,4,3,3,60,0,0
50968,-111.111111111111,4,3,4,60,0,0
51226,-100,4,3,1,60,0,0
53797,-100,4,3,7,60,0,0
54483,-100,4,3,9,60,0,0
55254,-100,4,3,1,60,0,0
55340,-100,4,3,2,60,0,0
56540,-100,4,3,1,60,0,0
56712,-100,4,3,2,60,0,0
57226,-111.111111111111,4,3,2,60,0,0
58854,-111.111111111111,4,3,1,60,0,0
58940,-111.111111111111,4,3,2,60,0,0
59025,-111.111111111111,4,3,1,60,0,0
59112,-111.111111111111,4,3,2,60,0,0
59197,-111.111111111111,4,3,1,60,0,0
59283,-111.111111111111,4,3,2,60,0,0
59797,-111.111111111111,4,3,7,60,0,0
60312,-111.111111111111,4,3,9,60,0,0
60739,-111.111111111111,4,3,3,60,0,0
60997,-100,4,3,4,60,0,0
61340,-100,4,3,3,60,0,0
61512,-100,4,3,4,60,0,0
61683,-100,4,3,6,60,0,0
61854,-100,4,3,1,60,0,0
62026,-100,4,3,1,60,0,1
68883,-100,4,3,2,60,0,1
69397,-100,4,3,7,60,0,1
69912,-100,4,3,2,60,0,1
70254,-100,4,3,1,60,0,1
71369,-100,4,3,3,60,0,1
71969,-100,4,3,4,60,0,1
72140,-100,4,3,1,60,0,1
72312,-100,4,3,3,60,0,1
72483,-100,4,3,4,60,0,1
72654,-100,4,3,1,60,0,1
73168,-100,4,3,2,60,0,1
75740,-100,4,3,1,60,0,1
75911,-100,4,3,2,60,0,1
77112,-100,4,3,1,60,0,1
77283,-100,4,3,2,60,0,1
77540,-100,4,3,1,60,0,1
77626,-100,4,3,2,60,0,1
77797,-100,4,3,1,60,0,1
77969,-100,4,3,2,60,0,1
78054,-100,4,3,1,60,0,1
78312,-100,4,3,2,60,0,1
78483,-100,4,3,1,60,0,1
78654,-100,4,3,2,60,0,1
79854,-100,4,3,7,60,0,1
80883,-100,4,3,2,60,0,1
81226,-100,4,3,4,60,0,1
81912,-100,4,3,6,60,0,1
82254,-100,4,3,8,60,0,1
82597,-153.846153846154,4,3,4,60,0,1
83283,-153.846153846154,4,2,100,60,0,1
83288,-153.846153846154,4,3,1,60,0,1
83969,-100,4,3,1,60,0,0
86712,-100,4,3,2,60,0,0
87054,-100,4,3,1,60,0,0
92197,-100,4,3,9,60,0,0
92883,-100,4,3,7,60,0,0
93569,-100,4,3,3,60,0,0
94254,-100,4,3,4,60,0,0
94426,-100,4,3,6,60,0,0
94597,-100,4,3,1,60,0,0
95283,-111.111111111111,4,3,1,60,0,0
98883,-111.111111111111,4,3,4,60,0,0
98969,-111.111111111111,4,3,8,60,0,0
99054,-80,4,3,7,60,0,0
99397,-80,4,3,9,60,0,0
99740,-80,4,3,1,60,0,0
99825,-80,4,3,4,60,0,0
99997,-80,4,3,6,60,0,0
100083,-80,4,3,2,60,0,0
100596,-80,4,3,1,60,0,0
100769,-111.111111111111,4,3,1,60,0,0
103169,-111.111111111111,4,3,7,60,0,0
103512,-111.111111111111,4,3,2,60,0,0
103854,-111.111111111111,4,3,7,60,0,0
104197,-111.111111111111,4,3,1,60,0,0
105226,-111.111111111111,4,3,3,60,0,0
105569,-111.111111111111,4,3,4,60,0,0
105912,-90.9090909090909,4,3,1,60,0,0
106597,-111.111111111111,4,3,1,60,0,0
108654,-111.111111111111,4,3,9,60,0,0
109340,-111.111111111111,4,3,7,60,0,0
110026,-111.111111111111,4,3,3,60,0,0
110540,-111.111111111111,4,3,2,60,0,0
110712,-111.111111111111,4,3,4,60,0,0
111054,-111.111111111111,4,3,2,60,0,0
111226,-111.111111111111,4,3,6,60,0,0
111397,-111.111111111111,4,3,9,60,0,0
111912,-111.111111111111,4,3,1,60,0,0
114140,-142.857142857143,4,3,9,60,0,0
114483,-100,4,3,9,60,0,0
114826,-76.9230769230769,4,3,9,60,0,0
115169,-111.111111111111,4,3,9,60,0,0
115597,-111.111111111111,4,3,1,60,0,0
116197,-111.111111111111,4,3,2,60,0,0
116540,-111.111111111111,4,3,1,60,0,0
116883,-111.111111111111,4,3,2,60,0,0
117054,-100,4,3,1,60,0,0
119626,-100,4,3,7,60,0,0
120312,-100,4,3,9,60,0,0
121082,-100,4,3,1,60,0,0
121169,-100,4,3,2,60,0,0
122369,-100,4,3,1,60,0,0
122540,-100,4,3,2,60,0,0
123054,-111.111111111111,4,3,2,60,0,0
124683,-111.111111111111,4,3,1,60,0,0
124769,-111.111111111111,4,3,2,60,0,0
124854,-111.111111111111,4,3,1,60,0,0
124940,-111.111111111111,4,3,2,60,0,0
125025,-111.111111111111,4,3,1,60,0,0
125112,-111.111111111111,4,3,2,60,0,0
125626,-111.111111111111,4,3,7,60,0,0
126140,-111.111111111111,4,3,9,60,0,0
126483,-90.9090909090909,4,3,9,60,0,0
126568,-90.9090909090909,4,3,3,60,0,0
126826,-100,4,3,4,60,0,0
127169,-111.111111111111,4,3,3,60,0,0
127340,-111.111111111111,4,3,4,60,0,0
127512,-125,4,3,6,60,0,0
127683,-125,4,3,1,60,0,0
127854,-125,4,3,1,60,0,1
128540,-100,4,3,1,60,0,1
134712,-100,4,3,2,60,0,1
135226,-100,4,3,7,60,0,1
135740,-100,4,3,2,60,0,1
136083,-100,4,3,1,60,0,1
137197,-100,4,3,3,60,0,1
137797,-100,4,3,4,60,0,1
137969,-100,4,3,1,60,0,1
138140,-100,4,3,3,60,0,1
138312,-100,4,3,4,60,0,1
138483,-100,4,3,1,60,0,1
138997,-100,4,3,2,60,0,1
141569,-100,4,3,1,60,0,1
141740,-100,4,3,2,60,0,1
142940,-100,4,3,1,60,0,1
143112,-100,4,3,2,60,0,1
143369,-100,4,3,1,60,0,1
143454,-100,4,3,2,60,0,1
143626,-100,4,3,1,60,0,1
143797,-100,4,3,2,60,0,1
143883,-100,4,3,1,60,0,1
144140,-100,4,3,2,60,0,1
144312,-100,4,3,1,60,0,1
144483,-100,4,3,2,60,0,1
145683,-100,4,3,7,60,0,1
146712,-100,4,3,2,60,0,1
147054,-100,4,3,4,60,0,1
147740,-100,4,3,6,60,0,1
148083,-100,4,3,8,60,0,1
148426,-153.846153846154,4,3,4,60,0,1
149112,-153.846153846154,4,2,100,60,0,1
149117,-153.846153846154,4,3,1,60,0,1
149797,-153.846153846154,4,3,1,60,0,0
149969,-111.111111111111,4,3,1,60,0,0
150311,-111.111111111111,4,3,3,60,0,0
150654,-111.111111111111,4,3,9,60,0,0
150826,-111.111111111111,4,3,2,60,0,0
151169,-90.9090909090909,4,3,3,60,0,0
151512,-100,4,3,4,60,0,0
151854,-111.111111111111,4,3,3,60,0,0
152025,-111.111111111111,4,3,4,60,0,0
152197,-125,4,3,6,60,0,0
152368,-125,4,3,8,60,0,0
152540,-125,4,3,1,60,0,0
153569,-100,4,3,1,60,0,0
156312,-100,4,3,2,60,0,0
156654,-100,4,3,1,60,0,0
156997,-100,4,3,3,60,0,0
157169,-100,4,3,4,60,0,0
157340,-100,4,3,6,60,0,0
157683,-100,4,3,1,60,0,0
157854,-100,4,3,6,60,0,0
157939,-100,4,3,8,60,0,0
158026,-100,4,3,9,60,0,0
158712,-100,4,3,1,60,0,0
160769,-100,4,3,2,60,0,0
161454,-100,4,3,7,60,0,0
162483,-100,4,3,4,60,0,0
162654,-100,4,3,6,60,0,0
162826,-100,4,3,4,60,0,0
162997,-100,4,3,8,60,0,0
163169,-100,4,3,2,60,0,0
163512,-100,4,3,1,60,0,0
163854,-100,4,3,2,60,0,0
164197,-100,4,3,1,60,0,0
164540,-100,4,3,2,60,0,0
164883,-100,4,3,1,60,0,0
165226,-100,4,3,2,60,0,0
165569,-100,4,3,1,60,0,0
165912,-100,4,3,2,60,0,0
166083,-100,4,3,1,60,0,0
166169,-100,4,3,2,60,0,0
166254,-100,4,3,9,60,0,0
167797,-90.9090909090909,4,3,9,60,0,0
167969,-90.9090909090909,4,3,2,60,0,0
168312,-90.9090909090909,4,3,1,60,0,0
168483,-111.111111111111,4,3,1,60,0,0
168654,-111.111111111111,4,3,2,60,0,0
168740,-111.111111111111,4,3,1,60,0,0
168826,-111.111111111111,4,3,2,60,0,0
168911,-111.111111111111,4,3,1,60,0,0
168997,-100,4,3,1,60,0,0
169683,-100,4,3,9,60,0,0
171740,-83.3333333333333,4,3,1,60,0,0
173626,-100,4,3,1,60,0,0
174312,-100,4,3,4,60,0,0
174483,-100,4,3,1,60,0,0
174654,-100,4,3,2,60,0,0
177139,-100,4,3,1,60,0,0
177226,-100,4,3,2,60,0,0
177912,-83.3333333333333,4,3,2,60,0,0
178769,-100,4,3,2,60,0,0
179969,-100,4,3,1,60,0,0
180140,-100,4,3,2,60,0,0
181340,-83.3333333333333,4,3,2,60,0,0
181683,-111.111111111111,4,3,2,60,0,0
182026,-133.333333333333,4,3,1,60,0,0
182197,-133.333333333333,4,3,2,60,0,0
182282,-133.333333333333,4,3,1,60,0,0
182369,-133.333333333333,4,3,3,60,0,0
182540,-133.333333333333,4,3,4,60,0,0
182626,-133.333333333333,4,3,6,60,0,0
182712,-153.846153846154,4,3,2,60,0,0
183740,-100,4,3,2,60,0,0
184083,-153.846153846154,4,3,2,60,0,0
185454,-153.846153846154,4,3,1,60,0,1
186140,-100,4,3,1,60,0,1
192312,-100,4,3,2,60,0,1
192826,-100,4,3,7,60,0,1
193340,-100,4,3,2,60,0,1
193683,-100,4,3,1,60,0,1
194797,-100,4,3,3,60,0,1
195397,-100,4,3,4,60,0,1
195569,-100,4,3,1,60,0,1
195740,-100,4,3,3,60,0,1
195912,-100,4,3,4,60,0,1
196083,-100,4,3,1,60,0,1
196597,-100,4,3,2,60,0,1
199169,-100,4,3,1,60,0,1
199340,-100,4,3,2,60,0,1
200540,-100,4,3,1,60,0,1
200712,-100,4,3,2,60,0,1
200969,-100,4,3,1,60,0,1
201054,-100,4,3,2,60,0,1
201226,-100,4,3,1,60,0,1
201397,-100,4,3,2,60,0,1
201483,-100,4,3,1,60,0,1
201740,-100,4,3,2,60,0,1
201912,-100,4,3,1,60,0,1
202083,-100,4,3,2,60,0,1
203283,-100,4,3,7,60,0,1
204312,-100,4,3,2,60,0,1
204654,-100,4,3,4,60,0,1
204740,-100,4,3,1,60,0,1
204997,-100,4,3,3,60,0,1
205254,-100,4,3,4,60,0,1
205683,-100,4,3,6,60,0,1
206026,-100,4,3,1,60,0,1
206369,-100,4,3,4,60,0,1
206712,-100,4,3,6,60,0,1
207054,-100,4,3,8,60,0,1
207397,-133.333333333333,4,3,2,60,0,1
209797,-133.333333333333,4,3,8,60,0,1
210140,-100,4,3,2,60,0,0

[Colours]
Combo1 : 127,140,81
Combo2 : 229,128,242
Combo3 : 4,217,57
Combo4 : 84,172,191

[HitObjects]
256,192,654,12,1,6997,2:0:0:0:
20,35,7169,6,1,L|49:143,1,80,4|0,3:0|3:0,2:0:0:0:
116,169,7426,1,0,3:0:0:0:
116,169,7512,2,1,L|94:254,1,80,10|0,2:3|3:0,2:0:0:0:
76,337,7769,1,0,3:0:0:0:
76,337,7854,1,2,3:2:0:0:
184,263,8026,1,0,3:0:0:0:
184,263,8112,1,0,3:0:0:0:
184,263,8197,1,10,2:3:0:0:
13,289,8369,1,0,3:0:0:0:
141,379,8540,6,1,P|180:376|213:354,1,80,2|0,3:2|3:0,2:0:0:0:
287,281,8797,1,0,3:0:0:0:
287,281,8883,2,1,P|326:283|359:305,1,80,10|0,2:3|3:0,2:0:0:0:
408,384,9140,1,0,3:0:0:0:
408,384,9226,1,2,3:2:0:0:
491,259,9397,1,0,3:0:0:0:
491,259,9483,1,0,3:0:0:0:
491,259,9569,1,10,2:3:0:0:
383,150,9740,1,0,3:0:0:0:
383,150,9826,1,0,3:0:0:0:
383,150,9912,6,1,L|412:258,1,80,4|0,3:0|3:0,2:0:0:0:
424,324,10169,1,0,3:0:0:0:
424,324,10254,2,1,P|381:304|326:313,1,80,10|0,2:3|3:0,2:0:0:0:
273,364,10512,1,0,3:0:0:0:
273,364,10597,2,1,L|244:256,1,80,2|0,3:0|3:0,2:0:0:0:
182,230,10854,1,0,3:0:0:0:
182,230,10940,2,1,L|211:122,1,80,10|0,2:3|3:0,2:0:0:0:
198,52,11197,1,0,3:0:0:0:
198,52,11283,6,1,P|225:70|305:62,1,80,4|0,3:2|3:0,2:0:0:0:
397,0,11626,1,10,2:3:0:0:
326,162,11797,1,0,3:0:0:0:
326,162,11883,1,0,3:0:0:0:
326,162,11969,1,12,3:1:0:0:
258,0,12140,1,0,3:0:0:0:
258,0,12226,1,0,3:0:0:0:
258,0,12312,1,8,2:3:0:0:
411,148,12483,1,8,2:3:0:0:
411,148,12569,1,8,2:3:0:0:
411,148,12654,6,1,P|403:197|373:228,1,80,4|0,3:0|3:0,2:0:0:0:
248,182,12912,1,0,3:0:0:0:
248,182,12997,2,1,L|333:160,1,80,10|0,2:3|3:0,2:0:0:0:
352,83,13254,1,0,3:0:0:0:
352,83,13340,1,2,3:2:0:0:
310,261,13512,1,0,3:0:0:0:
310,261,13597,1,0,3:0:0:0:
310,261,13683,1,10,2:3:0:0:
200,117,13854,1,0,3:0:0:0:
200,117,13940,1,0,3:0:0:0:
200,117,14026,6,1,L|114:94,1,80,2|0,3:0|3:0,2:0:0:0:
23,208,14283,1,0,3:0:0:0:
23,208,14369,2,1,L|108:185,1,80,10|0,2:3|3:0,2:0:0:0:
187,212,14626,1,0,3:0:0:0:
187,212,14712,1,2,3:2:0:0:
39,114,14883,1,0,3:0:0:0:
39,114,14969,1,0,3:0:0:0:
39,114,15054,1,10,2:3:0:0:
221,59,15226,1,0,3:0:0:0:
221,59,15312,1,0,3:0:0:0:
221,59,15397,5,12,3:0:0:0:
257,43,15483,1,0,3:0:0:0:
296,46,15569,1,0,3:0:0:0:
329,69,15654,1,0,3:0:0:0:
346,104,15740,1,0,3:0:0:0:
378,125,15826,1,0,3:0:0:0:
418,129,15912,1,0,3:0:0:0:
453,112,15997,1,0,3:0:0:0:
476,80,16083,5,10,3:0:0:0:
443,44,16169,1,0,3:0:0:0:
399,27,16254,1,0,3:0:0:0:
352,30,16340,1,0,3:0:0:0:
310,54,16426,1,0,3:0:0:0:
284,93,16512,1,0,3:0:0:0:
277,140,16597,1,8,3:0:0:0:
291,186,16683,1,8,3:0:0:0:
323,221,16769,6,1,L|377:206,3,40,8|8|0|0,3:0|3:0|3:0|3:0,2:0:0:0:
447,151,17112,2,1,L|392:136,3,40,6|0|8|8,3:0|3:0|3:0|2:3,2:0:0:0:
512,93,17454,1,8,3:0:0:0:
512,93,17540,1,8,2:3:0:0:
512,93,17626,2,1,L|497:39,1,40,8|8,2:3|2:3,2:0:0:0:
416,15,17797,1,8,2:3:0:0:
416,15,17883,1,8,2:3:0:0:
416,15,17969,2,1,L|401:69,1,40,0|0,3:0|3:0,2:0:0:0:
361,210,18140,6,1,B|309:230|259:200|285:181|234:148|177:170,1,200,4|10,3:0|2:0,2:0:0:0:
188,325,18654,1,0,3:0:0:0:
188,325,18740,1,0,3:0:0:0:
188,325,18826,2,1,L|211:239,1,80,2|0,3:2|3:0,2:0:0:0:
115,254,19083,1,0,3:0:0:0:
115,254,19169,2,1,L|100:200,1,40,10|0,2:0|2:0,2:0:0:0:
176,169,19340,2,1,L|191:115,1,40,2|0,3:1|3:0,2:0:0:0:
139,58,19512,6,1,P|185:40|227:51,1,80,2|0,3:2|3:0,2:0:0:0:
273,115,19769,1,0,3:0:0:0:
273,115,19854,2,1,P|319:133|361:122,1,80,10|0,2:0|3:0,2:0:0:0:
410,67,20112,1,0,3:0:0:0:
410,67,20197,1,2,3:2:0:0:
512,194,20369,1,2,3:1:0:0:
512,194,20454,1,0,3:0:0:0:
512,194,20540,2,1,L|466:182,1,40,10|0,2:0|2:0,2:0:0:0:
318,240,20712,1,2,3:1:0:0:
318,240,20797,1,0,3:0:0:0:
318,240,20883,5,12,3:0:0:0:
294,222,20969,1,0,3:0:0:0:
263,214,21054,1,0,3:0:0:0:
233,225,21140,1,0,3:0:0:0:
214,249,21226,2,1,L|226:295,3,40,8|0|0|0,3:0|3:0|3:0|3:0,2:0:0:0:
25,169,21569,5,10,3:0:0:0:
57,146,21654,1,0,3:0:0:0:
96,147,21740,1,0,3:0:0:0:
129,170,21826,1,0,3:0:0:0:
142,207,21912,2,1,L|132:246,3,40,8|0|8|8,3:0|3:0|3:0|3:0,2:0:0:0:
157,92,22254,5,12,3:0:0:0:
201,67,22340,1,0,0:0:0:0:
253,71,22426,1,0,0:0:0:0:
293,102,22512,1,0,0:0:0:0:
311,150,22597,1,0,0:0:0:0:
350,183,22683,1,0,0:0:0:0:
401,189,22769,1,0,0:0:0:0:
447,167,22854,1,0,0:0:0:0:
473,123,22940,5,12,0:0:0:0:
440,83,23026,1,0,0:0:0:0:
393,64,23112,1,0,0:0:0:0:
341,68,23197,1,0,0:0:0:0:
298,96,23283,1,8,0:0:0:0:
273,141,23369,1,8,0:0:0:0:
271,192,23454,2,1,L|325:206,1,40,8|8,0:0|0:0,2:0:0:0:
461,246,23626,6,1,B|435:272|439:311|439:311|420:247|420:247|416:242|416:242|400:188,1,200,6|10,3:0|2:3,2:0:0:0:
512,93,24140,1,2,3:2:0:0:
512,93,24226,1,0,3:0:0:0:
512,93,24312,2,1,P|504:141|474:172,1,80,2|2,3:1|3:2,2:0:0:0:
342,120,24569,1,0,3:0:0:0:
342,120,24654,2,1,L|428:97,1,80,10|2,2:3|3:2,2:0:0:0:
460,23,24912,1,2,3:1:0:0:
460,23,24997,5,4,3:2:0:0:
400,188,25169,1,0,3:0:0:0:
400,188,25254,1,0,3:0:0:0:
400,188,25340,1,10,2:3:0:0:
327,37,25512,2,1,L|281:49,1,40,2|0,3:2|3:0,2:0:0:0:
157,104,25683,6,1,L|243:127,1,80,2|2,3:1|3:2,2:0:0:0:
319,148,25940,1,0,3:0:0:0:
319,148,26026,1,10,2:3:0:0:
170,249,26197,1,2,3:2:0:0:
170,249,26283,1,0,3:0:0:0:
170,249,26369,5,12,3:0:0:0:
202,226,26454,1,0,3:0:0:0:
241,221,26540,1,0,3:0:0:0:
278,235,26626,1,0,3:0:0:0:
304,265,26712,1,0,3:0:0:0:
312,303,26797,1,0,3:0:0:0:
301,342,26883,1,0,3:0:0:0:
274,370,26969,1,0,3:0:0:0:
236,382,27054,5,12,3:0:0:0:
232,350,27140,1,0,3:0:0:0:
228,318,27226,1,0,3:0:0:0:
224,286,27312,1,0,3:0:0:0:
220,254,27397,1,0,3:0:0:0:
216,223,27483,1,0,3:0:0:0:
212,191,27569,2,1,L|165:178,1,40,0|0,3:0|3:0,2:0:0:0:
0,148,27740,5,10,3:0:0:0:
50,253,27912,1,0,3:0:0:0:
50,253,27997,1,0,3:0:0:0:
50,253,28083,2,1,L|61:215,1,40,8|8,2:3|2:3,2:0:0:0:
95,96,28254,1,8,2:3:0:0:
95,96,28340,1,8,2:3:0:0:
95,96,28426,2,1,L|108:147,1,40,0|0,3:0|3:0,2:0:0:0:
174,181,28597,2,1,L|163:219,1,40,8|8,2:3|2:3,2:0:0:0:
190,43,28769,1,0,3:0:0:0:
190,43,28854,1,0,3:0:0:0:
190,43,28940,2,1,L|203:94,1,40,8|8,2:3|2:3,2:0:0:0:
262,205,29112,6,1,L|285:119,1,72.0000000000001,4|0,3:0|3:0,2:0:0:0:
282,103,29369,1,0,3:0:0:0:
282,103,29454,2,1,P|327:120|369:109,1,72.0000000000001,10|0,2:3|3:0,2:0:0:0:
452,62,29797,2,1,L|424:166,1,108,2|0,3:2|3:0,2:0:0:0:
396,185,30140,2,1,L|419:271,1,72.0000000000001,10|0,2:3|3:0,2:0:0:0:
492,356,30483,6,1,P|446:338|404:349,1,72.0000000000001,2|0,3:0|2:0,2:0:0:0:
408,370,30740,1,0,3:0:0:0:
408,370,30826,2,1,P|362:387|320:376,1,72.0000000000001,10|0,2:3|3:0,2:0:0:0:
248,320,31169,2,1,L|268:242,1,72.0000000000001,2|0,3:0|2:0,2:0:0:0:
298,231,31426,1,0,3:0:0:0:
298,231,31512,2,1,L|277:153,1,72.0000000000001,10|0,2:3|3:0,2:0:0:0:
311,46,31769,1,0,3:0:0:0:
311,46,31854,6,1,P|278:61|243:60,1,72.0000000000001,4|0,3:0|2:0,2:0:0:0:
216,46,32112,1,0,3:0:0:0:
216,46,32197,1,10,2:3:0:0:
279,161,32369,1,0,3:0:0:0:
121,116,32540,2,1,L|103:198,1,72.0000000000001,2|0,3:2|2:0,2:0:0:0:
101,222,32797,1,0,3:0:0:0:
101,222,32883,1,10,2:3:0:0:
279,161,33054,1,8,3:0:0:0:
279,161,33140,1,8,2:3:0:0:
279,161,33226,5,4,3:0:0:0:
315,148,33312,1,0,3:0:0:0:
353,157,33397,1,0,3:0:0:0:
379,186,33483,1,0,3:0:0:0:
416,198,33569,1,0,3:0:0:0:
453,187,33654,1,0,3:0:0:0:
478,157,33740,5,12,3:0:0:0:
445,124,33826,1,0,3:0:0:0:
400,118,33912,1,0,3:0:0:0:
361,142,33997,1,0,3:0:0:0:
345,185,34083,1,0,3:0:0:0:
359,229,34169,1,0,3:0:0:0:
398,254,34254,2,1,L|444:241,3,36,12|0|0|0,3:0|3:0|3:0|3:0,2:0:0:0:
327,301,34597,6,1,L|257:282,1,72.0000000000001,4|0,3:0|3:0,2:0:0:0:
238,258,34854,1,0,3:0:0:0:
238,258,34940,2,1,L|160:279,1,72.0000000000001,10|0,2:3|3:0,2:0:0:0:
49,306,35283,2,1,L|70:223,1,72.0000000000001,2|0,3:2|2:0,2:0:0:0:
98,216,35540,1,0,3:0:0:0:
98,216,35626,2,1,L|85:169,1,36,10|0,2:3|2:0,2:0:0:0:
139,68,35797,6,1,B|200:83|200:83|201:88|201:88|274:105,1,132,0|0,3:0|2:0,2:0:0:0:
294,88,36140,2,1,L|311:157,1,72.0000000000001,0|10,2:0|2:3,2:0:0:0:
347,288,36483,1,0,3:0:0:0:
219,184,36654,2,1,L|202:253,1,72.0000000000001,2|0,3:2|2:0,2:0:0:0:
195,293,36912,1,0,3:0:0:0:
195,293,36997,1,10,2:3:0:0:
316,204,37169,1,0,3:0:0:0:
169,312,37340,5,10,3:0:0:0:
129,295,37426,1,0,3:0:0:0:
106,259,37512,1,0,3:0:0:0:
109,217,37597,1,0,3:0:0:0:
135,183,37683,1,10,3:0:0:0:
141,141,37769,1,0,3:0:0:0:
121,103,37854,1,0,3:0:0:0:
84,83,37940,1,0,3:0:0:0:
42,89,38026,5,10,3:0:0:0:
26,129,38112,1,0,3:0:0:0:
29,171,38197,1,0,3:0:0:0:
49,209,38283,1,0,3:0:0:0:
84,235,38369,1,10,3:0:0:0:
125,244,38454,1,0,3:0:0:0:
167,234,38540,1,0,3:0:0:0:
201,208,38626,1,0,3:0:0:0:
221,170,38712,6,1,L|208:123,3,36,8|8|0|0,2:3|2:3|3:0|3:0,2:0:0:0:
289,236,39054,2,1,L|276:282,3,36,8|8|0|0,2:3|2:3|3:0|3:0,2:0:0:0:
310,152,39397,1,8,2:3:0:0:
310,152,39483,1,8,2:3:0:0:
310,152,39569,2,1,L|356:139,1,36,0|0,3:0|3:0,2:0:0:0:
414,236,39740,1,0,3:0:0:0:
414,236,39826,1,8,2:3:0:0:
414,236,39912,2,1,L|367:223,1,36,8|8,2:3|2:3,2:0:0:0:
482,166,40083,6,1,B|520:216|520:216|486:344,1,176,4|10,3:0|2:3,2:0:0:0:
395,368,40597,1,0,3:0:0:0:
395,368,40683,1,0,3:0:0:0:
395,368,40769,2,1,L|378:299,1,72.0000000000001,2|0,3:0|3:0,2:0:0:0:
352,280,41026,1,0,3:0:0:0:
352,280,41112,2,1,L|376:187,1,72.0000000000001,10|0,2:3|3:0,2:0:0:0:
399,111,41369,1,0,3:0:0:0:
399,111,41454,6,1,P|368:129|320:127,1,72.0000000000001,2|0,3:2|3:0,2:0:0:0:
309,112,41712,1,0,3:0:0:0:
309,112,41797,2,1,L|223:134,1,72.0000000000001,10|0,2:3|3:0,2:0:0:0:
214,155,42054,1,0,3:0:0:0:
214,155,42140,2,1,L|145:138,1,72.0000000000001,2|0,3:0|3:0,2:0:0:0:
116,129,42397,1,0,3:0:0:0:
116,129,42483,1,10,2:3:0:0:
183,266,42654,1,0,3:0:0:0:
183,266,42740,1,0,3:0:0:0:
183,266,42826,5,14,3:0:0:0:
217,232,42912,1,0,3:0:0:0:
260,217,42997,1,0,3:0:0:0:
305,230,43083,1,0,3:0:0:0:
334,265,43169,1,2,3:0:0:0:
376,285,43254,1,0,3:0:0:0:
421,276,43340,1,0,3:0:0:0:
453,244,43426,1,0,3:0:0:0:
461,198,43512,5,12,3:0:0:0:
421,173,43597,1,0,3:0:0:0:
375,170,43683,1,0,3:0:0:0:
333,189,43769,1,0,3:0:0:0:
305,226,43854,1,8,3:0:0:0:
299,272,43940,1,0,3:0:0:0:
315,316,44026,1,8,3:0:0:0:
349,346,44112,1,8,3:0:0:0:
395,356,44197,6,1,L|456:339,5,36,12|8|0|0|0|0,2:3|2:3|3:0|3:0|3:0|2:0,2:0:0:0:
487,266,44712,2,1,L|425:249,1,36,10|0,3:0|2:0,2:0:0:0:
354,231,44883,1,8,2:3:0:0:
354,231,44969,1,8,2:3:0:0:
354,231,45054,2,1,L|367:277,1,36,8|8,2:3|2:3,2:0:0:0:
289,370,45226,1,8,2:3:0:0:
289,370,45312,1,8,2:3:0:0:
289,370,45397,2,1,L|302:323,1,36,8|8,2:3|2:3,2:0:0:0:
239,230,45569,5,6,3:0:0:0:
206,215,45654,1,0,3:0:0:0:
171,220,45740,1,0,3:0:0:0:
143,242,45826,1,0,3:0:0:0:
131,275,45912,1,10,3:0:0:0:
103,297,45997,1,0,3:0:0:0:
68,302,46083,1,4,3:2:0:0:
35,289,46169,1,0,3:0:0:0:
14,260,46254,2,1,L|24:221,3,36,2|0|0|0,3:0|3:0|3:0|3:0,2:0:0:0:
115,211,46597,2,1,L|104:172,3,36,10|0|0|0,3:0|3:0|3:0|3:0,2:0:0:0:
39,88,46940,5,2,3:0:0:0:
74,84,47026,1,0,3:0:0:0:
110,80,47112,1,0,3:0:0:0:
146,75,47197,1,0,3:0:0:0:
181,71,47283,1,10,3:0:0:0:
217,67,47369,1,0,3:0:0:0:
253,62,47454,1,0,3:0:0:0:
288,59,47540,1,0,3:0:0:0:
324,54,47626,2,1,L|378:69,3,36,2|0|0|0,3:2|3:0|3:0|3:0,2:0:0:0:
432,146,47969,2,1,L|377:161,3,36,10|0|0|0,3:0|3:0|3:0|3:0,2:0:0:0:
265,171,48312,6,1,L|252:217,1,28,6|0,3:0|3:0,2:0:0:0:
281,163,48483,2,1,L|268:209,1,28,0|0,3:0|3:0,2:0:0:0:
203,299,48654,6,1,L|190:252,1,40,10|0,3:0|3:0,2:0:0:0:
219,307,48826,2,1,L|206:260,1,40,0|0,3:0|3:0,2:0:0:0:
121,115,48997,6,1,L|106:166,1,52,2|0,3:0|3:0,2:0:0:0:
138,106,49169,2,1,L|124:157,1,52,0|0,3:0|3:0,2:0:0:0:
46,250,49340,6,1,L|33:203,1,36,10|0,3:0|3:0,2:0:0:0:
62,258,49512,2,1,L|49:211,1,36,0|0,3:0|3:0,2:0:0:0:
1,98,49683,6,1,L|47:110,1,36,2|0,3:0|3:0,2:0:0:0:
121,23,49854,1,8,3:0:0:0:
121,23,49940,1,8,2:3:0:0:
121,23,50026,2,1,L|74:35,3,36,8|8|8|8,2:3|3:0|2:3|2:3,2:0:0:0:
114,150,50369,1,12,3:0:0:0:
114,150,50454,1,0,3:0:0:0:
114,150,50540,2,1,L|126:103,1,36,0|8,3:0|3:0,2:0:0:0:
208,74,50712,1,8,2:3:0:0:
208,74,50797,1,8,2:3:0:0:
208,74,50883,2,1,L|220:120,1,36,8|8,2:3|2:3,2:0:0:0:
256,216,51054,5,4,3:0:0:0:
348,105,51226,2,1,L|327:187,1,80,10|2,2:3|2:0,2:0:0:0:
336,263,51483,1,0,3:0:0:0:
336,263,51569,1,10,2:3:0:0:
255,131,51740,2,1,P|232:132|202:149,1,40,2|0,3:2|2:0,2:0:0:0:
143,266,51912,1,10,2:3:0:0:
165,72,52083,2,1,P|149:88|140:122,1,40,2|0,2:0|3:0,2:0:0:0:
156,276,52254,1,10,2:3:0:0:
63,80,52426,5,2,3:2:0:0:
256,216,52597,2,1,L|342:194,1,80,10|2,2:3|2:0,2:0:0:0:
427,175,52854,1,0,3:0:0:0:
427,175,52940,1,10,2:3:0:0:
182,160,53112,2,1,P|163:205|173:247,1,80,2|10,3:2|2:3,2:0:0:0:
293,338,53454,1,2,3:2:0:0:
293,338,53540,1,0,3:0:0:0:
293,338,53626,1,10,2:3:0:0:
263,109,53797,5,12,3:0:0:0:
228,78,53883,1,0,3:0:0:0:
183,67,53969,1,0,3:0:0:0:
137,78,54054,1,0,3:0:0:0:
103,109,54140,1,0,3:0:0:0:
86,152,54226,1,0,3:0:0:0:
91,198,54312,1,0,3:0:0:0:
116,237,54397,1,0,3:0:0:0:
157,259,54483,6,1,P|178:260|204:252,3,40,12|0|0|0,3:0|3:0|3:0|3:0,2:0:0:0:
240,321,54826,2,1,P|255:306|268:282,3,40,10|0|0|0,3:0|3:0|3:0|3:0,2:0:0:0:
351,291,55169,6,1,L|338:244,1,40,10|0,3:0|2:0,2:0:0:0:
266,206,55340,2,1,L|278:159,1,40,10|0,2:3|2:0,2:0:0:0:
333,97,55512,2,1,P|287:78|245:85,1,80,2|10,2:0|2:3,2:0:0:0:
131,122,55854,1,2,3:2:0:0:
116,171,55940,1,0,3:0:0:0:
128,214,56026,1,8,2:3:0:0:
161,241,56112,1,8,2:3:0:0:
197,252,56197,1,0,3:0:0:0:
221,276,56283,1,0,3:0:0:0:
230,302,56369,1,8,2:3:0:0:
228,328,56454,1,8,2:3:0:0:
216,346,56540,5,4,3:2:0:0:
90,291,56712,1,10,2:0:0:0:
211,171,56883,1,2,2:0:0:0:
211,171,56969,1,0,3:0:0:0:
211,171,57054,1,10,2:0:0:0:
68,110,57226,2,1,L|85:179,1,72.0000000000001,2|10,3:2|2:0,2:0:0:0:
177,275,57569,1,2,2:0:0:0:
177,275,57654,1,0,3:0:0:0:
177,275,57740,1,10,2:0:0:0:
285,130,57912,5,2,3:2:0:0:
358,286,58083,1,10,2:0:0:0:
444,123,58254,1,2,2:0:0:0:
444,123,58340,1,0,3:0:0:0:
444,123,58426,1,10,2:0:0:0:
297,221,58597,2,1,P|261:219|229:202,1,72.0000000000001,2|10,3:2|2:0,2:0:0:0:
164,138,58854,1,2,2:1:0:0:
164,138,58940,2,1,L|218:123,1,36,2|2,3:2|3:1,2:0:0:0:
244,57,59112,2,1,L|189:42,1,36,10|2,2:0|2:1,2:0:0:0:
68,95,59283,5,12,3:0:0:0:
59,140,59369,1,0,3:0:0:0:
71,185,59454,1,0,3:0:0:0:
102,219,59540,1,0,3:0:0:0:
145,237,59626,1,0,3:0:0:0:
191,233,59712,1,0,3:0:0:0:
231,209,59797,5,12,3:0:0:0:
203,172,59883,1,0,3:0:0:0:
160,153,59969,1,0,3:0:0:0:
114,157,60054,1,0,3:0:0:0:
75,182,60140,1,0,3:0:0:0:
53,222,60226,1,0,3:0:0:0:
52,269,60312,2,1,L|64:315,3,36,10|0|0|0,3:0|3:0|3:0|3:0,2:0:0:0:
144,347,60654,6,1,L|156:300,3,36,12|8|8|8,3:0|2:3|2:3|2:3,2:0:0:0:
236,271,60997,2,1,L|223:224,3,40,8|8|8|8,3:0|2:3|2:3|2:3,2:0:0:0:
146,193,61340,1,8,3:0:0:0:
146,193,61426,1,8,2:3:0:0:
146,193,61512,2,1,P|158:173|188:156,1,40,8|8,2:3|2:3,2:0:0:0:
170,82,61683,1,8,3:0:0:0:
170,82,61769,1,8,2:3:0:0:
170,82,61854,2,1,P|193:83|223:100,1,40,8|8,2:3|2:3,2:0:0:0:
285,30,62026,5,4,3:0:0:0:
328,49,62112,1,0,3:0:0:0:
351,90,62197,1,10,3:0:0:0:
346,137,62283,1,0,3:0:0:0:
314,171,62369,1,2,3:0:0:0:
303,217,62454,1,0,3:0:0:0:
322,260,62540,1,10,3:0:0:0:
363,284,62626,1,0,3:0:0:0:
410,279,62712,2,1,L|422:232,3,40,2|0|10|0,3:0|3:0|3:0|3:0,2:0:0:0:
500,200,63054,2,1,L|489:161,3,40,2|0|10|0,3:0|3:0|3:0|3:0,2:0:0:0:
386,86,63397,5,2,3:0:0:0:
384,97,63483,1,0,3:0:0:0:
383,109,63569,1,10,3:0:0:0:
381,121,63654,1,0,3:0:0:0:
380,133,63740,5,2,3:0:0:0:
338,103,63826,1,0,3:0:0:0:
286,103,63912,1,10,3:0:0:0:
244,132,63997,1,0,3:0:0:0:
225,179,64083,1,2,3:0:0:0:
237,229,64169,1,0,3:0:0:0:
222,277,64254,1,10,3:0:0:0:
182,309,64340,1,0,3:0:0:0:
131,313,64426,1,2,3:0:0:0:
87,286,64512,1,0,3:0:0:0:
65,240,64597,1,8,3:0:0:0:
74,188,64683,1,8,3:0:0:0:
109,150,64769,6,1,L|163:135,3,40,4|0|10|0,3:2|3:0|3:0|3:0,2:0:0:0:
277,96,65112,2,1,L|262:150,1,40,2|0,3:0|3:0,2:0:0:0:
213,197,65283,2,1,L|227:251,1,40,10|0,3:0|3:0,2:0:0:0:
304,323,65454,1,2,3:0:0:0:
347,320,65540,1,0,3:0:0:0:
381,294,65626,1,10,3:0:0:0:
395,253,65712,1,0,3:0:0:0:
384,212,65797,1,2,3:0:0:0:
353,181,65883,1,0,3:0:0:0:
344,139,65969,1,10,3:0:0:0:
361,99,66054,1,0,3:0:0:0:
397,75,66140,5,2,3:0:0:0:
439,103,66226,1,0,3:0:0:0:
460,150,66312,1,10,3:0:0:0:
454,201,66397,1,0,3:0:0:0:
422,241,66483,1,2,3:0:0:0:
373,258,66569,1,0,3:0:0:0:
323,247,66654,1,10,3:0:0:0:
286,211,66740,1,0,3:0:0:0:
271,161,66826,1,2,3:0:0:0:
233,127,66912,1,0,3:0:0:0:
183,117,66997,1,8,2:3:0:0:
135,136,67083,1,8,2:3:0:0:
104,177,67169,2,1,L|116:223,1,40,0|0,3:0|3:0,2:0:0:0:
192,282,67340,1,8,2:3:0:0:
192,282,67426,1,8,2:3:0:0:
192,282,67512,6,1,L|204:235,3,40,4|0|10|0,3:0|3:0|3:0|3:0,2:0:0:0:
200,155,67854,2,1,P|223:155|253:172,1,40,2|0,3:0|3:0,2:0:0:0:
307,119,68026,2,1,P|317:139|317:173,1,40,10|0,3:0|3:0,2:0:0:0:
397,213,68197,1,2,3:0:0:0:
364,242,68283,1,0,3:0:0:0:
321,251,68369,1,10,2:3:0:0:
280,238,68454,1,0,3:0:0:0:
250,206,68540,1,2,3:0:0:0:
208,194,68626,1,0,3:0:0:0:
166,203,68712,1,10,2:3:0:0:
133,232,68797,1,0,3:0:0:0:
119,274,68883,5,12,3:0:0:0:
161,297,68969,1,0,3:0:0:0:
208,298,69054,1,0,3:0:0:0:
251,277,69140,1,0,3:0:0:0:
280,239,69226,1,0,3:0:0:0:
288,192,69312,1,0,3:0:0:0:
275,147,69397,5,12,3:0:0:0:
224,152,69483,1,0,3:0:0:0:
185,185,69569,1,0,3:0:0:0:
173,235,69654,1,0,3:0:0:0:
192,282,69740,1,0,3:0:0:0:
234,311,69826,1,0,3:0:0:0:
286,309,69912,2,1,L|296:270,3,40,12|0|0|0,3:0|3:0|3:0|3:0,2:0:0:0:
375,382,70254,5,4,3:2:0:0:
430,380,70340,1,0,3:0:0:0:
474,345,70426,1,10,3:0:0:0:
485,290,70512,1,0,3:0:0:0:
459,241,70597,1,2,3:0:0:0:
412,210,70683,1,0,3:0:0:0:
394,157,70769,1,10,3:0:0:0:
414,104,70854,1,0,3:0:0:0:
463,76,70940,5,2,3:0:0:0:
503,113,71026,1,0,3:0:0:0:
512,168,71112,1,10,3:0:0:0:
490,219,71197,1,0,3:0:0:0:
441,246,71283,1,2,3:0:0:0:
383,244,71369,1,8,3:0:0:0:
337,276,71454,1,8,3:0:0:0:
320,330,71540,1,8,3:0:0:0:
336,383,71626,5,8,3:0:0:0:
397,382,71712,1,8,2:3:0:0:
448,350,71797,1,8,2:3:0:0:
475,295,71883,1,8,2:3:0:0:
468,234,71969,1,8,3:0:0:0:
431,186,72054,1,8,2:3:0:0:
375,165,72140,1,8,2:3:0:0:
314,177,72226,1,8,2:3:0:0:
270,218,72312,1,8,3:0:0:0:
252,275,72397,1,8,2:3:0:0:
206,316,72483,1,8,2:3:0:0:
147,325,72569,1,8,2:3:0:0:
91,302,72654,1,8,3:0:0:0:
54,253,72740,1,8,2:3:0:0:
50,192,72826,1,8,2:3:0:0:
79,140,72912,1,8,2:3:0:0:
133,109,72997,6,1,L|183:122,3,40,4|0|10|0,3:0|3:0|3:0|3:0,2:0:0:0:
262,217,73340,1,2,3:2:0:0:
300,206,73426,1,0,3:0:0:0:
339,196,73512,1,10,3:0:0:0:
377,185,73597,1,0,3:0:0:0:
416,175,73683,2,1,L|428:128,3,40,2|0|10|0,3:2|3:0|3:0|3:0,2:0:0:0:
331,62,74026,2,1,L|342:101,3,40,2|0|10|0,3:2|3:0|3:0|3:0,2:0:0:0:
274,205,74369,5,2,3:2:0:0:
276,194,74454,1,0,3:0:0:0:
277,182,74540,1,10,3:0:0:0:
279,170,74626,1,0,3:0:0:0:
280,158,74712,5,2,3:2:0:0:
242,123,74797,1,0,3:0:0:0:
191,113,74883,1,10,3:0:0:0:
144,131,74969,1,0,3:0:0:0:
113,173,75054,1,2,3:2:0:0:
108,224,75140,1,0,3:0:0:0:
132,269,75226,1,10,3:0:0:0:
176,296,75312,1,0,3:0:0:0:
227,294,75397,1,2,3:2:0:0:
270,267,75483,1,0,3:0:0:0:
322,268,75569,1,10,3:0:0:0:
365,295,75654,1,2,3:2:0:0:
387,342,75740,6,1,L|372:396,3,40,4|0|10|0,3:2|3:0|3:0|3:0,2:0:0:0:
454,282,76083,2,1,L|439:227,1,40,2|0,3:2|3:0,2:0:0:0:
369,195,76254,2,1,L|383:140,1,40,10|0,3:0|3:0,2:0:0:0:
457,97,76426,1,2,3:2:0:0:
423,69,76512,1,0,3:0:0:0:
380,58,76597,1,10,3:0:0:0:
338,68,76683,1,0,3:0:0:0:
303,95,76769,1,2,3:2:0:0:
259,101,76854,1,0,3:0:0:0:
218,87,76940,1,10,3:0:0:0:
186,57,77026,1,0,3:0:0:0:
171,16,77112,5,2,3:1:0:0:
220,3,77197,1,0,3:0:0:0:
268,20,77283,1,10,3:0:0:0:
299,62,77369,1,2,3:2:0:0:
301,113,77454,1,0,3:0:0:0:
274,156,77540,1,2,3:1:0:0:
228,178,77626,1,10,3:2:0:0:
177,170,77712,1,0,3:0:0:0:
128,188,77797,1,2,3:1:0:0:
99,230,77883,1,0,3:0:0:0:
98,281,77969,1,10,3:2:0:0:
125,324,78054,1,2,3:1:0:0:
173,345,78140,1,0,3:0:0:0:
223,336,78226,1,2,3:1:0:0:
259,300,78312,1,10,3:0:0:0:
269,249,78397,1,0,3:0:0:0:
251,199,78483,6,1,L|205:187,3,40,4|0|10|0,3:0|3:0|3:0|3:0,2:0:0:0:
350,209,78826,2,1,L|338:163,1,40,2|0,3:2|3:0,2:0:0:0:
291,75,78997,2,1,L|279:121,1,40,10|0,3:0|3:0,2:0:0:0:
241,231,79169,1,2,3:2:0:0:
203,252,79254,1,0,3:0:0:0:
161,247,79340,1,10,3:0:0:0:
130,217,79426,1,0,3:0:0:0:
123,174,79512,1,2,3:2:0:0:
137,133,79597,1,0,3:0:0:0:
125,92,79683,1,10,3:0:0:0:
91,66,79769,1,2,3:2:0:0:
48,65,79854,5,12,3:0:0:0:
33,110,79940,1,0,3:0:0:0:
40,157,80026,1,0,3:0:0:0:
69,195,80112,1,0,3:0:0:0:
112,215,80197,1,0,3:0:0:0:
160,213,80283,1,0,3:0:0:0:
200,188,80369,5,12,3:0:0:0:
165,151,80454,1,0,3:0:0:0:
116,134,80540,1,0,3:0:0:0:
65,142,80626,1,0,3:0:0:0:
24,172,80712,1,0,3:0:0:0:
1,219,80797,1,0,3:0:0:0:
2,270,80883,2,1,L|56:284,3,40,12|0|0|0,3:0|3:0|3:0|3:0,2:0:0:0:
79,381,81226,5,8,3:0:0:0:
139,371,81312,1,8,2:3:0:0:
182,327,81397,1,8,2:3:0:0:
192,266,81483,1,8,2:3:0:0:
164,211,81569,1,8,3:0:0:0:
109,184,81654,1,8,2:3:0:0:
82,129,81740,1,8,2:3:0:0:
92,68,81826,1,8,2:3:0:0:
135,24,81912,1,8,3:0:0:0:
195,14,81997,1,8,2:3:0:0:
250,42,82083,1,8,2:3:0:0:
278,97,82169,1,8,2:3:0:0:
268,157,82254,1,8,3:0:0:0:
296,212,82340,1,8,2:3:0:0:
351,241,82426,1,8,2:3:0:0:
412,231,82512,1,8,2:3:0:0:
455,187,82597,6,1,P|408:151|426:294,1,364,4|0,3:0|2:0,0:0:0:0:
388,226,83969,6,1,L|280:255,1,80,4|0,3:0|3:0,2:0:0:0:
246,311,84226,1,0,3:0:0:0:
246,311,84312,2,1,L|161:289,1,80,10|0,2:3|3:0,2:0:0:0:
81,265,84569,1,0,3:0:0:0:
81,265,84654,1,2,3:2:0:0:
235,216,84826,1,0,3:0:0:0:
235,216,84912,1,0,3:0:0:0:
235,216,84997,1,10,2:3:0:0:
101,351,85169,1,0,3:0:0:0:
68,172,85340,6,1,P|107:175|140:197,1,80,2|0,3:2|3:0,2:0:0:0:
191,295,85597,1,0,3:0:0:0:
191,295,85683,2,1,P|228:307|267:299,1,80,10|0,2:3|3:0,2:0:0:0:
339,219,85940,1,0,3:0:0:0:
339,219,86026,1,2,3:2:0:0:
425,343,86197,1,0,3:0:0:0:
425,343,86283,1,0,3:0:0:0:
425,343,86369,1,10,2:3:0:0:
512,186,86540,1,0,3:0:0:0:
512,186,86626,1,0,3:0:0:0:
512,186,86712,6,1,P|463:188|421:222,1,80,4|0,3:0|3:0,2:0:0:0:
362,276,86969,1,0,3:0:0:0:
362,276,87054,2,1,B|351:234|351:234|333:168,1,80,10|0,2:3|3:0,2:0:0:0:
260,159,87312,1,0,3:0:0:0:
260,159,87397,2,1,L|289:51,1,80,2|0,3:0|3:0,2:0:0:0:
335,6,87654,1,0,3:0:0:0:
335,6,87740,2,1,P|358:28|423:32,1,80,10|0,2:3|3:0,2:0:0:0:
500,6,87997,1,0,3:0:0:0:
500,6,88083,6,1,L|471:114,1,80,4|0,3:2|3:0,2:0:0:0:
433,207,88426,1,10,2:3:0:0:
319,103,88597,2,1,L|358:117,1,40,0|0,3:0|3:0,2:0:0:0:
512,166,88769,1,12,3:1:0:0:
359,259,88940,1,0,3:0:0:0:
450,93,89112,1,8,2:3:0:0:
428,50,89197,1,8,2:3:0:0:
385,27,89283,1,8,2:3:0:0:
336,27,89369,1,8,2:3:0:0:
293,48,89454,6,1,L|268:140,1,80,4|0,3:0|3:0,2:0:0:0:
201,193,89712,1,0,3:0:0:0:
201,193,89797,2,1,L|225:285,1,80,10|0,2:3|3:0,2:0:0:0:
258,384,90054,1,0,3:0:0:0:
258,384,90140,1,2,3:2:0:0:
302,213,90312,1,0,3:0:0:0:
302,213,90397,1,0,3:0:0:0:
302,213,90483,1,10,2:3:0:0:
163,328,90654,1,0,3:0:0:0:
163,328,90740,1,0,3:0:0:0:
163,328,90826,6,1,L|140:242,1,80,2|0,3:0|3:0,2:0:0:0:
79,194,91083,1,0,3:0:0:0:
79,194,91169,2,1,L|102:109,1,80,10|0,2:3|3:0,2:0:0:0:
140,0,91426,1,0,3:0:0:0:
140,0,91512,1,2,3:2:0:0:
15,128,91683,1,0,3:0:0:0:
15,128,91769,1,0,3:0:0:0:
15,128,91854,1,10,2:3:0:0:
199,191,92026,1,0,3:0:0:0:
199,191,92112,1,0,3:0:0:0:
199,191,92197,5,12,3:0:0:0:
238,187,92283,1,0,3:0:0:0:
271,165,92369,1,0,3:0:0:0:
290,130,92454,1,0,3:0:0:0:
290,90,92540,1,0,3:0:0:0:
272,55,92626,1,0,3:0:0:0:
239,33,92712,1,0,3:0:0:0:
200,28,92797,1,0,3:0:0:0:
163,43,92883,5,12,3:0:0:0:
181,86,92969,1,0,3:0:0:0:
221,111,93054,1,0,3:0:0:0:
268,107,93140,1,0,3:0:0:0:
304,76,93226,1,0,3:0:0:0:
319,31,93312,1,0,3:0:0:0:
357,4,93397,1,8,3:0:0:0:
405,5,93483,1,8,3:0:0:0:
442,34,93569,6,1,L|427:88,3,40,8|8|0|0,3:0|2:3|3:0|3:0,2:0:0:0:
370,136,93912,2,1,L|384:190,3,40,6|0|8|8,3:0|3:0|2:3|2:3,2:0:0:0:
458,235,94254,1,8,3:0:0:0:
458,235,94340,1,8,2:3:0:0:
458,235,94426,2,1,P|441:251|407:259,1,40,8|8,2:3|2:3,2:0:0:0:
404,335,94597,1,8,2:3:0:0:
404,335,94683,1,8,2:3:0:0:
404,335,94769,2,1,P|382:328|357:303,1,40,0|0,3:0|3:0,2:0:0:0:
296,222,94940,6,1,L|273:307,1,80,4|0,3:0|3:0,2:0:0:0:
278,339,95197,1,0,3:0:0:0:
278,339,95283,2,1,P|249:315|208:314,1,72.0000000000001,10|0,2:3|3:0,2:0:0:0:
130,368,95626,2,1,L|102:264,1,108,2|0,3:2|3:0,2:0:0:0:
72,253,95969,2,1,L|95:167,1,72.0000000000001,10|0,2:3|3:0,2:0:0:0:
95,86,96312,6,1,P|126:108|167:108,1,72.0000000000001,2|0,3:0|2:0,2:0:0:0:
197,102,96569,1,0,3:0:0:0:
197,102,96654,1,10,2:3:0:0:
286,164,96826,1,0,3:0:0:0:
352,42,96997,2,1,L|370:111,1,72.0000000000001,2|0,3:0|2:0,2:0:0:0:
403,137,97254,1,0,3:0:0:0:
403,137,97340,2,1,L|382:215,1,72.0000000000001,10|0,2:3|3:0,2:0:0:0:
412,304,97597,1,0,3:0:0:0:
412,304,97683,6,1,P|382:286|343:288,1,72.0000000000001,2|0,3:0|2:0,2:0:0:0:
311,313,97940,1,0,3:0:0:0:
311,313,98026,1,10,2:3:0:0:
239,201,98197,1,0,3:0:0:0:
172,323,98369,2,1,L|94:303,1,72.0000000000001,2|0,3:2|2:0,2:0:0:0:
74,295,98626,1,0,3:0:0:0:
74,295,98712,1,10,2:3:0:0:
168,169,98883,1,8,3:0:0:0:
168,169,98969,1,8,2:3:0:0:
168,169,99054,6,1,L|153:116,3,50,12|0|0|0,3:0|3:0|3:0|3:0,2:0:0:0:
274,43,99397,2,1,L|259:95,3,50,12|0|0|0,3:0|3:0|3:0|3:0,2:0:0:0:
376,153,99740,2,1,L|361:100,3,50,12|8|8|8,2:3|3:0|3:0|3:0,2:0:0:0:
461,44,100083,2,1,L|446:96,1,50,12|0,3:0|3:0,2:0:0:0:
330,220,100254,6,1,B|381:181|381:181|512:215,1,200,8|0,3:0|3:0,2:0:0:0:
467,288,100683,1,0,3:0:0:0:
467,288,100769,2,1,L|398:271,1,72.0000000000001,10|0,2:3|3:0,2:0:0:0:
256,177,101112,2,1,P|242:222|256:263,1,72.0000000000001,2|0,3:2|2:0,2:0:0:0:
273,274,101369,1,0,3:0:0:0:
273,274,101454,2,1,L|234:285,1,36,10|0,2:3|2:0,2:0:0:0:
84,222,101626,6,1,L|153:239,1,72.0000000000001,0|2,3:0|3:2,2:0:0:0:
212,124,101969,2,1,L|143:141,1,72.0000000000001,0|10,2:0|2:3,2:0:0:0:
17,15,102312,2,1,B|78:30|78:30|79:35|79:35|152:52,1,144,0|0,3:0|2:0,2:0:0:0:
184,61,102740,1,0,3:0:0:0:
184,61,102826,1,10,2:3:0:0:
307,125,102997,1,0,3:0:0:0:
415,28,103169,5,12,3:0:0:0:
448,54,103254,1,0,3:0:0:0:
461,94,103340,1,0,3:0:0:0:
449,135,103426,1,0,3:0:0:0:
417,163,103512,1,12,3:0:0:0:
375,170,103597,1,0,3:0:0:0:
344,199,103683,1,0,3:0:0:0:
335,241,103769,1,0,3:0:0:0:
351,281,103854,5,12,3:0:0:0:
393,279,103940,1,0,3:0:0:0:
431,259,104026,1,0,3:0:0:0:
456,224,104112,1,0,3:0:0:0:
464,182,104197,1,10,3:0:0:0:
452,141,104283,1,0,3:0:0:0:
423,109,104369,1,0,3:0:0:0:
384,92,104454,1,0,3:0:0:0:
341,95,104540,6,1,L|326:149,3,36,8|8|0|0,2:3|2:3|3:0|3:0,2:0:0:0:
253,190,104883,2,1,L|238:135,3,36,8|8|0|0,2:3|2:3|3:0|3:0,2:0:0:0:
252,69,105226,1,8,2:3:0:0:
252,69,105312,1,8,2:3:0:0:
252,69,105397,2,1,L|197:54,1,36,0|0,3:0|3:0,2:0:0:0:
120,138,105569,1,8,2:3:0:0:
120,138,105654,1,8,2:3:0:0:
120,138,105740,2,1,L|174:123,1,36,0|0,3:0|3:0,2:0:0:0:
43,65,105912,6,1,B|8:110|8:110|38:226,1,176,4|10,3:0|2:3,2:0:0:0:
149,288,106426,1,0,3:0:0:0:
149,288,106512,1,0,3:0:0:0:
149,288,106597,2,1,L|166:219,1,72.0000000000001,2|0,3:0|3:0,2:0:0:0:
204,203,106854,1,0,3:0:0:0:
204,203,106940,2,1,L|187:134,1,72.0000000000001,10|0,2:3|3:0,2:0:0:0:
169,37,107197,1,0,3:0:0:0:
169,37,107283,6,1,P|215:55|257:44,1,72.0000000000001,2|0,3:2|3:0,2:0:0:0:
273,35,107540,1,0,3:0:0:0:
273,35,107626,2,1,L|295:120,1,72.0000000000001,10|0,2:3|3:0,2:0:0:0:
287,143,107883,1,0,3:0:0:0:
287,143,107969,2,1,P|323:137|374:166,1,72.0000000000001,2|0,3:0|3:0,2:0:0:0:
383,172,108226,1,0,3:0:0:0:
383,172,108312,1,10,2:3:0:0:
452,38,108483,1,0,3:0:0:0:
452,38,108569,1,0,3:0:0:0:
452,38,108654,5,14,3:0:0:0:
408,21,108740,1,0,3:0:0:0:
362,26,108826,1,0,3:0:0:0:
322,50,108912,1,0,3:0:0:0:
297,89,108997,1,2,3:0:0:0:
255,110,109083,1,0,3:0:0:0:
209,111,109169,1,0,3:0:0:0:
167,92,109254,1,0,3:0:0:0:
137,56,109340,5,12,3:0:0:0:
182,43,109426,1,0,3:0:0:0:
227,31,109512,1,0,3:0:0:0:
272,19,109597,1,0,3:0:0:0:
317,6,109683,5,8,3:0:0:0:
351,15,109769,1,8,2:3:0:0:
386,24,109854,1,8,2:3:0:0:
421,33,109940,1,8,2:3:0:0:
456,42,110026,6,1,L|469:89,5,36,8|8|8|8|8|0,3:0|2:3|2:3|2:3|2:3|3:0,2:0:0:0:
374,146,110540,2,1,L|387:100,1,36,12|0,3:1|2:0,2:0:0:0:
457,198,110712,1,8,2:3:0:0:
457,198,110797,1,8,2:3:0:0:
457,198,110883,2,1,P|440:214|406:222,1,36,8|8,2:3|2:3,2:0:0:0:
403,298,111054,1,12,3:1:0:0:
403,298,111140,1,0,2:0:0:0:
403,298,111226,2,1,P|381:291|356:266,1,36,8|8,2:3|2:3,2:0:0:0:
289,168,111397,5,6,3:0:0:0:
254,158,111483,1,0,3:0:0:0:
219,165,111569,1,0,3:0:0:0:
191,187,111654,1,0,3:0:0:0:
176,219,111740,1,10,3:0:0:0:
146,239,111826,1,0,3:0:0:0:
111,244,111912,1,4,3:2:0:0:
77,232,111997,1,0,3:0:0:0:
52,207,112083,2,1,L|66:152,3,36,2|0|0|0,3:0|3:0|3:0|3:0,2:0:0:0:
123,92,112426,2,1,L|137:146,3,36,10|0|0|0,3:0|3:0|3:0|3:0,2:0:0:0:
222,200,112769,5,2,3:0:0:0:
254,213,112854,1,0,3:0:0:0:
290,212,112940,1,0,3:0:0:0:
321,195,113026,1,0,3:0:0:0:
342,166,113112,1,10,3:0:0:0:
349,131,113197,1,0,3:0:0:0:
339,96,113283,1,0,3:0:0:0:
315,69,113369,1,0,3:0:0:0:
283,55,113454,2,1,L|228:69,3,36,2|0|0|0,3:2|3:0|3:0|3:0,2:0:0:0:
192,141,113797,2,1,L|246:155,3,36,10|0|0|0,3:0|3:0|3:0|3:0,2:0:0:0:
328,177,114140,6,1,L|315:131,1,28,6|0,3:0|3:0,2:0:0:0:
344,185,114312,2,1,L|331:139,1,28,0|0,3:0|3:0,2:0:0:0:
242,264,114483,6,1,L|255:217,1,40,10|0,3:0|3:0,2:0:0:0:
226,272,114654,2,1,L|239:225,1,40,0|0,3:0|3:0,2:0:0:0:
346,306,114826,6,1,L|332:257,1,52,2|0,3:0|3:0,2:0:0:0:
363,315,114997,2,1,L|349:266,1,52,0|0,3:0|3:0,2:0:0:0:
266,376,115169,6,1,L|279:329,1,36,10|0,3:0|3:0,2:0:0:0:
250,384,115340,2,1,L|263:337,1,36,0|0,3:0|3:0,2:0:0:0:
435,264,115512,6,1,L|423:218,3,36,4|0|0|0,3:0|2:0|2:0|2:0,2:0:0:0:
353,150,115854,2,1,L|341:196,3,36,4|0|0|0,3:2|2:0|2:0|2:0,2:0:0:0:
279,282,116197,2,1,L|267:236,3,36,4|0|0|0,3:0|2:0|2:0|2:0,2:0:0:0:
201,134,116540,2,1,L|189:180,3,36,4|8|8|8,3:2|2:3|2:3|2:3,2:0:0:0:
114,260,116883,5,4,3:0:0:0:
139,83,117054,2,1,P|171:60|231:59,1,80,10|2,2:3|2:0,2:0:0:0:
280,103,117312,1,0,3:0:0:0:
280,103,117397,1,10,2:3:0:0:
111,183,117569,2,1,P|134:184|164:201,1,40,2|0,3:2|2:0,2:0:0:0:
185,310,117740,1,10,2:3:0:0:
201,134,117912,2,1,P|217:150|226:184,1,40,2|0,2:0|3:0,2:0:0:0:
171,320,118083,1,10,2:3:0:0:
300,184,118254,5,2,3:2:0:0:
362,321,118426,2,1,L|282:301,1,80,10|2,2:3|2:0,2:0:0:0:
206,285,118683,1,0,3:0:0:0:
206,285,118769,1,10,2:3:0:0:
378,194,118940,1,2,3:2:0:0:
228,94,119112,1,10,2:3:0:0:
323,263,119283,1,2,3:2:0:0:
323,263,119369,1,0,3:0:0:0:
323,263,119454,1,10,2:3:0:0:
459,96,119626,5,12,3:0:0:0:
430,60,119712,1,0,3:0:0:0:
387,46,119797,1,0,3:0:0:0:
343,58,119883,1,0,3:0:0:0:
312,91,119969,1,0,3:0:0:0:
302,135,120054,1,0,3:0:0:0:
269,167,120140,1,0,3:0:0:0:
225,176,120226,1,0,3:0:0:0:
182,160,120312,5,12,3:0:0:0:
190,115,120397,1,0,3:0:0:0:
217,78,120483,1,0,3:0:0:0:
258,59,120569,1,0,3:0:0:0:
304,60,120654,1,10,3:0:0:0:
344,83,120740,1,0,3:0:0:0:
369,121,120826,1,0,3:0:0:0:
374,166,120912,1,0,3:0:0:0:
357,208,120997,6,1,L|310:220,1,40,10|0,3:0|2:0,2:0:0:0:
249,284,121169,2,1,L|202:271,1,40,10|0,2:3|2:0,2:0:0:0:
86,236,121340,1,2,2:0:0:0:
250,162,121512,1,10,2:3:0:0:
76,62,121683,1,2,3:2:0:0:
110,99,121769,1,0,3:0:0:0:
153,110,121854,1,8,2:3:0:0:
194,95,121940,1,8,2:3:0:0:
221,70,122026,1,0,3:0:0:0:
253,62,122112,1,0,3:0:0:0:
280,67,122197,1,8,2:3:0:0:
301,81,122283,1,8,2:3:0:0:
311,101,122369,5,4,3:2:0:0:
151,31,122540,1,10,2:0:0:0:
218,199,122712,1,2,2:0:0:0:
218,199,122797,1,0,3:0:0:0:
218,199,122883,1,10,2:0:0:0:
31,139,123054,2,1,L|100:122,1,72.0000000000001,2|10,3:2|2:0,2:0:0:0:
247,100,123397,1,2,2:0:0:0:
247,100,123483,1,0,3:0:0:0:
247,100,123569,1,10,2:0:0:0:
116,218,123740,5,2,3:2:0:0:
290,289,123912,1,10,2:0:0:0:
187,152,124083,1,2,2:0:0:0:
187,152,124169,1,0,3:0:0:0:
187,152,124254,1,10,2:0:0:0:
113,332,124426,2,1,L|182:315,1,72.0000000000001,2|10,3:2|2:0,2:0:0:0:
290,289,124683,1,2,2:1:0:0:
290,289,124769,2,1,L|344:304,1,36,2|2,3:2|3:1,2:0:0:0:
388,363,124940,2,1,L|443:348,1,36,10|2,2:0|2:1,2:0:0:0:
505,234,125112,5,12,3:0:0:0:
483,193,125197,1,0,3:0:0:0:
442,173,125283,1,0,3:0:0:0:
397,181,125369,1,0,3:0:0:0:
362,211,125454,1,0,3:0:0:0:
316,214,125540,1,0,3:0:0:0:
277,189,125626,5,12,3:0:0:0:
299,148,125712,1,0,3:0:0:0:
339,125,125797,1,0,3:0:0:0:
385,126,125883,1,0,3:0:0:0:
425,149,125969,1,0,3:0:0:0:
447,190,126054,1,0,3:0:0:0:
445,236,126140,2,1,L|390:250,3,36,10|0|0|0,3:0|3:0|3:0|3:0,2:0:0:0:
339,348,126483,6,1,L|284:333,3,44,12|8|8|8,3:0|2:3|2:3|2:3,2:0:0:0:
177,256,126826,2,1,L|231:241,3,40,8|8|8|8,3:0|2:3|2:3|2:3,2:0:0:0:
324,178,127169,2,1,L|269:163,3,36,8|8|8|8,3:0|2:3|2:3|2:3,2:0:0:0:
195,116,127512,2,1,L|249:101,3,32,8|8|8|8,3:0|2:3|2:3|2:3,2:0:0:0:
291,21,127854,5,4,3:0:0:0:
337,28,127940,1,0,3:0:0:0:
371,61,128026,1,10,3:0:0:0:
381,107,128112,1,0,3:0:0:0:
362,150,128197,1,2,3:0:0:0:
324,178,128283,1,0,3:0:0:0:
309,223,128369,1,10,3:0:0:0:
322,268,128454,1,0,3:0:0:0:
359,298,128540,2,1,L|405:310,3,40,2|0|10|0,3:0|3:0|3:0|3:0,2:0:0:0:
460,209,128883,2,1,L|413:221,3,40,2|0|10|0,3:0|3:0|3:0|3:0,2:0:0:0:
315,144,129226,5,2,3:0:0:0:
326,146,129312,1,0,3:0:0:0:
338,147,129397,1,10,3:0:0:0:
350,149,129483,1,0,3:0:0:0:
362,150,129569,5,2,3:0:0:0:
391,108,129654,1,0,3:0:0:0:
389,56,129740,1,10,3:0:0:0:
358,16,129826,1,0,3:0:0:0:
309,2,129912,1,2,3:0:0:0:
261,20,129997,1,0,3:0:0:0:
233,63,130083,1,10,3:0:0:0:
230,114,130169,1,0,3:0:0:0:
197,153,130254,1,2,3:0:0:0:
148,166,130340,1,0,3:0:0:0:
101,147,130426,1,8,2:3:0:0:
73,103,130512,1,8,3:0:0:0:
77,52,130597,6,1,L|123:39,3,40,4|0|10|0,3:2|3:0|3:0|3:0,2:0:0:0:
205,22,130940,2,1,L|192:68,1,40,2|0,3:0|3:0,2:0:0:0:
137,127,131112,2,1,L|149:173,1,40,10|0,3:0|3:0,2:0:0:0:
105,258,131283,1,2,3:0:0:0:
141,281,131369,1,0,3:0:0:0:
184,282,131454,1,10,3:0:0:0:
222,260,131540,1,0,3:0:0:0:
242,222,131626,1,2,3:0:0:0:
278,198,131712,1,0,3:0:0:0:
322,198,131797,1,10,3:0:0:0:
359,221,131883,1,0,3:0:0:0:
379,259,131969,5,2,3:0:0:0:
339,291,132054,1,0,3:0:0:0:
288,298,132140,1,10,3:0:0:0:
241,278,132226,1,0,3:0:0:0:
210,237,132312,1,2,3:0:0:0:
206,186,132397,1,0,3:0:0:0:
228,140,132483,1,10,3:0:0:0:
271,112,132569,1,0,3:0:0:0:
322,110,132654,1,2,3:0:0:0:
367,133,132740,1,0,3:0:0:0:
418,131,132826,1,8,2:3:0:0:
460,102,132912,1,8,2:3:0:0:
482,56,132997,2,1,L|435:43,1,40,0|0,3:0|3:0,2:0:0:0:
368,0,133169,1,8,2:3:0:0:
368,0,133254,1,8,2:3:0:0:
368,0,133340,6,1,L|321:12,3,40,4|0|10|0,3:0|3:0|3:0|3:0,2:0:0:0:
368,91,133683,2,1,L|355:138,1,40,2|0,3:0|3:0,2:0:0:0:
285,186,133854,2,1,L|298:233,1,40,10|0,3:0|3:0,2:0:0:0:
372,305,134026,1,2,3:0:0:0:
344,338,134112,1,0,3:0:0:0:
302,349,134197,1,10,2:3:0:0:
262,333,134283,1,0,3:0:0:0:
238,297,134369,1,2,3:0:0:0:
199,277,134454,1,0,3:0:0:0:
156,284,134540,1,10,2:3:0:0:
125,315,134626,1,0,3:0:0:0:
118,357,134712,5,12,3:0:0:0:
160,377,134797,1,0,3:0:0:0:
208,375,134883,1,0,3:0:0:0:
248,350,134969,1,0,3:0:0:0:
271,308,135054,1,0,3:0:0:0:
272,261,135140,1,0,3:0:0:0:
249,219,135226,5,12,3:0:0:0:
206,246,135312,1,0,3:0:0:0:
186,293,135397,1,0,3:0:0:0:
199,342,135483,1,0,3:0:0:0:
238,375,135569,1,0,3:0:0:0:
289,378,135654,1,0,3:0:0:0:
332,350,135740,2,1,L|344:303,3,40,12|0|0|0,3:0|3:0|3:0|3:0,2:0:0:0:
435,252,136083,5,4,3:2:0:0:
411,201,136169,1,0,3:0:0:0:
364,170,136254,1,10,3:0:0:0:
309,167,136340,1,0,3:0:0:0:
260,193,136426,1,2,3:0:0:0:
204,191,136512,1,0,3:0:0:0:
157,161,136597,1,10,3:0:0:0:
133,111,136683,1,0,3:0:0:0:
138,56,136769,5,2,3:0:0:0:
191,39,136854,1,0,3:0:0:0:
245,50,136940,1,10,3:0:0:0:
288,85,137026,1,0,3:0:0:0:
308,136,137112,1,2,3:0:0:0:
302,191,137197,1,8,3:0:0:0:
271,237,137283,1,8,3:0:0:0:
220,261,137369,1,8,3:0:0:0:
165,259,137454,5,8,3:0:0:0:
159,200,137540,1,8,2:3:0:0:
190,148,137626,1,8,2:3:0:0:
246,123,137712,1,8,2:3:0:0:
304,137,137797,1,8,3:0:0:0:
344,184,137883,1,8,2:3:0:0:
403,195,137969,1,8,2:3:0:0:
459,172,138054,1,8,2:3:0:0:
489,121,138140,1,8,3:0:0:0:
482,60,138226,1,8,2:3:0:0:
442,14,138312,1,8,2:3:0:0:
383,2,138397,1,8,2:3:0:0:
326,26,138483,1,8,3:0:0:0:
299,81,138569,1,8,2:3:0:0:
245,107,138654,1,8,2:3:0:0:
184,100,138740,1,8,2:3:0:0:
141,59,138826,6,1,L|151:16,3,40,4|0|10|0,3:0|3:0|3:0|3:0,2:0:0:0:
51,71,139169,1,2,3:2:0:0:
62,109,139254,1,0,3:0:0:0:
72,148,139340,1,10,3:0:0:0:
82,186,139426,1,0,3:0:0:0:
93,225,139512,2,1,L|140:237,3,40,2|0|10|0,3:2|3:0|3:0|3:0,2:0:0:0:
206,140,139854,2,1,L|167:151,3,40,2|0|10|0,3:2|3:0|3:0|3:0,2:0:0:0:
229,233,140197,5,2,3:2:0:0:
240,231,140283,1,0,3:0:0:0:
252,230,140369,1,10,3:0:0:0:
264,228,140454,1,0,3:0:0:0:
276,227,140540,5,2,3:2:0:0:
267,277,140626,1,0,3:0:0:0:
287,324,140712,1,10,3:0:0:0:
329,353,140797,1,0,3:0:0:0:
380,355,140883,1,2,3:2:0:0:
424,328,140969,1,0,3:0:0:0:
447,282,141054,1,10,3:0:0:0:
441,232,141140,1,0,3:0:0:0:
409,192,141226,1,2,3:2:0:0:
361,173,141312,1,0,3:0:0:0:
330,132,141397,1,10,3:0:0:0:
327,81,141483,1,2,3:2:0:0:
352,36,141569,6,1,L|398:23,3,40,4|0|10|0,3:2|3:0|3:0|3:0,2:0:0:0:
456,117,141912,2,1,L|409:104,1,40,2|0,3:2|3:0,2:0:0:0:
322,183,142083,2,1,L|368:170,1,40,10|0,3:0|3:0,2:0:0:0:
445,291,142254,1,2,3:2:0:0:
422,328,142340,1,0,3:0:0:0:
384,348,142426,1,10,3:0:0:0:
341,346,142512,1,0,3:0:0:0:
305,321,142597,1,2,3:2:0:0:
286,281,142683,1,0,3:0:0:0:
250,257,142769,1,10,3:0:0:0:
207,256,142854,1,0,3:0:0:0:
169,277,142940,5,2,3:1:0:0:
186,326,143026,1,0,3:0:0:0:
225,358,143112,1,10,3:0:0:0:
276,364,143197,1,2,3:2:0:0:
322,341,143283,1,0,3:0:0:0:
349,297,143369,1,2,3:1:0:0:
348,246,143454,1,10,3:2:0:0:
320,203,143540,1,0,3:0:0:0:
273,183,143626,1,2,3:1:0:0:
222,189,143712,1,0,3:0:0:0:
176,166,143797,1,10,3:2:0:0:
150,122,143883,1,2,3:1:0:0:
151,71,143969,1,0,3:0:0:0:
179,28,144054,1,2,3:1:0:0:
226,8,144140,1,10,3:0:0:0:
277,16,144226,1,0,3:0:0:0:
316,50,144312,6,1,L|326:89,3,40,4|0|10|0,3:0|3:0|3:0|3:0,2:0:0:0:
367,160,144654,2,1,P|347:172|313:172,1,40,2|0,3:2|3:0,2:0:0:0:
292,244,144826,2,1,P|273:232|256:202,1,40,10|0,3:0|3:0,2:0:0:0:
242,124,144997,1,2,3:2:0:0:
202,107,145083,1,0,3:0:0:0:
160,117,145169,1,10,3:0:0:0:
132,150,145254,1,0,3:0:0:0:
129,193,145340,1,2,3:2:0:0:
148,231,145426,1,0,3:0:0:0:
140,274,145512,1,10,3:0:0:0:
109,304,145597,1,2,3:2:0:0:
66,309,145683,5,12,3:0:0:0:
34,268,145769,1,0,3:0:0:0:
32,221,145854,1,0,3:0:0:0:
54,179,145940,1,0,3:0:0:0:
94,153,146026,1,0,3:0:0:0:
141,151,146112,1,0,3:0:0:0:
183,173,146197,5,12,3:0:0:0:
159,218,146283,1,0,3:0:0:0:
114,243,146369,1,0,3:0:0:0:
63,239,146454,1,0,3:0:0:0:
22,209,146540,1,0,3:0:0:0:
4,161,146626,1,0,3:0:0:0:
15,110,146712,2,1,L|61:98,3,40,12|0|0|0,3:0|3:0|3:0|3:0,2:0:0:0:
110,2,147054,5,8,3:0:0:0:
163,20,147140,1,8,2:3:0:0:
201,66,147226,1,8,2:3:0:0:
206,125,147312,1,8,2:3:0:0:
180,177,147397,1,8,3:0:0:0:
128,209,147483,1,8,2:3:0:0:
99,260,147569,1,8,2:3:0:0:
104,319,147654,1,8,2:3:0:0:
144,365,147740,1,8,3:0:0:0:
199,384,147826,1,8,2:3:0:0:
257,370,147912,1,8,2:3:0:0:
297,328,147997,1,8,2:3:0:0:
307,270,148083,1,8,3:0:0:0:
352,227,148169,1,8,2:3:0:0:
408,213,148254,1,8,2:3:0:0:
465,232,148340,1,8,2:3:0:0:
501,277,148426,6,1,B|417:335|339:273|339:273|346:267|346:267|251:197|162:268,1,364,4|0,3:0|2:0,0:0:0:0:
54,350,149797,5,4,3:2:0:0:
98,275,149969,2,1,B|80:206|80:206|75:204|75:204|58:132,2,144,4|2|0,3:2|2:0|3:0,2:0:0:0:
8,257,150826,1,12,2:3:0:0:
155,161,150997,1,8,2:3:0:0:
155,161,151083,1,8,2:3:0:0:
155,161,151169,6,1,L|209:175,3,44,8|8|8|8,3:0|2:3|2:3|2:3,2:0:0:0:
277,251,151512,2,1,L|331:236,3,40,8|8|8|8,3:0|2:3|2:3|2:3,2:0:0:0:
376,168,151854,2,1,L|430:182,3,36,8|8|8|8,3:0|2:3|2:3|2:3,2:0:0:0:
474,233,152197,2,1,L|528:218,3,32,8|8|8|8,3:0|2:3|2:3|2:3,2:0:0:0:
395,348,152540,5,4,3:0:0:0:
345,338,152626,1,0,3:0:0:0:
314,302,152712,1,0,3:0:0:0:
307,254,152797,1,0,3:0:0:0:
330,210,152883,1,10,3:0:0:0:
326,162,152969,1,0,3:0:0:0:
297,124,153054,1,0,3:0:0:0:
252,110,153140,1,0,3:0:0:0:
206,124,153226,5,2,3:0:0:0:
218,184,153312,1,0,3:0:0:0:
263,226,153397,1,0,3:0:0:0:
324,236,153483,1,0,3:0:0:0:
379,209,153569,2,1,L|393:153,3,40,10|0|0|0,3:0|3:0|3:0|3:0,2:0:0:0:
291,100,153912,5,2,3:0:0:0:
291,100,153997,1,0,3:0:0:0:
291,100,154083,2,1,L|305:154,1,40,0|0,3:0|3:0,2:0:0:0:
202,213,154254,1,10,3:0:0:0:
202,213,154340,1,0,3:0:0:0:
202,213,154426,2,1,L|216:158,1,40,0|0,3:0|3:0,2:0:0:0:
331,277,154597,1,2,3:0:0:0:
331,277,154683,1,0,3:0:0:0:
331,277,154769,2,1,L|345:331,1,40,0|0,3:0|3:0,2:0:0:0:
185,358,154940,1,10,3:0:0:0:
185,358,155026,1,0,3:0:0:0:
185,358,155112,2,1,L|199:303,1,40,0|0,3:0|3:0,2:0:0:0:
304,194,155283,6,1,P|330:189|352:196,3,40,4|0|0|0,3:1|3:0|3:0|3:0,2:0:0:0:
409,138,155626,2,1,P|425:159|430:181,3,40,10|0|0|0,3:0|3:0|3:0|3:0,2:0:0:0:
512,203,155969,2,1,P|502:228|485:243,3,40,2|0|0|0,3:2|3:0|3:0|3:0,2:0:0:0:
506,321,156312,2,1,P|479:325|457:318,3,40,12|0|0|0,3:0|3:0|3:0|3:0,2:0:0:0:
383,245,156654,5,4,3:2:0:0:
342,197,156740,1,0,3:0:0:0:
285,181,156826,1,8,2:3:0:0:
235,194,156912,1,8,2:3:0:0:
202,229,156997,1,8,3:0:0:0:
186,270,157083,1,8,2:3:0:0:
164,304,157169,1,8,2:3:0:0:
129,313,157254,1,8,2:3:0:0:
99,300,157340,1,8,3:0:0:0:
86,276,157426,1,8,2:3:0:0:
91,253,157512,1,0,3:0:0:0:
106,245,157597,1,0,3:0:0:0:
119,245,157683,2,1,L|132:296,1,40,8|8,2:3|2:3,2:0:0:0:
233,375,157854,2,1,L|246:322,1,40,8|8,2:3|2:3,2:0:0:0:
388,206,158026,5,6,3:0:0:0:
347,168,158112,1,0,3:0:0:0:
292,159,158197,1,0,3:0:0:0:
242,183,158283,1,0,3:0:0:0:
215,232,158369,1,10,3:0:0:0:
160,243,158454,1,0,3:0:0:0:
108,223,158540,1,0,3:0:0:0:
77,177,158626,1,0,3:0:0:0:
78,122,158712,5,2,3:2:0:0:
120,118,158797,1,0,3:0:0:0:
159,136,158883,1,0,3:0:0:0:
186,168,158969,1,0,3:0:0:0:
195,210,159054,1,10,3:0:0:0:
183,251,159140,1,0,3:0:0:0:
152,283,159226,1,0,3:0:0:0:
113,296,159312,1,0,3:0:0:0:
70,289,159397,5,4,3:2:0:0:
79,231,159483,1,0,3:0:0:0:
119,185,159569,1,0,3:0:0:0:
176,168,159654,1,0,3:0:0:0:
233,183,159740,1,10,3:0:0:0:
275,227,159826,1,0,3:0:0:0:
285,286,159912,1,0,3:0:0:0:
324,330,159997,1,0,3:0:0:0:
380,348,160083,1,2,3:2:0:0:
439,332,160169,1,0,3:0:0:0:
480,289,160254,1,0,3:0:0:0:
491,231,160340,1,0,3:0:0:0:
470,175,160426,2,1,L|419:160,3,40,10|0|0|0,3:0|3:0|3:0|3:0,2:0:0:0:
347,48,160769,5,12,3:0:0:0:
304,84,160854,1,0,3:0:0:0:
290,139,160940,1,0,3:0:0:0:
311,191,161026,1,0,3:0:0:0:
359,220,161112,1,0,3:0:0:0:
384,269,161197,1,0,3:0:0:0:
376,325,161283,1,0,3:0:0:0:
338,365,161369,1,0,3:0:0:0:
283,375,161454,5,12,3:0:0:0:
251,328,161540,1,0,3:0:0:0:
246,271,161626,1,0,3:0:0:0:
271,220,161712,1,0,3:0:0:0:
316,186,161797,1,0,3:0:0:0:
372,180,161883,1,0,3:0:0:0:
425,202,161969,1,0,3:0:0:0:
460,246,162054,1,0,3:0:0:0:
469,302,162140,5,8,3:0:0:0:
402,318,162226,1,8,2:3:0:0:
343,299,162312,1,8,2:3:0:0:
308,251,162397,1,8,2:3:0:0:
294,206,162483,1,8,3:0:0:0:
263,172,162569,1,8,2:3:0:0:
230,161,162654,1,8,2:3:0:0:
197,161,162740,1,8,2:3:0:0:
170,176,162826,2,1,L|155:226,3,40,8|8|8|8,3:0|2:3|2:3|2:3,2:0:0:0:
79,301,163169,2,1,L|64:249,3,40,8|8|8|8,3:0|3:0|3:0|3:0,2:0:0:0:
0,184,163512,5,4,3:0:0:0:
2,164,163597,1,0,3:0:0:0:
4,144,163683,1,0,3:0:0:0:
7,124,163769,1,0,3:0:0:0:
9,104,163854,1,10,3:0:0:0:
12,84,163940,1,0,3:0:0:0:
14,64,164026,1,0,3:0:0:0:
17,45,164112,1,0,3:0:0:0:
19,25,164197,2,1,L|65:12,3,40,2|0|0|0,3:1|3:0|3:0|3:0,2:0:0:0:
132,98,164540,2,1,L|85:85,3,40,10|0|0|0,3:0|3:0|3:0|3:0,2:0:0:0:
203,31,164883,5,2,3:1:0:0:
246,12,164969,1,0,3:0:0:0:
292,20,165054,1,0,3:0:0:0:
326,54,165140,1,0,3:0:0:0:
335,100,165226,1,10,3:0:0:0:
319,144,165312,1,0,3:0:0:0:
331,190,165397,1,0,3:0:0:0:
367,221,165483,1,0,3:0:0:0:
414,226,165569,2,1,L|460:213,3,40,2|0|0|0,3:1|3:0|3:0|3:0,2:0:0:0:
506,135,165912,2,1,L|459:122,3,40,10|0|2|2,3:0|3:0|3:1|3:2,2:0:0:0:
381,50,166254,5,10,3:0:0:0:
349,53,166340,1,0,3:0:0:0:
317,57,166426,1,0,3:0:0:0:
285,61,166512,1,0,3:0:0:0:
253,65,166597,1,0,3:0:0:0:
222,69,166683,1,0,3:0:0:0:
190,73,166769,1,0,3:0:0:0:
158,76,166854,1,0,3:0:0:0:
126,80,166940,2,1,L|113:126,3,40,12|0|0|0,3:0|3:0|3:0|3:0,2:0:0:0:
199,193,167283,2,1,L|186:146,3,40,10|0|0|0,3:0|3:0|3:0|3:0,2:0:0:0:
63,222,167626,5,12,3:0:0:0:
63,222,167712,1,0,3:0:0:0:
63,222,167797,2,1,L|117:208,1,44,0|0,3:0|3:0,2:0:0:0:
209,312,167969,1,10,3:2:0:0:
209,312,168054,1,0,3:0:0:0:
209,312,168140,2,1,L|154:298,1,44,0|0,3:0|3:0,2:0:0:0:
265,220,168312,1,2,3:1:0:0:
265,220,168397,1,0,3:0:0:0:
265,220,168483,2,1,L|319:206,1,36,0|0,3:0|3:0,2:0:0:0:
375,310,168654,1,10,3:2:0:0:
375,310,168740,1,2,3:1:0:0:
375,310,168826,2,1,L|320:296,1,36,2|2,3:2|3:1,2:0:0:0:
426,192,168997,6,1,L|413:239,1,40,12|0,3:1|3:0,2:0:0:0:
442,184,169169,2,1,L|429:231,1,40,0|0,3:0|3:0,2:0:0:0:
343,108,169340,6,1,L|356:155,1,40,0|0,3:0|3:0,2:0:0:0:
327,100,169512,2,1,L|340:147,1,40,0|0,3:0|3:0,2:0:0:0:
469,93,169683,6,1,L|422:80,1,40,12|0,3:0|3:0,2:0:0:0:
477,109,169854,2,1,L|430:96,1,40,0|0,3:0|3:0,2:0:0:0:
289,17,170026,6,1,L|336:4,1,40,0|0,3:0|3:0,2:0:0:0:
281,33,170197,2,1,L|328:20,1,40,0|0,3:0|3:0,2:0:0:0:
248,163,170369,6,1,L|209:152,1,40,10|0,3:0|3:0,2:0:0:0:
108,37,170540,1,0,3:0:0:0:
65,73,170626,1,0,3:0:0:0:
51,124,170712,1,8,3:0:0:0:
63,169,170797,1,0,3:0:0:0:
94,199,170883,1,0,3:0:0:0:
131,213,170969,1,0,3:0:0:0:
161,233,171054,1,12,3:0:0:0:
169,264,171140,1,0,3:0:0:0:
158,291,171226,1,0,3:0:0:0:
136,303,171312,1,0,3:0:0:0:
116,298,171397,1,8,3:0:0:0:
108,285,171483,1,0,3:0:0:0:
108,273,171569,2,1,L|154:261,1,40,0|0,3:0|3:0,2:0:0:0:
224,358,171740,6,1,L|236:311,3,48,4|0|0|0,3:0|3:0|3:0|3:0,2:0:0:0:
329,243,172083,2,1,L|341:290,3,48,10|0|0|0,3:0|3:0|3:0|3:0,2:0:0:0:
220,186,172426,2,1,L|232:139,3,48,2|0|0|0,3:2|3:0|3:0|3:0,2:0:0:0:
335,84,172769,2,1,L|347:131,3,48,10|0|0|0,3:0|3:0|3:0|3:0,2:0:0:0:
224,21,173112,5,2,3:2:0:0:
187,6,173197,1,0,3:0:0:0:
147,10,173283,1,0,3:0:0:0:
115,33,173369,1,0,3:0:0:0:
97,68,173454,1,10,3:0:0:0:
97,107,173540,1,0,3:0:0:0:
116,142,173626,2,1,L|170:156,1,40,0|0,3:0|3:0,2:0:0:0:
243,34,173797,5,8,2:3:0:0:
243,34,173883,1,8,2:3:0:0:
243,34,173969,2,1,L|198:46,1,40,0|0,3:0|3:0,2:0:0:0:
256,170,174140,1,8,2:3:0:0:
256,170,174226,1,8,2:3:0:0:
256,170,174312,2,1,L|301:182,1,40,8|8,2:3|2:3,2:0:0:0:
414,103,174483,5,4,3:0:0:0:
447,132,174569,1,0,3:0:0:0:
457,176,174654,1,10,3:0:0:0:
438,218,174740,1,0,3:0:0:0:
399,239,174826,1,2,3:2:0:0:
376,278,174912,1,0,3:0:0:0:
380,323,174997,1,10,3:0:0:0:
410,357,175083,1,0,3:0:0:0:
455,365,175169,2,1,L|466:319,3,40,2|0|10|0,3:2|3:0|3:0|3:0,2:0:0:0:
383,224,175512,5,2,3:2:0:0:
385,237,175597,1,0,3:0:0:0:
386,251,175683,1,10,3:0:0:0:
389,266,175769,1,0,3:0:0:0:
390,280,175854,5,2,3:2:0:0:
329,256,175940,1,0,3:0:0:0:
272,272,176026,1,10,3:0:0:0:
251,317,176112,1,0,3:0:0:0:
258,359,176197,1,2,3:2:0:0:
284,382,176283,1,0,3:0:0:0:
313,383,176369,2,1,L|323:327,1,40,10|0,3:0|3:0,2:0:0:0:
367,193,176540,5,2,3:2:0:0:
367,193,176626,1,0,3:0:0:0:
367,193,176712,2,1,L|320:205,1,40,10|0,3:0|3:0,2:0:0:0:
190,291,176883,1,2,3:2:0:0:
190,291,176969,1,0,3:0:0:0:
190,291,177054,2,1,L|230:304,1,40,10|2,3:0|3:1,2:0:0:0:
76,197,177226,5,6,3:2:0:0:
25,230,177312,1,0,3:0:0:0:
11,287,177397,1,10,3:0:0:0:
37,341,177483,1,0,3:0:0:0:
90,368,177569,2,1,L|140:353,3,40,2|0|10|0,3:2|3:0|3:0|3:0,2:0:0:0:
202,244,177912,6,1,L|189:291,1,48,2|0,3:2|3:0,2:0:0:0:
218,236,178083,2,1,L|205:283,1,48,10|0,3:0|3:0,2:0:0:0:
63,150,178254,6,1,L|76:197,1,48,2|0,3:2|3:0,2:0:0:0:
47,142,178426,2,1,L|60:189,1,48,10|0,3:0|3:0,2:0:0:0:
156,40,178597,5,2,3:2:0:0:
156,40,178683,1,0,3:0:0:0:
156,40,178769,2,1,L|217:56,1,40,10|0,3:0|3:0,2:0:0:0:
268,140,178940,1,2,3:2:0:0:
268,140,179026,1,0,3:0:0:0:
268,140,179112,2,1,L|330:124,1,40,10|0,3:0|3:0,2:0:0:0:
369,58,179283,1,2,3:0:0:0:
369,58,179369,1,0,3:0:0:0:
369,58,179454,2,1,L|430:74,1,40,10|0,3:0|3:0,2:0:0:0:
477,213,179626,5,8,3:0:0:0:
435,248,179712,1,8,2:3:0:0:
382,242,179797,1,8,2:3:0:0:
348,199,179883,1,8,2:3:0:0:
358,145,179968,5,2,3:2:0:0:
390,149,180054,1,0,3:0:0:0:
422,153,180140,1,10,3:0:0:0:
453,157,180226,1,0,3:0:0:0:
486,159,180311,2,1,L|496:198,1,40,2|0,3:2|3:0,2:0:0:0:
410,271,180483,2,1,L|420:232,1,40,10|0,3:0|3:0,2:0:0:0:
283,218,180654,5,2,3:2:0:0:
251,222,180740,1,0,3:0:0:0:
219,226,180826,1,10,3:0:0:0:
188,230,180912,1,0,3:0:0:0:
155,232,180997,2,1,L|145:271,1,40,2|0,3:2|3:0,2:0:0:0:
231,344,181169,2,1,L|221:305,1,40,10|0,3:0|3:0,2:0:0:0:
289,170,181340,6,1,L|281:226,1,48,2|0,3:2|3:0,2:0:0:0:
307,164,181512,2,1,L|299:220,1,48,10|0,3:0|3:0,2:0:0:0:
182,111,181683,6,1,L|190:167,1,36,2|0,3:2|3:0,2:0:0:0:
164,105,181854,2,1,L|172:161,1,36,10|0,3:0|3:0,2:0:0:0:
268,56,182026,6,1,L|260:112,1,30.0000000000001,2|2,3:1|3:1,2:0:0:0:
286,50,182197,2,1,L|278:106,1,30.0000000000001,10|2,3:0|3:1,2:0:0:0:
160,11,182369,5,8,3:0:0:0:
149,13,182454,1,8,2:3:0:0:
137,14,182540,1,8,2:3:0:0:
125,16,182626,1,8,2:3:0:0:
113,17,182712,38,1,B|79:67|105:126|105:126|134:136|147:169|147:169|126:200|138:249,1,260,12|0,3:0|2:0,2:0:0:0:
282,235,183740,2,1,L|228:221,2,53.3333333333333,0|0|0,3:0|3:0|3:0,2:0:0:0:
375,261,184083,6,1,B|387:309|428:333|428:333|391:313|335:310|335:310|262:344|262:344|225:319|171:331,1,364,12|0,3:0|2:0,2:0:0:0:
78,368,185454,5,4,3:0:0:0:
38,348,185540,1,0,3:0:0:0:
21,308,185626,1,10,3:0:0:0:
34,266,185712,1,0,3:0:0:0:
71,242,185797,1,2,3:0:0:0:
113,239,185883,1,0,3:0:0:0:
145,210,185969,1,10,3:0:0:0:
150,166,186054,1,0,3:0:0:0:
126,130,186140,2,1,L|82:118,3,40,2|0|10|0,3:0|3:0|3:0|3:0,2:0:0:0:
24,42,186483,2,1,L|62:31,3,40,2|0|10|0,3:0|3:0|3:0|3:0,2:0:0:0:
175,0,186826,5,2,3:0:0:0:
173,11,186912,1,0,3:0:0:0:
172,23,186997,1,10,3:0:0:0:
170,35,187083,1,0,3:0:0:0:
169,47,187169,5,2,3:0:0:0:
218,33,187254,1,0,3:0:0:0:
267,48,187340,1,10,3:0:0:0:
299,88,187426,1,0,3:0:0:0:
304,139,187512,1,2,3:0:0:0:
280,184,187597,1,0,3:0:0:0:
235,209,187683,1,10,3:0:0:0:
208,253,187769,1,0,3:0:0:0:
210,304,187854,1,2,3:0:0:0:
240,346,187940,1,0,3:0:0:0:
288,364,188026,1,8,3:0:0:0:
338,353,188112,1,8,3:0:0:0:
373,316,188197,6,1,L|358:261,3,40,4|0|10|0,3:2|3:0|3:0|3:0,2:0:0:0:
301,182,188540,2,1,L|355:196,1,40,2|0,3:0|3:0,2:0:0:0:
404,98,188712,2,1,L|349:112,1,40,10|0,3:0|3:0,2:0:0:0:
275,37,188883,1,2,3:0:0:0:
233,24,188969,1,0,3:0:0:0:
191,35,189054,1,10,3:0:0:0:
162,67,189140,1,0,3:0:0:0:
154,110,189226,1,2,3:0:0:0:
125,143,189312,1,0,3:0:0:0:
84,156,189397,1,10,3:0:0:0:
42,145,189483,1,0,3:0:0:0:
13,113,189569,5,2,3:0:0:0:
43,71,189654,1,0,3:0:0:0:
90,50,189740,1,10,3:0:0:0:
141,56,189826,1,0,3:0:0:0:
183,86,189912,1,2,3:0:0:0:
204,133,189997,1,0,3:0:0:0:
199,184,190083,1,10,3:0:0:0:
220,230,190169,1,0,3:0:0:0:
261,260,190254,1,2,3:0:0:0:
312,266,190340,1,0,3:0:0:0:
359,245,190426,1,8,2:3:0:0:
390,204,190512,1,8,2:3:0:0:
396,152,190597,2,1,L|383:105,1,40,0|0,3:0|3:0,2:0:0:0:
295,39,190769,1,8,2:3:0:0:
295,39,190854,1,8,2:3:0:0:
295,39,190940,6,1,L|282:85,3,40,4|0|10|0,3:0|3:0|3:0|3:0,2:0:0:0:
315,156,191283,2,1,P|292:161|259:153,1,40,2|0,3:0|3:0,2:0:0:0:
220,217,191454,2,1,P|205:200|196:167,1,40,10|0,3:0|3:0,2:0:0:0:
196,78,191626,1,2,3:0:0:0:
155,63,191712,1,0,3:0:0:0:
113,75,191797,1,10,3:0:0:0:
85,108,191883,1,0,3:0:0:0:
82,152,191969,1,2,3:0:0:0:
100,191,192054,1,0,3:0:0:0:
93,233,192140,1,10,3:0:0:0:
62,264,192226,1,0,3:0:0:0:
20,273,192312,5,12,3:0:0:0:
5,227,192397,1,0,3:0:0:0:
14,181,192483,1,0,3:0:0:0:
46,146,192569,1,0,3:0:0:0:
91,131,192654,1,0,3:0:0:0:
138,142,192740,1,0,3:0:0:0:
173,174,192826,5,12,3:0:0:0:
145,216,192912,1,0,3:0:0:0:
97,235,192997,1,0,3:0:0:0:
47,222,193083,1,0,3:0:0:0:
15,182,193169,1,0,3:0:0:0:
12,131,193254,1,0,3:0:0:0:
39,88,193340,2,1,L|77:77,3,40,12|0|0|0,3:0|3:0|3:0|3:0,2:0:0:0:
146,8,193683,5,4,3:2:0:0:
201,15,193769,1,0,3:0:0:0:
242,53,193854,1,10,3:0:0:0:
258,108,193940,1,0,3:0:0:0:
243,161,194026,1,2,3:0:0:0:
202,200,194112,1,0,3:0:0:0:
188,255,194197,1,10,3:0:0:0:
206,308,194283,1,0,3:0:0:0:
250,344,194369,5,2,3:0:0:0:
297,313,194454,1,0,3:0:0:0:
325,264,194540,1,10,3:0:0:0:
324,207,194626,1,0,3:0:0:0:
295,158,194712,1,2,3:0:0:0:
247,130,194797,1,8,3:0:0:0:
190,127,194883,1,8,3:0:0:0:
140,155,194969,1,8,3:0:0:0:
109,202,195054,5,8,3:0:0:0:
155,242,195140,1,8,2:3:0:0:
217,247,195226,1,8,2:3:0:0:
269,215,195312,1,8,2:3:0:0:
293,159,195397,1,8,3:0:0:0:
280,99,195483,1,8,2:3:0:0:
303,42,195569,1,8,2:3:0:0:
356,11,195654,1,8,2:3:0:0:
417,16,195740,1,8,3:0:0:0:
463,57,195826,1,8,2:3:0:0:
477,116,195912,1,8,2:3:0:0:
452,172,195997,1,8,2:3:0:0:
401,204,196083,1,8,3:0:0:0:
339,200,196169,1,8,2:3:0:0:
286,231,196254,1,8,2:3:0:0:
262,288,196340,1,8,2:3:0:0:
276,348,196426,6,1,L|335:363,3,40,4|0|10|0,3:0|3:0|3:0|3:0,2:0:0:0:
442,359,196769,1,2,3:2:0:0:
432,320,196854,1,0,3:0:0:0:
421,281,196940,1,10,3:0:0:0:
412,243,197026,1,0,3:0:0:0:
401,204,197112,2,1,L|410:164,3,40,2|0|10|0,3:2|3:0|3:0|3:0,2:0:0:0:
497,106,197454,2,1,L|506:145,3,40,2|0|10|0,3:2|3:0|3:0|3:0,2:0:0:0:
402,72,197797,5,2,3:2:0:0:
391,74,197883,1,0,3:0:0:0:
379,75,197969,1,10,3:0:0:0:
367,77,198054,1,0,3:0:0:0:
355,78,198140,5,2,3:2:0:0:
321,39,198226,1,0,3:0:0:0:
271,27,198312,1,10,3:0:0:0:
224,46,198397,1,0,3:0:0:0:
196,89,198483,1,2,3:2:0:0:
198,140,198569,1,0,3:0:0:0:
230,180,198654,1,10,3:0:0:0:
237,230,198740,1,0,3:0:0:0:
213,275,198826,1,2,3:2:0:0:
168,299,198912,1,0,3:0:0:0:
117,292,198997,1,10,3:0:0:0:
80,256,199083,1,2,3:2:0:0:
70,205,199169,6,1,L|108:194,3,40,4|0|10|0,3:2|3:0|3:0|3:0,2:0:0:0:
172,127,199512,2,1,L|210:137,1,40,2|0,3:2|3:0,2:0:0:0:
271,207,199683,2,1,L|309:196,1,40,10|0,3:0|3:0,2:0:0:0:
368,111,199854,1,2,3:2:0:0:
411,115,199940,1,0,3:0:0:0:
444,142,200026,1,10,3:0:0:0:
457,184,200112,1,0,3:0:0:0:
445,225,200197,1,2,3:2:0:0:
414,254,200283,1,0,3:0:0:0:
404,297,200369,1,10,3:0:0:0:
419,337,200454,1,0,3:0:0:0:
454,362,200540,5,2,3:1:0:0:
493,329,200626,1,0,3:0:0:0:
511,281,200712,1,10,3:0:0:0:
502,230,200797,1,2,3:2:0:0:
469,191,200883,1,0,3:0:0:0:
420,175,200969,1,2,3:1:0:0:
370,185,201054,1,10,3:2:0:0:
332,220,201140,1,0,3:0:0:0:
317,269,201226,1,2,3:1:0:0:
279,303,201312,1,0,3:0:0:0:
229,314,201397,1,10,3:2:0:0:
180,298,201483,1,2,3:1:0:0:
146,260,201569,1,0,3:0:0:0:
136,209,201654,1,2,3:1:0:0:
154,161,201740,1,10,3:0:0:0:
194,128,201826,1,0,3:0:0:0:
244,120,201912,6,1,L|254:158,3,40,4|0|10|0,3:0|3:0|3:0|3:0,2:0:0:0:
318,243,202254,2,1,L|328:204,1,40,2|0,3:2|3:0,2:0:0:0:
410,158,202426,2,1,L|399:119,1,40,10|0,3:0|3:0,2:0:0:0:
295,33,202597,1,2,3:2:0:0:
251,37,202683,1,0,3:0:0:0:
217,63,202769,1,10,3:0:0:0:
201,104,202854,1,0,3:0:0:0:
208,147,202940,1,2,3:2:0:0:
193,187,203026,1,0,3:0:0:0:
159,214,203112,1,10,3:0:0:0:
116,220,203197,1,2,3:2:0:0:
76,202,203283,5,12,3:0:0:0:
86,155,203369,1,0,3:0:0:0:
116,119,203454,1,0,3:0:0:0:
160,101,203540,1,0,3:0:0:0:
207,105,203626,1,0,3:0:0:0:
247,132,203712,1,0,3:0:0:0:
270,173,203797,5,12,3:0:0:0:
229,204,203883,1,0,3:0:0:0:
177,205,203969,1,0,3:0:0:0:
134,177,204054,1,0,3:0:0:0:
115,130,204140,1,0,3:0:0:0:
126,80,204226,1,0,3:0:0:0:
164,45,204312,2,1,L|233:26,3,40,12|0|0|0,3:0|3:0|3:0|3:0,2:0:0:0:
328,0,204654,5,8,2:3:0:0:
360,46,204740,1,8,2:3:0:0:
360,103,204826,1,8,2:3:0:0:
328,149,204912,1,8,2:3:0:0:
272,167,204997,1,8,3:0:0:0:
218,149,205083,1,8,2:3:0:0:
184,103,205169,1,8,2:3:0:0:
128,85,205254,1,8,2:3:0:0:
74,102,205340,1,8,3:0:0:0:
40,149,205426,1,8,2:3:0:0:
40,207,205512,1,8,2:3:0:0:
74,253,205597,1,8,2:3:0:0:
128,270,205683,1,8,3:0:0:0:
184,253,205769,1,8,2:3:0:0:
238,271,205854,1,8,2:3:0:0:
271,318,205940,1,8,2:3:0:0:
271,375,206026,5,2,3:0:0:0:
215,383,206112,1,8,2:3:0:0:
162,360,206197,1,8,2:3:0:0:
132,311,206283,1,8,2:3:0:0:
132,254,206369,1,8,2:3:0:0:
162,206,206454,1,8,2:3:0:0:
215,181,206540,1,0,3:0:0:0:
271,189,206626,1,0,3:0:0:0:
315,227,206712,1,8,2:3:0:0:
371,234,206797,1,8,2:3:0:0:
423,211,206883,1,0,3:0:0:0:
454,163,206969,1,0,3:0:0:0:
454,105,207054,1,8,2:3:0:0:
423,57,207140,1,8,2:3:0:0:
371,32,207226,1,0,3:0:0:0:
314,41,207312,1,0,3:0:0:0:
270,79,207397,6,1,B|256:164|256:164|175:187|175:187|251:224|251:224|246:309|246:309|304:249|304:249|384:281|384:281|345:206|345:206|399:140|399:140|317:150|317:150|292:112,1,780.000000000002,12|0,3:0|2:0,2:0:0:0:
368,51,209797,1,8,3:0:0:0:
459,226,209969,1,8,3:0:0:0:
218,197,210140,6,1,B|309:232|390:179|349:149|429:101|512:133,1,320,4|0,3:2|2:0,2:0:0:0:
