osu file format v14

[General]
AudioFilename: audio.ogg
AudioLeadIn: 0
PreviewTime:62026
Countdown: 0
SampleSet: Soft
StackLeniency: 0.3
Mode: 0
LetterboxInBreaks: 0
WidescreenStoryboard: 1

[Editor]
Bookmarks: 7169,18140,29112,40083,51054,62026,72997,83969,94940,105912,116883,127854,138826,152540,163512,174483,185454,196426
DistanceSpacing: 1.1
BeatDivisor: 4
GridSize: 32
TimelineZoom: 2.400005

[Metadata]
Title:Dawn of the Dragonstar
TitleUnicode:Dawn of the Dragonstar
Artist:Twilight Force
ArtistUnicode:Twilight Force
Creator:nebuwua
Version:Insane Collab
Source:
Tags:makidonalds dcs meiikyuu werhakon gloryhammer roupus symphonic melodic power metal powermetal adventure epic fantasy english nuclear blast records born borne Christer Björn Mikael Lundkvist Johan Philip Michael Lindh Eldhrimnir Daniel Beckman Gustaf Hansfeldt Aerendir Anders Joakim Johansson Alessandro Conti Ylva Eriksson Lynd Blackwald De'Azsh Allyon
BeatmapID:3981849
BeatmapSetID:1837608

[Difficulty]
HPDrainRate:4.5
CircleSize:3.6
OverallDifficulty:8
ApproachRate:9
SliderMultiplier:2
SliderTickRate:1

[Events]
//Background and Video events
0,0,"phuoc-quan-dragon-rise-test-small.jpg",0,0
//Break Periods
//Storyboard Layer 0 (Background)
//Storyboard Layer 1 (Fail)
//Storyboard Layer 2 (Pass)
//Storyboard Layer 3 (Foreground)
//Storyboard Layer 4 (Overlay)
//Storyboard Sound Samples

[TimingPoints]
312,342.857142857143,4,2,1,60,1,0
6826,-100,4,2,1,5,0,0
7169,-100,4,3,1,60,0,0
8282,-100,4,2,1,60,0,0
8369,-100,4,3,1,60,0,0
9226,-100,4,3,101,60,0,0
9231,-100,4,3,1,60,0,0
9912,-100,4,3,2,60,0,0
10254,-100,4,3,1,60,0,0
13082,-100,4,2,1,60,0,0
13169,-100,4,3,1,60,0,0
15397,-100,4,3,9,60,0,0
16769,-100,4,3,3,60,0,0
17454,-100,4,3,4,60,0,0
17539,-100,4,3,5,60,0,0
17625,-100,4,3,6,60,0,0
17797,-100,4,3,1,60,0,0
18482,-100,4,3,2,60,0,0
19254,-100,4,2,2,60,0,0
19340,-100,4,3,1,60,0,0
19425,-100,4,3,2,60,0,0
20369,-100,4,3,1,60,0,0
20540,-100,4,3,2,60,0,0
20711,-100,4,3,1,60,0,0
20883,-100,4,3,7,60,0,0
21226,-100,4,3,5,60,0,0
21569,-100,4,3,1,60,0,0
21912,-100,4,3,8,60,0,0
22083,-100,4,3,7,60,0,0
22940,-100,4,3,1,60,0,0
23283,-100,4,3,4,60,0,0
23454,-100,4,3,1,60,0,0
23626,-100,4,3,2,60,0,0
24312,-100,4,3,1,60,0,0
24483,-100,4,3,2,60,0,0
24997,-100,4,3,1,60,0,0
25340,-100,4,2,101,60,0,0
25345,-100,4,3,2,60,0,0
25683,-100,4,3,1,60,0,0
25854,-100,4,3,2,60,0,0
27054,-100,4,3,7,60,0,0
27740,-100,4,3,1,60,0,0
28940,-100,4,3,4,60,0,0
29112,-100,4,3,1,60,0,0
29968,-100,4,2,1,60,0,0
30054,-100,4,3,1,60,0,0
30654,-100,4,2,1,60,0,0
30740,-100,4,3,1,60,0,0
31597,-100,4,2,1,60,0,0
31683,-100,4,3,1,60,0,0
33054,-100,4,3,4,60,0,0
33140,-100,4,3,8,60,0,0
33226,-100,4,3,7,60,0,0
33740,-100,4,3,9,60,0,0
34597,-100,4,3,1,60,0,0
35454,-100,4,2,1,60,0,0
35625,-100,4,3,1,60,0,0
36140,-100,4,2,1,60,0,0
36311,-100,4,3,1,60,0,0
36825,-100,4,2,1,60,0,0
36912,-100,4,3,1,60,0,0
39054,-100,4,3,3,60,0,0
39397,-100,4,3,4,60,0,0
39482,-100,4,3,6,60,0,0
39826,-100,4,3,1,60,0,0
42140,-100,4,3,101,60,0,0
42145,-100,4,3,1,60,0,0
42826,-100,4,3,9,60,0,0
43512,-100,4,3,7,60,0,0
44025,-100,4,3,4,60,0,0
44111,-100,4,3,6,60,0,0
44197,-100,4,3,7,60,0,0
44711,-100,4,3,1,60,0,0
45054,-100,4,3,4,60,0,0
45226,-100,4,3,6,60,0,0
45397,-100,4,3,8,60,0,0
45569,-100,4,3,9,60,0,0
46083,-100,4,3,1,60,0,0
48312,-100,4,3,9,60,0,0
49940,-100,4,3,1,60,0,0
50283,-100,4,3,3,60,0,0
50369,-100,4,3,2,60,0,0
50883,-100,4,3,3,60,0,0
50968,-100,4,3,4,60,0,0
51396,-100,4,3,1,60,0,0
53797,-100,4,3,7,60,0,0
54483,-100,4,3,9,60,0,0
55340,-100,4,3,2,60,0,0
56540,-100,4,3,1,60,0,0
56711,-100,4,3,2,60,0,0
58854,-100,4,3,1,60,0,0
58940,-100,4,3,2,60,0,0
59025,-100,4,3,1,60,0,0
59112,-100,4,3,2,60,0,0
59197,-100,4,3,1,60,0,0
59283,-100,4,3,2,60,0,0
59797,-100,4,3,7,60,0,0
60312,-100,4,3,9,60,0,0
60740,-100,4,3,3,60,0,0
60997,-100,4,3,4,60,0,0
61340,-100,4,3,3,60,0,0
61511,-100,4,3,4,60,0,0
61683,-100,4,3,6,60,0,0
61854,-100,4,3,1,60,0,0
62026,-90.9090909090909,4,3,1,60,0,1
68883,-90.9090909090909,4,3,2,60,0,1
69397,-90.9090909090909,4,3,7,60,0,1
69912,-90.9090909090909,4,3,2,60,0,1
70254,-90.9090909090909,4,3,1,60,0,1
71368,-90.9090909090909,4,3,3,60,0,1
71969,-90.9090909090909,4,3,4,60,0,1
72140,-90.9090909090909,4,3,1,60,0,1
72312,-90.9090909090909,4,3,3,60,0,1
72483,-90.9090909090909,4,3,4,60,0,1
72654,-90.9090909090909,4,3,1,60,0,1
73168,-90.9090909090909,4,3,2,60,0,1
75740,-90.9090909090909,4,3,1,60,0,1
75911,-90.9090909090909,4,3,2,60,0,1
77112,-90.9090909090909,4,3,1,60,0,1
77283,-90.9090909090909,4,3,2,60,0,1
77539,-90.9090909090909,4,3,1,60,0,1
77625,-90.9090909090909,4,3,2,60,0,1
77797,-90.9090909090909,4,3,1,60,0,1
77969,-90.9090909090909,4,3,2,60,0,1
78054,-90.9090909090909,4,3,1,60,0,1
78311,-90.9090909090909,4,3,2,60,0,1
78483,-90.9090909090909,4,3,1,60,0,1
78654,-90.9090909090909,4,3,2,60,0,1
79854,-90.9090909090909,4,3,7,60,0,1
80883,-90.9090909090909,4,3,2,60,0,1
81226,-90.9090909090909,4,3,4,60,0,1
81912,-90.9090909090909,4,3,6,60,0,1
82254,-90.9090909090909,4,3,8,60,0,1
82597,-333.333333333333,4,3,4,60,0,1
83283,-333.333333333333,4,2,100,60,0,1
83288,-333.333333333333,4,3,1,60,0,1
83797,-333.333333333333,4,2,1,60,0,1
83969,-100,4,3,1,60,0,0
85082,-100,4,2,1,60,0,0
85169,-100,4,3,1,60,0,0
86026,-100,4,3,101,60,0,0
86031,-100,4,3,1,60,0,0
86712,-100,4,3,2,60,0,0
87054,-100,4,3,1,60,0,0
89882,-100,4,2,1,60,0,0
89969,-100,4,3,1,60,0,0
92197,-100,4,3,9,60,0,0
92883,-100,4,3,7,60,0,0
93569,-100,4,3,3,60,0,0
94254,-100,4,3,4,60,0,0
94425,-100,4,3,6,60,0,0
94597,-100,4,3,1,60,0,0
95797,-100,4,2,1,60,0,0
95883,-100,4,3,1,60,0,0
96483,-100,4,2,1,60,0,0
96825,-100,4,3,1,60,0,0
97169,-100,4,2,1,60,0,0
97340,-100,4,3,1,60,0,0
98540,-100,4,2,1,60,0,0
98711,-100,4,3,1,60,0,0
98883,-100,4,3,4,60,0,0
98969,-100,4,3,8,60,0,0
99054,-100,4,3,7,60,0,0
99397,-100,4,3,9,60,0,0
99740,-100,4,3,1,60,0,0
99825,-100,4,3,4,60,0,0
99997,-100,4,3,6,60,0,0
100083,-100,4,3,2,60,0,0
100596,-100,4,3,1,60,0,0
101283,-100,4,2,1,60,0,0
101454,-100,4,3,1,60,0,0
101969,-100,4,2,1,60,0,0
102140,-100,4,3,1,60,0,0
102654,-100,4,2,1,60,0,0
102740,-100,4,3,1,60,0,0
103169,-100,4,3,7,60,0,0
103512,-100,4,3,2,60,0,0
103854,-100,4,3,7,60,0,0
104197,-100,4,3,1,60,0,0
105226,-100,4,3,3,60,0,0
105569,-100,4,3,4,60,0,0
105912,-100,4,3,1,60,0,0
107969,-100,4,3,101,60,0,0
107974,-100,4,3,1,60,0,0
108654,-100,4,3,9,60,0,0
109340,-100,4,3,7,60,0,0
110026,-100,4,3,3,60,0,0
110540,-100,4,3,2,60,0,0
110626,-100,4,2,2,60,0,0
110712,-100,4,3,4,60,0,0
111054,-100,4,3,2,60,0,0
111226,-100,4,3,6,60,0,0
111397,-100,4,3,9,60,0,0
111911,-100,4,3,1,60,0,0
114140,-100,4,3,9,60,0,0
115769,-100,4,2,1,60,0,0
115854,-100,4,3,1,60,0,0
116111,-100,4,2,1,60,0,0
116197,-100,4,3,2,60,0,0
116454,-100,4,2,2,60,0,0
116540,-100,4,3,1,60,0,0
116883,-100,4,3,2,60,0,0
117054,-100,4,3,1,60,0,0
119626,-100,4,3,7,60,0,0
120312,-100,4,3,9,60,0,0
121169,-100,4,3,2,60,0,0
122369,-100,4,3,1,60,0,0
122540,-100,4,3,2,60,0,0
124683,-100,4,3,1,60,0,0
124769,-100,4,3,2,60,0,0
124854,-100,4,3,1,60,0,0
124940,-100,4,3,2,60,0,0
125025,-100,4,3,1,60,0,0
125112,-100,4,3,2,60,0,0
125626,-100,4,3,7,60,0,0
126140,-100,4,3,9,60,0,0
126740,-100,4,3,3,60,0,0
126826,-100,4,3,4,60,0,0
127169,-100,4,3,3,60,0,0
127340,-100,4,3,4,60,0,0
127512,-100,4,3,6,60,0,0
127683,-100,4,3,1,60,0,0
127854,-90.9090909090909,4,3,1,60,0,1
134712,-90.9090909090909,4,3,2,60,0,1
135226,-90.9090909090909,4,3,7,60,0,1
135740,-90.9090909090909,4,3,2,60,0,1
136083,-90.9090909090909,4,3,1,60,0,1
137197,-90.9090909090909,4,3,3,60,0,1
137797,-90.9090909090909,4,3,4,60,0,1
137969,-90.9090909090909,4,3,1,60,0,1
138140,-90.9090909090909,4,3,3,60,0,1
138311,-90.9090909090909,4,3,4,60,0,1
138483,-90.9090909090909,4,3,1,60,0,1
138997,-90.9090909090909,4,3,2,60,0,1
141569,-90.9090909090909,4,3,1,60,0,1
141740,-90.9090909090909,4,3,2,60,0,1
142940,-90.9090909090909,4,3,1,60,0,1
143112,-90.9090909090909,4,3,2,60,0,1
143368,-90.9090909090909,4,3,1,60,0,1
143454,-90.9090909090909,4,3,2,60,0,1
143626,-90.9090909090909,4,3,1,60,0,1
143797,-90.9090909090909,4,3,2,60,0,1
143883,-90.9090909090909,4,3,1,60,0,1
144140,-90.9090909090909,4,3,2,60,0,1
144312,-90.9090909090909,4,3,1,60,0,1
144483,-90.9090909090909,4,3,2,60,0,1
145683,-90.9090909090909,4,3,7,60,0,1
146712,-90.9090909090909,4,3,2,60,0,1
147054,-90.9090909090909,4,3,4,60,0,1
147740,-90.9090909090909,4,3,6,60,0,1
148083,-90.9090909090909,4,3,8,60,0,1
148426,-333.333333333333,4,3,4,60,0,1
149112,-333.333333333333,4,2,100,60,0,1
149117,-333.333333333333,4,3,1,60,0,1
149626,-333.333333333333,4,2,1,60,0,1
149797,-333.333333333333,4,3,1,60,0,0
149969,-200,4,3,1,60,0,0
150311,-200,4,3,3,60,0,0
150654,-200,4,3,9,60,0,0
150826,-200,4,3,2,60,0,0
151169,-100,4,3,3,60,0,0
151512,-100,4,3,4,60,0,0
151854,-100,4,3,3,60,0,0
152025,-100,4,3,4,60,0,0
152197,-100,4,3,6,60,0,0
152368,-100,4,3,8,60,0,0
152540,-100,4,3,1,60,0,0
156312,-100,4,3,2,60,0,0
156654,-100,4,3,1,60,0,0
156997,-100,4,3,3,60,0,0
157168,-100,4,3,4,60,0,0
157340,-100,4,3,6,60,0,0
157683,-100,4,3,1,60,0,0
157854,-100,4,3,6,60,0,0
157939,-100,4,3,8,60,0,0
158026,-100,4,3,9,60,0,0
158712,-100,4,3,1,60,0,0
160769,-100,4,3,2,60,0,0
161454,-100,4,3,7,60,0,0
162483,-100,4,3,4,60,0,0
162654,-100,4,3,6,60,0,0
162826,-100,4,3,4,60,0,0
162997,-100,4,3,8,60,0,0
163169,-100,4,3,2,60,0,0
163512,-100,4,3,1,60,0,0
163854,-100,4,3,2,60,0,0
164197,-100,4,3,1,60,0,0
164540,-100,4,3,2,60,0,0
164883,-100,4,3,1,60,0,0
165226,-100,4,3,2,60,0,0
165569,-100,4,3,1,60,0,0
165912,-100,4,3,2,60,0,0
166083,-100,4,3,1,60,0,0
166168,-100,4,3,2,60,0,0
166254,-100,4,3,9,60,0,0
167969,-100,4,3,2,60,0,0
168312,-100,4,3,1,60,0,0
168654,-100,4,3,2,60,0,0
168740,-100,4,3,1,60,0,0
168826,-100,4,3,2,60,0,0
168912,-100,4,3,1,60,0,0
169683,-100,4,3,9,60,0,0
171740,-100,4,3,1,60,0,0
174312,-100,4,3,4,60,0,0
174483,-100,4,3,1,60,0,0
174825,-100,4,3,2,60,0,0
177139,-100,4,3,1,60,0,0
177226,-100,4,3,2,60,0,0
179969,-100,4,3,1,60,0,0
180226,-100,4,3,2,60,0,0
182026,-100,4,3,1,60,0,0
182197,-100,4,3,2,60,0,0
182282,-100,4,3,1,60,0,0
182369,-100,4,3,3,60,0,0
182540,-100,4,3,4,60,0,0
182626,-100,4,3,6,60,0,0
182712,-200,4,3,2,60,0,0
183569,-200,4,2,2,60,0,0
183740,-200,4,3,2,60,0,0
184083,-181.818181818182,4,3,2,60,0,0
185283,-181.818181818182,4,2,2,60,0,0
185454,-90.9090909090909,4,3,1,60,0,1
192312,-90.9090909090909,4,3,2,60,0,1
192826,-90.9090909090909,4,3,7,60,0,1
193340,-90.9090909090909,4,3,2,60,0,1
193683,-90.9090909090909,4,3,1,60,0,1
194797,-90.9090909090909,4,3,3,60,0,1
195397,-90.9090909090909,4,3,4,60,0,1
195569,-90.9090909090909,4,3,1,60,0,1
195740,-90.9090909090909,4,3,3,60,0,1
195911,-90.9090909090909,4,3,4,60,0,1
196083,-90.9090909090909,4,3,1,60,0,1
196597,-90.9090909090909,4,3,2,60,0,1
199169,-90.9090909090909,4,3,1,60,0,1
199340,-90.9090909090909,4,3,2,60,0,1
200540,-90.9090909090909,4,3,1,60,0,1
200712,-90.9090909090909,4,3,2,60,0,1
200968,-90.9090909090909,4,3,1,60,0,1
201054,-90.9090909090909,4,3,2,60,0,1
201226,-90.9090909090909,4,3,1,60,0,1
201397,-90.9090909090909,4,3,2,60,0,1
201483,-90.9090909090909,4,3,1,60,0,1
201740,-90.9090909090909,4,3,2,60,0,1
201912,-90.9090909090909,4,3,1,60,0,1
202083,-90.9090909090909,4,3,2,60,0,1
203283,-90.9090909090909,4,3,7,60,0,1
204312,-90.9090909090909,4,3,2,60,0,1
204654,-90.9090909090909,4,3,4,60,0,1
204740,-90.9090909090909,4,3,1,60,0,1
204997,-90.9090909090909,4,3,3,60,0,1
205254,-90.9090909090909,4,3,4,60,0,1
205683,-90.9090909090909,4,3,6,60,0,1
206026,-90.9090909090909,4,3,1,60,0,1
206369,-90.9090909090909,4,3,4,60,0,1
206712,-90.9090909090909,4,3,6,60,0,1
207054,-90.9090909090909,4,3,8,60,0,1
207397,-90.9090909090909,4,3,2,60,0,0
207483,-90.9090909090909,4,2,2,60,0,0
209797,-100,4,3,8,60,0,0
210140,-188.679245283019,4,3,2,60,0,0
210825,-188.679245283019,4,2,2,60,0,0

[Colours]
Combo1 : 127,140,81
Combo2 : 229,128,242
Combo3 : 4,217,57
Combo4 : 84,172,191

[HitObjects]
256,192,654,12,1,6826,0:0:0:0:
30,164,7169,6,1,P|68:94|202:111,1,200,4|10,3:0|2:3,0:0:0:0:
228,187,7683,1,0,3:0:0:0:
228,187,7769,1,0,3:0:0:0:
228,187,7854,1,2,3:2:0:0:
290,90,8026,2,1,L|339:97,1,50,0|0,3:0|3:0,0:0:0:0:
376,226,8197,2,1,L|326:233,1,50,10|0,2:3|0:0,0:0:0:0:
415,150,8369,2,1,L|470:158,1,50,0|0,3:0|3:0,0:0:0:0:
512,229,8540,6,1,P|499:264|478:335,1,100,2|0,3:2|3:0,0:0:0:0:
417,368,8797,1,0,3:0:0:0:
417,368,8883,2,1,B|341:409|286:339|302:329|236:252|144:310,1,300,10|0,2:3|3:0,0:0:0:0:
133,335,9483,1,0,3:0:0:0:
133,335,9569,1,10,2:3:0:0:
23,270,9740,1,0,3:0:0:0:
23,270,9826,1,0,3:0:0:0:
23,270,9912,5,4,3:0:0:0:
125,161,10083,1,0,3:0:0:0:
125,161,10169,1,0,3:0:0:0:
125,161,10254,2,1,P|62:170|11:180,1,100,10|0,2:3|3:0,0:0:0:0:
70,26,10597,2,1,P|133:35|184:45,1,100,2|0,3:0|3:0,0:0:0:0:
216,129,10940,2,1,P|279:120|330:110,1,100,10|0,2:3|3:0,0:0:0:0:
419,53,11283,6,1,P|464:79|483:149,1,100,4|0,3:2|3:0,0:0:0:0:
506,144,11540,1,0,3:0:0:0:
506,144,11626,2,1,P|491:193|429:230,1,100,10|0,2:3|3:0,0:0:0:0:
330,200,11969,1,12,3:1:0:0:
394,364,12312,1,8,2:3:0:0:
345,355,12397,1,8,2:3:0:0:
295,346,12483,1,8,2:3:0:0:
245,338,12569,1,8,2:3:0:0:
196,329,12654,6,1,P|149:338|70:361,1,100,4|0,3:0|3:0,0:0:0:0:
26,247,12997,2,1,L|14:301,1,50,10|0,2:3|0:0,0:0:0:0:
112,202,13169,2,1,L|101:153,1,50,0|0,3:0|3:0,0:0:0:0:
18,112,13340,2,1,P|62:67|132:66,1,100,2|0,3:2|3:0,0:0:0:0:
116,42,13597,1,0,3:0:0:0:
116,42,13683,2,1,P|176:57|212:117,1,100,10|0,2:3|3:0,0:0:0:0:
265,173,14026,6,1,P|331:153|486:127,1,200,2|10,3:0|2:3,0:0:0:0:
512,281,14540,1,0,3:0:0:0:
512,281,14626,1,0,3:0:0:0:
512,281,14712,2,1,P|459:280|439:221,1,100,2|0,3:2|3:0,0:0:0:0:
298,348,15054,2,1,P|351:347|371:288,1,100,10|0,2:3|3:0,0:0:0:0:
223,241,15397,5,12,3:0:0:0:
186,224,15483,1,0,3:0:0:0:
145,227,15569,1,0,3:0:0:0:
111,248,15654,1,0,3:0:0:0:
97,285,15740,2,1,P|111:309|120:345,3,50,0|0|0|0,3:0|3:0|3:0|3:0,0:0:0:0:
4,331,16083,5,10,3:0:0:0:
8,291,16169,1,0,3:0:0:0:
13,251,16254,1,0,3:0:0:0:
17,211,16340,1,0,3:0:0:0:
22,171,16426,1,0,3:0:0:0:
27,131,16512,1,0,3:0:0:0:
34,92,16597,2,1,L|83:84,1,50,8|8,3:0|3:0,0:0:0:0:
165,151,16769,6,1,P|181:115|182:83,3,50,8|8|0|0,3:0|3:0|3:0|3:0,0:0:0:0:
246,44,17112,2,1,P|257:65|263:90,3,50,6|0|8|8,3:0|3:0|3:0|2:3,0:0:0:0:
326,161,17454,2,1,P|342:125|343:93,3,50,8|8|8|8,3:0|2:3|2:3|2:3,0:0:0:0:
456,57,17797,1,8,2:3:0:0:
456,57,17883,1,8,2:3:0:0:
456,57,17969,2,1,L|374:44,1,50,0|0,3:0|3:0,0:0:0:0:
385,241,18140,6,1,P|477:236|510:124,1,200,4|10,3:0|2:0,0:0:0:0:
423,161,18654,1,0,3:0:0:0:
423,161,18740,1,0,3:0:0:0:
423,161,18826,1,2,3:2:0:0:
310,62,18997,2,1,L|261:55,1,50,0|0,3:0|3:0,0:0:0:0:
233,152,19169,2,1,L|282:144,1,50,10|0,2:0|0:0,0:0:0:0:
177,84,19340,2,1,L|128:76,1,50,2|0,3:1|3:0,0:0:0:0:
167,208,19512,6,1,P|182:254|192:310,1,100,2|0,3:2|3:0,0:0:0:0:
274,384,19854,2,1,P|283:334|298:287,1,100,10|0,2:0|3:0,0:0:0:0:
314,267,20112,1,0,3:0:0:0:
314,267,20197,1,2,3:2:0:0:
376,368,20369,1,2,3:1:0:0:
376,368,20454,1,0,3:0:0:0:
376,368,20540,2,1,P|422:353|478:343,1,100,10|2,2:0|3:1,0:0:0:0:
496,190,20883,5,12,3:0:0:0:
467,178,20969,1,0,3:0:0:0:
436,182,21054,1,0,3:0:0:0:
409,197,21140,1,0,3:0:0:0:
394,224,21226,2,1,P|410:251|421:277,3,50,8|0|0|0,3:0|3:0|3:0|3:0,0:0:0:0:
312,197,21569,2,1,P|309:142|339:96,1,100,10|0,3:0|3:0,0:0:0:0:
395,27,21912,2,1,P|352:2|302:4,1,100,8|8,3:0|3:0,0:0:0:0:
221,90,22254,5,12,3:0:0:0:
209,128,22340,1,0,0:0:0:0:
207,168,22426,1,0,0:0:0:0:
214,207,22512,1,0,0:0:0:0:
228,244,22597,2,1,P|262:238|303:244,3,50,0|0|0|0,0:0|0:0|0:0|0:0,0:0:0:0:
174,327,22940,1,12,0:0:0:0:
133,327,23026,1,0,0:0:0:0:
95,313,23112,1,0,0:0:0:0:
62,287,23197,1,0,0:0:0:0:
50,248,23283,2,1,P|66:217|85:134,1,100,8|8,0:0|0:0,0:0:0:0:
42,86,23540,1,8,0:0:0:0:
42,86,23626,6,1,P|99:114|170:16,1,200,6|10,3:0|2:3,0:0:0:0:
314,167,24140,1,2,3:2:0:0:
314,167,24226,1,0,3:0:0:0:
314,167,24312,2,1,P|265:168|239:127,1,100,2|2,3:1|3:2,0:0:0:0:
245,106,24569,1,0,3:0:0:0:
245,106,24654,1,10,2:3:0:0:
390,133,24826,1,2,3:2:0:0:
301,255,24997,6,1,B|224:310|149:240|172:223|94:177|17:227,1,300,4|2,3:2|3:2,0:0:0:0:
11,248,25597,1,0,3:0:0:0:
11,248,25683,1,2,3:1:0:0:
114,352,25854,1,2,3:2:0:0:
114,352,25940,1,0,3:0:0:0:
114,352,26026,2,1,P|123:289|133:238,1,100,10|2,2:3|3:2,0:0:0:0:
207,158,26369,5,12,3:0:0:0:
246,151,26454,1,0,3:0:0:0:
285,144,26540,1,0,3:0:0:0:
324,137,26626,1,0,3:0:0:0:
363,131,26712,1,0,3:0:0:0:
402,125,26797,1,0,3:0:0:0:
441,119,26883,2,1,L|460:165,1,50,0|0,3:0|3:0,0:0:0:0:
371,257,27054,6,1,P|373:232|385:210,3,50,12|0|0|0,3:0|3:0|3:0|3:0,0:0:0:0:
462,260,27397,2,1,P|474:281|476:306,3,50,0|0|0|0,3:0|3:0|3:0|3:0,0:0:0:0:
370,370,27740,6,1,P|319:360|259:353,1,100,10|0,3:0|3:0,0:0:0:0:
245,341,27997,1,0,3:0:0:0:
245,341,28083,2,1,L|234:293,1,50,8|8,2:3|2:3,0:0:0:0:
153,268,28254,1,8,2:3:0:0:
153,268,28340,1,8,2:3:0:0:
153,268,28426,2,1,L|164:220,3,50,0|0|8|8,3:0|3:0|2:3|2:3,0:0:0:0:
223,123,28769,2,1,L|234:171,3,50,0|0|8|8,3:0|3:0|2:3|2:3,0:0:0:0:
300,226,29112,6,1,P|384:236|432:168,1,150,4|0,3:0|3:0,0:0:0:0:
423,159,29454,1,10,2:3:0:0:
356,41,29626,1,0,3:0:0:0:
230,111,29797,2,1,P|179:102|120:85,1,100,2|0,3:2|0:0,0:0:0:0:
116,68,30054,1,0,3:0:0:0:
116,68,30140,1,10,2:3:0:0:
4,22,30312,6,1,P|34:121|56:223,1,200,0|0,3:0|0:0,0:0:0:0:
42,242,30740,1,0,3:0:0:0:
42,242,30826,1,10,2:3:0:0:
94,379,30997,1,0,3:0:0:0:
8,325,31169,1,2,3:0:0:0:
168,195,31512,2,1,P|192:199|216:204,1,50,10|0,2:3|0:0,0:0:0:0:
270,291,31683,2,1,P|245:295|221:300,1,50,0|0,3:0|3:0,0:0:0:0:
316,222,31854,6,1,B|365:210|399:232|389:239|420:265|486:251,1,150,4|0,3:0|3:0,0:0:0:0:
491,237,32197,2,1,P|475:188|468:133,1,100,10|0,2:3|3:0,0:0:0:0:
512,51,32540,2,1,P|467:8|378:37,1,150,2|0,3:2|3:0,0:0:0:0:
376,50,32883,1,10,2:3:0:0:
261,119,33054,1,8,3:0:0:0:
261,119,33140,1,8,2:3:0:0:
261,119,33226,6,1,P|247:81|238:37,5,50,4|0|0|0|0|0,3:0|3:0|3:0|3:0|3:0|3:0,0:0:0:0:
184,12,33740,1,12,3:0:0:0:
144,4,33826,1,0,3:0:0:0:
105,13,33912,1,0,3:0:0:0:
80,44,33997,1,0,3:0:0:0:
80,84,34083,1,0,3:0:0:0:
102,117,34169,1,0,3:0:0:0:
137,133,34254,2,1,P|171:123|203:117,1,50,12|0,3:0|3:0,0:0:0:0:
165,225,34426,2,1,P|131:215|99:209,1,50,0|0,3:0|3:0,0:0:0:0:
16,204,34597,6,1,P|41:258|62:324,1,100,4|0,3:0|3:0,0:0:0:0:
45,321,34854,1,0,3:0:0:0:
45,321,34940,1,10,2:3:0:0:
127,371,35112,1,0,3:0:0:0:
199,297,35283,2,1,P|252:300|274:351,2,100,2|0|10,3:2|0:0|2:3,0:0:0:0:
255,213,35797,6,1,P|302:200|360:191,1,100,0|2,3:0|3:2,0:0:0:0:
443,296,36140,2,1,P|394:282|345:274,1,100,0|10,0:0|2:3,0:0:0:0:
486,209,36483,2,1,B|499:160|462:118|455:127|416:71|454:7,1,200,0|0,3:0|0:0,0:0:0:0:
476,7,36912,1,0,3:0:0:0:
476,7,36997,1,10,2:3:0:0:
366,88,37169,2,1,P|333:74|289:60,1,50,0|0,3:0|3:0,0:0:0:0:
269,3,37340,5,10,3:0:0:0:
228,0,37426,1,0,3:0:0:0:
191,15,37512,1,0,3:0:0:0:
171,49,37597,1,0,3:0:0:0:
150,83,37683,1,10,3:0:0:0:
113,99,37769,1,0,3:0:0:0:
74,90,37854,2,1,P|61:60|55:23,1,50,0|0,3:0|3:0,0:0:0:0:
16,146,38026,2,1,P|9:170|0:192,3,50,10|0|0|0,3:0|3:0|3:0|3:0,0:0:0:0:
98,247,38369,2,1,P|85:217|79:180,1,50,10|0,3:0|3:0,0:0:0:0:
165,171,38540,1,0,3:0:0:0:
165,171,38626,1,0,3:0:0:0:
165,171,38712,5,8,2:3:0:0:
206,143,38797,1,8,2:3:0:0:
255,149,38883,1,0,3:0:0:0:
285,188,38969,1,0,3:0:0:0:
279,237,39054,2,1,P|246:226|206:219,3,50,8|8|0|0,2:3|2:3|3:0|3:0,0:0:0:0:
294,339,39397,2,1,P|327:328|367:321,3,50,8|8|0|0,2:3|2:3|3:0|3:0,0:0:0:0:
463,303,39740,1,0,3:0:0:0:
463,303,39826,1,8,2:3:0:0:
463,303,39912,2,1,P|433:288|392:277,1,50,8|8,2:3|2:3,0:0:0:0:
368,206,40083,6,1,P|400:140|483:128,1,150,4|0,3:0|3:0,0:0:0:0:
495,142,40426,1,10,2:3:0:0:
403,43,40597,1,0,3:0:0:0:
303,127,40769,2,1,P|237:95|220:25,1,150,2|0,3:0|3:0,0:0:0:0:
238,0,41112,1,10,2:3:0:0:
134,76,41283,1,0,3:0:0:0:
0,23,41454,6,1,P|18:80|31:131,1,100,2|0,3:2|3:0,0:0:0:0:
0,267,41797,2,1,B|77:212|152:282|129:299|207:345|284:295,1,300,10|0,2:3|3:0,0:0:0:0:
308,282,42397,1,0,3:0:0:0:
308,282,42483,2,1,P|297:229|290:171,1,100,10|0,2:3|3:0,0:0:0:0:
390,141,42826,5,14,3:0:0:0:
390,141,42912,1,0,3:0:0:0:
390,141,42997,2,1,P|379:169|373:189,3,50,0|0|2|0,3:0|3:0|3:0|3:0,0:0:0:0:
340,59,43340,2,1,P|332:35|323:12,1,50,0|0,3:0|3:0,0:0:0:0:
212,15,43512,1,12,3:0:0:0:
176,49,43597,1,0,3:0:0:0:
172,99,43683,1,0,3:0:0:0:
203,140,43769,1,0,3:0:0:0:
252,149,43854,2,1,P|276:142|299:133,3,50,8|0|8|8,3:0|3:0|3:0|3:0,0:0:0:0:
219,249,44197,5,12,2:3:0:0:
170,243,44283,1,8,2:3:0:0:
121,237,44369,1,0,3:0:0:0:
72,231,44454,1,0,3:0:0:0:
23,226,44540,2,1,P|10:179|-3:113,1,100,0|10,3:0|3:0,0:0:0:0:
38,0,44883,2,1,P|41:24|51:47,3,50,8|8|8|8,2:3|2:3|2:3|2:3,0:0:0:0:
123,99,45226,2,1,P|119:123|109:146,3,50,8|8|8|8,2:3|2:3|2:3|2:3,0:0:0:0:
20,240,45569,6,1,P|94:245|168:256,1,150,6|0,3:0|3:0,0:0:0:0:
186,268,45912,1,10,3:0:0:0:
282,329,46083,1,4,3:2:0:0:
339,196,46254,2,1,P|289:190|240:182,1,100,2|0,3:0|3:0,0:0:0:0:
223,172,46512,1,0,3:0:0:0:
223,172,46597,1,10,3:0:0:0:
299,74,46769,6,1,P|347:73|378:110,1,100,0|2,3:0|3:0,0:0:0:0:
503,169,47112,2,1,P|454:168|423:205,1,100,0|10,3:0|3:0,0:0:0:0:
415,321,47454,1,0,3:0:0:0:
415,321,47540,1,0,3:0:0:0:
415,321,47626,2,1,P|468:307|538:296,1,100,2|0,3:2|3:0,0:0:0:0:
336,384,47969,2,1,P|282:370|213:359,1,100,10|0,3:0|3:0,0:0:0:0:
148,197,48312,5,6,3:0:0:0:
223,282,48483,2,1,P|269:275|344:278,2,100,0|10|0,3:0|3:0|3:0,0:0:0:0:
209,102,48997,1,2,3:0:0:0:
142,189,49169,2,1,P|95:182|21:185,2,100,0|10|0,3:0|3:0|3:0,0:0:0:0:
172,12,49683,5,2,3:0:0:0:
317,39,49854,1,8,3:0:0:0:
317,39,49940,1,8,2:3:0:0:
317,39,50026,2,1,P|379:108|354:159,1,150,8|8,2:3|2:3,0:0:0:0:
333,162,50369,2,1,P|311:156|281:151,3,50,12|0|0|8,3:0|3:0|3:0|3:0,0:0:0:0:
391,237,50712,1,8,2:3:0:0:
391,237,50797,1,8,2:3:0:0:
391,237,50883,2,1,P|413:231|443:226,1,50,8|8,2:3|2:3,0:0:0:0:
353,311,51054,6,1,P|297:333|211:228,1,200,4|2,3:0|2:0,0:0:0:0:
224,221,51483,1,0,3:0:0:0:
224,221,51569,1,10,2:3:0:0:
135,133,51740,2,1,P|120:178|105:246,1,100,2|10,3:2|2:3,0:0:0:0:
27,306,52083,2,1,P|15:257|0:209,1,100,2|10,2:0|2:3,0:0:0:0:
93,57,52426,6,1,B|147:31|205:61|188:75|241:107|310:67,1,200,2|2,3:2|2:0,0:0:0:0:
303,56,52854,1,0,3:0:0:0:
303,56,52940,1,10,2:3:0:0:
406,0,53112,2,1,P|445:12|449:85,1,100,2|10,3:2|2:3,0:0:0:0:
385,141,53454,1,2,3:2:0:0:
385,141,53540,1,0,3:0:0:0:
385,141,53626,1,10,2:3:0:0:
274,161,53797,5,12,3:0:0:0:
245,189,53883,1,0,3:0:0:0:
245,229,53969,1,0,3:0:0:0:
269,259,54054,1,0,3:0:0:0:
308,264,54140,2,1,P|324:230|330:199,3,50,0|0|0|0,3:0|3:0|3:0|3:0,0:0:0:0:
435,226,54483,2,1,P|442:249|454:271,3,50,12|0|0|0,3:0|3:0|3:0|3:0,0:0:0:0:
419,353,54826,1,10,3:0:0:0:
419,353,54912,1,0,3:0:0:0:
419,353,54997,2,1,P|376:334|344:326,1,50,0|0,3:0|3:0,0:0:0:0:
236,329,55169,5,10,3:0:0:0:
144,383,55340,1,10,2:3:0:0:
71,311,55512,2,1,P|55:254|91:193,1,100,2|10,2:0|2:3,0:0:0:0:
184,143,55854,1,2,3:2:0:0:
184,143,55940,1,0,3:0:0:0:
184,143,56026,2,1,P|224:151|260:167,1,50,8|8,2:3|2:3,0:0:0:0:
107,83,56197,1,0,3:0:0:0:
107,83,56283,1,0,3:0:0:0:
107,83,56369,2,1,P|67:91|31:107,1,50,8|8,2:3|2:3,0:0:0:0:
178,7,56540,6,1,P|245:18|253:67,1,100,4|10,3:2|2:0,0:0:0:0:
324,124,56883,2,1,P|391:113|399:64,1,100,2|10,2:0|2:0,0:0:0:0:
462,0,57226,2,1,P|483:55|496:107,1,100,2|10,3:2|2:0,0:0:0:0:
446,167,57569,2,1,P|425:222|412:274,1,100,2|10,2:0|2:0,0:0:0:0:
488,373,57912,5,2,3:2:0:0:
403,273,58083,2,1,P|382:268|324:318,1,100,10|2,2:0|2:0,0:0:0:0:
331,338,58340,1,0,3:0:0:0:
331,338,58426,1,10,2:0:0:0:
232,382,58597,2,1,P|174:361|123:351,1,100,2|10,3:2|2:0,0:0:0:0:
104,368,58854,1,2,2:1:0:0:
104,368,58940,2,1,P|97:331|88:297,1,50,2|2,3:2|3:1,0:0:0:0:
164,274,59112,2,1,P|171:237|180:203,1,50,10|2,2:0|2:1,0:0:0:0:
91,180,59283,5,12,3:0:0:0:
68,135,59369,1,0,3:0:0:0:
78,86,59454,1,0,3:0:0:0:
115,52,59540,1,0,3:0:0:0:
165,49,59626,1,0,3:0:0:0:
209,71,59712,1,0,3:0:0:0:
222,118,59797,2,1,P|203:127|157:138,5,50,12|0|0|0|0|0,3:0|3:0|3:0|3:0|3:0|3:0,0:0:0:0:
296,50,60312,2,1,P|320:56|342:67,3,50,10|0|0|0,3:0|3:0|3:0|3:0,0:0:0:0:
415,161,60654,5,12,3:0:0:0:
415,161,60740,1,8,2:3:0:0:
415,161,60826,2,1,P|448:152|482:146,1,50,8|8,2:3|2:3,0:0:0:0:
331,229,60997,2,1,P|320:196|313:157,1,50,8|8,3:0|2:3,0:0:0:0:
413,241,61169,2,1,P|406:265|398:288,1,50,8|8,2:3|2:3,0:0:0:0:
332,335,61340,2,1,P|298:322|257:312,3,50,8|8|8|8,3:0|2:3|2:3|2:3,0:0:0:0:
200,263,61683,2,1,P|234:250|275:240,3,50,8|8|8|8,3:0|2:3|2:3|2:3,0:0:0:0:
145,376,62026,6,1,P|85:353|77:298,1,110,4|10,3:0|3:0,0:0:0:0:
140,177,62369,1,2,3:0:0:0:
173,169,62454,1,0,3:0:0:0:
206,160,62540,1,10,3:0:0:0:
238,151,62626,1,0,3:0:0:0:
271,141,62712,2,1,P|336:158|394:177,1,110,2|10,3:0|3:0,0:0:0:0:
478,54,63054,2,1,P|424:67|372:83,1,110,2|10,3:0|3:0,0:0:0:0:
426,241,63397,6,1,P|461:193|450:133,1,110,2|10,3:0|3:0,0:0:0:0:
289,60,63740,1,2,3:0:0:0:
244,60,63826,1,0,3:0:0:0:
207,84,63912,1,10,3:0:0:0:
195,126,63997,1,0,3:0:0:0:
203,169,64083,1,2,3:0:0:0:
187,211,64169,1,0,3:0:0:0:
149,234,64254,1,10,3:0:0:0:
104,232,64340,1,0,3:0:0:0:
68,205,64426,2,1,P|78:173|83:150,3,55,2|0|8|8,3:0|3:0|3:0|3:0,0:0:0:0:
68,68,64769,6,1,P|129:78|164:128,1,110,4|10,3:2|3:0,0:0:0:0:
225,266,65112,1,2,3:0:0:0:
257,172,65283,1,10,3:0:0:0:
126,277,65454,2,1,P|144:332|155:382,1,110,2|10,3:0|3:0,0:0:0:0:
308,352,65797,2,1,P|320:298|337:246,1,110,2|10,3:0|3:0,0:0:0:0:
484,173,66140,5,2,3:0:0:0:
446,196,66226,1,0,3:0:0:0:
401,192,66312,1,10,3:0:0:0:
365,166,66397,1,0,3:0:0:0:
355,122,66483,1,2,3:0:0:0:
368,80,66569,1,0,3:0:0:0:
406,58,66654,2,1,P|435:68|472:79,3,55,10|0|2|0,3:0|3:0|3:0|3:0,0:0:0:0:
330,1,66997,1,8,2:3:0:0:
330,1,67083,1,8,2:3:0:0:
330,1,67169,2,1,P|304:9|278:18,1,55,0|0,3:0|3:0,0:0:0:0:
259,109,67340,2,1,P|233:99|206:91,1,55,8|8,2:3|2:3,0:0:0:0:
136,21,67512,6,1,P|109:75|122:134,1,110,4|10,3:0|3:0,0:0:0:0:
223,189,67854,1,2,3:0:0:0:
136,240,68026,1,10,3:0:0:0:
298,284,68197,2,1,P|310:230|327:178,1,110,2|10,3:0|2:3,0:0:0:0:
435,91,68540,2,1,P|452:143|464:196,1,110,2|10,3:0|2:3,0:0:0:0:
460,305,68883,6,1,L|397:323,5,55,12|0|0|0|0|0,3:0|3:0|3:0|3:0|3:0|3:0,0:0:0:0:
329,374,69397,2,1,L|277:359,5,55,12|0|0|0|0|0,3:0|3:0|3:0|3:0|3:0|3:0,0:0:0:0:
387,239,69912,2,1,L|324:257,3,55,12|0|0|0,3:0|3:0|3:0|3:0,0:0:0:0:
243,264,70254,5,4,3:2:0:0:
220,219,70340,1,0,3:0:0:0:
226,169,70426,1,10,3:0:0:0:
257,130,70512,1,0,3:0:0:0:
304,116,70597,2,1,P|347:132|371:139,3,55,2|0|10|0,3:0|3:0|3:0|3:0,0:0:0:0:
479,171,70940,5,2,3:0:0:0:
502,126,71026,1,0,3:0:0:0:
496,76,71112,1,10,3:0:0:0:
465,37,71197,1,0,3:0:0:0:
418,23,71283,2,1,P|375:39|351:46,3,55,2|8|8|8,3:0|3:0|3:0|3:0,0:0:0:0:
282,1,71626,6,1,P|228:9|189:46,1,110,8|8,3:0|2:3,0:0:0:0:
183,74,71883,1,8,2:3:0:0:
183,74,71969,1,8,3:0:0:0:
242,181,72140,1,8,2:3:0:0:
95,149,72312,2,1,L|40:158,3,55,8|8|8|8,3:0|2:3|2:3|2:3,0:0:0:0:
124,232,72654,2,1,L|178:241,3,55,8|8|8|8,3:0|2:3|2:3|2:3,0:0:0:0:
242,181,72997,6,1,P|317:196|333:260,1,110,4|10,3:0|3:0,0:0:0:0:
430,346,73340,1,2,3:2:0:0:
436,313,73426,1,0,3:0:0:0:
444,280,73512,1,10,3:0:0:0:
450,247,73597,1,0,3:0:0:0:
457,214,73683,2,1,P|449:167|432:92,1,110,2|10,3:2|3:0,0:0:0:0:
345,0,74026,2,1,P|333:53|323:107,1,110,2|10,3:2|3:0,0:0:0:0:
201,140,74369,6,1,P|142:122|86:110,1,110,2|10,3:2|3:0,0:0:0:0:
10,164,74712,1,2,3:2:0:0:
4,207,74797,1,0,3:0:0:0:
20,247,74883,1,10,3:0:0:0:
60,264,74969,1,0,3:0:0:0:
102,253,75054,1,2,3:2:0:0:
145,260,75140,1,0,3:0:0:0:
175,291,75226,1,10,3:0:0:0:
179,334,75312,1,0,3:0:0:0:
159,373,75397,2,1,P|126:359|91:351,3,55,2|0|10|2,3:2|3:0|3:0|3:2,0:0:0:0:
151,251,75740,6,1,P|212:244|257:288,1,110,4|10,3:2|3:0,0:0:0:0:
364,377,76083,1,2,3:2:0:0:
339,282,76254,1,10,3:0:0:0:
406,183,76426,2,1,P|448:193|526:216,1,110,2|10,3:2|3:0,0:0:0:0:
318,112,76769,2,1,P|276:122|198:145,1,110,2|10,3:2|3:0,0:0:0:0:
103,228,77112,5,2,3:1:0:0:
65,205,77197,1,0,3:0:0:0:
45,165,77283,1,10,3:0:0:0:
48,121,77369,1,2,3:2:0:0:
73,85,77454,2,1,P|103:89|141:101,3,55,0|2|10|0,3:0|3:1|3:2|3:0,0:0:0:0:
221,47,77797,1,2,3:1:0:0:
248,42,77883,1,0,3:0:0:0:
275,37,77969,1,10,3:2:0:0:
301,31,78054,1,2,3:1:0:0:
328,27,78140,2,1,P|344:51|356:77,3,55,0|2|10|0,3:0|3:1|3:0|3:0,0:0:0:0:
507,146,78483,6,1,P|436:152|423:215,1,110,4|10,3:0|3:0,0:0:0:0:
473,336,78826,1,2,3:2:0:0:
491,241,78997,1,10,3:0:0:0:
385,305,79169,2,1,P|332:317|270:337,1,110,2|10,3:2|3:0,0:0:0:0:
217,273,79512,2,1,P|164:256|110:244,1,110,2|10,3:2|3:0,0:0:0:0:
9,306,79854,6,1,P|21:270|30:244,5,55,12|0|0|0|0|0,3:0|3:0|3:0|3:0|3:0|3:0,0:0:0:0:
113,225,80369,2,1,P|101:189|92:163,5,55,12|0|0|0|0|0,3:0|3:0|3:0|3:0|3:0|3:0,0:0:0:0:
22,130,80883,2,1,P|34:94|43:68,3,55,12|0|0|0,3:0|3:0|3:0|3:0,0:0:0:0:
124,12,81226,5,8,3:0:0:0:
178,6,81312,1,8,2:3:0:0:
228,27,81397,1,8,2:3:0:0:
244,79,81483,1,8,2:3:0:0:
253,133,81569,1,8,3:0:0:0:
293,161,81654,1,8,2:3:0:0:
337,160,81740,1,8,2:3:0:0:
366,134,81826,1,8,2:3:0:0:
372,101,81912,2,1,P|345:91|307:82,3,55,8|8|8|8,3:0|2:3|2:3|2:3,0:0:0:0:
435,48,82254,2,1,P|462:38|500:29,3,55,8|8|8|8,3:0|2:3|2:3|2:3,0:0:0:0:
459,131,82597,6,1,P|433:220|404:343,1,210,4|0,3:0|0:0,0:0:0:0:
330,370,83969,6,1,P|240:359|225:243,1,200,4|10,3:0|2:3,0:0:0:0:
298,211,84483,1,0,3:0:0:0:
298,211,84569,1,0,3:0:0:0:
298,211,84654,1,2,3:2:0:0:
175,173,84826,2,1,L|126:184,1,50,0|0,3:0|3:0,0:0:0:0:
239,109,84997,2,1,L|287:120,1,50,10|0,2:3|0:0,0:0:0:0:
367,149,85169,2,1,L|415:137,1,50,0|0,3:0|3:0,0:0:0:0:
303,44,85340,6,1,P|253:15|209:25,1,100,2|0,3:2|3:0,0:0:0:0:
156,77,85597,1,0,3:0:0:0:
156,77,85683,2,1,P|91:209|210:264,1,300,10|0,2:3|3:0,0:0:0:0:
226,253,86283,1,0,3:0:0:0:
226,253,86369,1,10,2:3:0:0:
340,316,86540,1,0,3:0:0:0:
340,316,86626,1,0,3:0:0:0:
340,316,86712,6,1,P|387:301|434:285,1,100,4|0,3:0|3:0,0:0:0:0:
361,139,87054,2,1,P|325:177|349:235,1,100,10|0,2:3|3:0,0:0:0:0:
476,152,87397,2,1,P|483:104|449:70,1,100,2|0,3:0|3:0,0:0:0:0:
345,28,87740,2,1,P|297:44|250:59,1,100,10|0,2:3|3:0,0:0:0:0:
195,167,88083,6,1,P|142:126|138:66,1,100,4|0,3:2|3:0,0:0:0:0:
138,68,88340,1,0,3:0:0:0:
138,68,88426,2,1,P|75:42|22:69,1,100,10|0,2:3|3:0,0:0:0:0:
0,138,88769,1,12,3:1:0:0:
32,311,89112,1,8,2:3:0:0:
81,302,89197,1,8,2:3:0:0:
131,293,89283,1,8,2:3:0:0:
181,285,89369,1,8,2:3:0:0:
230,276,89454,6,1,P|277:285|356:308,1,100,4|0,3:0|3:0,0:0:0:0:
368,192,89797,2,1,L|319:203,1,50,10|0,2:3|0:0,0:0:0:0:
416,270,89969,2,1,L|465:281,1,50,0|0,3:0|3:0,0:0:0:0:
512,202,90140,2,1,P|503:155|480:76,1,100,2|0,3:2|3:0,0:0:0:0:
419,4,90483,2,1,P|406:52|396:101,1,100,10|0,2:3|3:0,0:0:0:0:
295,122,90826,6,1,B|234:100|185:126|202:134|151:158|99:134,1,200,2|10,3:0|2:3,0:0:0:0:
0,51,91340,1,0,3:0:0:0:
0,51,91426,1,0,3:0:0:0:
0,51,91512,2,1,P|14:112|21:167,1,100,2|0,3:2|3:0,0:0:0:0:
19,270,91854,2,1,P|52:230|116:240,1,100,10|0,2:3|3:0,0:0:0:0:
158,333,92197,5,12,3:0:0:0:
183,364,92283,1,0,3:0:0:0:
221,374,92369,1,0,3:0:0:0:
260,369,92454,1,0,3:0:0:0:
287,340,92540,2,1,P|288:307|294:279,3,50,0|0|0|0,3:0|3:0|3:0|3:0,0:0:0:0:
214,211,92883,5,12,3:0:0:0:
254,204,92969,1,0,3:0:0:0:
294,198,93054,1,0,3:0:0:0:
334,192,93140,1,0,3:0:0:0:
374,186,93226,2,1,P|397:160|389:114,3,50,0|0|8|8,3:0|3:0|3:0|3:0,0:0:0:0:
330,73,93569,6,1,P|295:76|266:91,3,50,8|8|0|0,3:0|2:3|3:0|3:0,0:0:0:0:
242,8,93912,2,1,P|207:4|178:-10,3,50,6|0|8|8,3:0|3:0|2:3|2:3,0:0:0:0:
154,73,94254,2,1,P|119:76|90:91,3,50,8|8|8|8,3:0|2:3|2:3|2:3,0:0:0:0:
66,8,94597,2,1,P|31:4|2:-10,3,50,8|8|0|0,2:3|2:3|3:0|3:0,0:0:0:0:
0,113,94940,6,1,P|-2:185|131:180,1,200,4|10,3:0|2:3,0:0:0:0:
178,145,95454,1,0,3:0:0:0:
246,214,95626,2,1,P|228:254|212:313,1,100,2|0,3:2|0:0,0:0:0:0:
225,337,95883,1,0,3:0:0:0:
225,337,95969,1,10,2:3:0:0:
319,263,96140,6,1,P|367:270|397:310,1,100,0|2,3:0|3:0,0:0:0:0:
493,378,96483,2,1,P|472:287|446:140,1,200,0|0,0:0|3:0,0:0:0:0:
510,82,96997,1,2,3:0:0:0:
432,12,97169,1,0,0:0:0:0:
352,61,97340,2,1,P|311:46|241:30,1,100,10|0,2:3|3:0,0:0:0:0:
231,53,97597,1,0,3:0:0:0:
231,53,97683,6,1,B|176:83|124:50|133:39|97:4|6:35,1,200,2|10,3:0|2:3,0:0:0:0:
0,121,98197,1,0,3:0:0:0:
80,181,98369,2,1,P|62:223|41:287,2,100,2|0|10,3:2|0:0|2:3,0:0:0:0:
181,154,98883,1,8,3:0:0:0:
181,154,98969,1,8,2:3:0:0:
181,154,99054,5,12,3:0:0:0:
188,193,99140,1,0,3:0:0:0:
194,232,99226,1,0,3:0:0:0:
200,271,99312,1,0,3:0:0:0:
205,310,99397,2,1,L|213:367,3,50,12|0|0|0,3:0|3:0|3:0|3:0,0:0:0:0:
351,301,99740,2,1,L|357:251,3,50,12|8|8|8,2:3|3:0|3:0|3:0,0:0:0:0:
271,198,100083,2,1,L|279:255,1,50,12|0,3:0|3:0,0:0:0:0:
393,159,100254,6,1,P|344:89|229:112,1,200,8|0,3:0|3:0,0:0:0:0:
224,129,100683,1,0,3:0:0:0:
224,129,100769,2,1,P|165:126|100:107,1,100,10|0,2:3|3:0,0:0:0:0:
22,68,101112,1,2,3:2:0:0:
51,148,101283,1,0,0:0:0:0:
0,238,101454,1,10,2:3:0:0:
79,317,101626,6,1,P|126:300|183:286,1,100,0|2,3:0|3:2,0:0:0:0:
251,347,101969,2,1,P|298:364|346:376,1,100,0|10,0:0|2:3,0:0:0:0:
418,304,102312,2,1,B|434:252|386:210|380:217|331:169|374:96,1,200,0|0,3:0|0:0,0:0:0:0:
378,104,102740,1,0,3:0:0:0:
378,104,102826,1,10,2:3:0:0:
435,31,102997,1,0,3:0:0:0:
435,31,103083,1,0,3:0:0:0:
435,31,103169,5,12,3:0:0:0:
404,5,103254,1,0,3:0:0:0:
363,2,103340,1,0,3:0:0:0:
325,16,103426,1,0,3:0:0:0:
295,43,103512,2,1,P|286:68|282:104,3,50,12|0|0|0,3:0|3:0|3:0|3:0,0:0:0:0:
184,129,103854,2,1,P|179:104|171:80,3,50,12|0|0|0,3:0|3:0|3:0|3:0,0:0:0:0:
296,186,104197,2,1,P|287:211|283:247,3,50,10|0|0|0,3:0|3:0|3:0|3:0,0:0:0:0:
243,336,104540,5,8,2:3:0:0:
243,336,104626,1,8,2:3:0:0:
243,336,104712,2,1,P|213:325|183:317,1,50,0|0,3:0|3:0,0:0:0:0:
112,242,104883,1,8,2:3:0:0:
112,242,104969,1,8,2:3:0:0:
112,242,105054,2,1,P|142:231|172:223,1,50,0|0,3:0|3:0,0:0:0:0:
21,311,105226,2,1,P|13:274|3:245,3,50,8|8|0|0,2:3|2:3|3:0|3:0,0:0:0:0:
110,334,105569,2,1,P|103:358|98:382,3,50,8|8|0|0,2:3|2:3|3:0|3:0,0:0:0:0:
202,229,105912,6,1,P|168:163|93:144,1,150,4|0,3:0|3:0,0:0:0:0:
72,155,106254,1,10,2:3:0:0:
150,59,106426,1,0,3:0:0:0:
284,177,106597,2,1,P|321:114|302:44,1,150,2|0,3:0|3:0,0:0:0:0:
276,28,106940,1,10,2:3:0:0:
230,101,107112,1,0,3:0:0:0:
401,148,107283,6,1,P|451:133|520:118,1,100,2|0,3:2|3:0,0:0:0:0:
339,266,107626,2,1,B|269:311|191:265|214:248|139:178|62:233,1,300,10|0,2:3|3:0,0:0:0:0:
56,265,108226,1,0,3:0:0:0:
56,265,108312,2,1,P|82:312|129:303,1,100,10|0,2:3|3:0,0:0:0:0:
215,152,108654,5,14,3:0:0:0:
244,146,108740,1,0,3:0:0:0:
273,140,108826,1,0,3:0:0:0:
302,134,108912,1,0,3:0:0:0:
331,129,108997,2,1,P|384:140|444:147,1,100,2|0,3:0|3:0,0:0:0:0:
297,229,109340,1,12,3:0:0:0:
241,56,109512,2,1,P|188:45|128:38,1,100,0|8,3:0|3:0,0:0:0:0:
41,131,109854,1,8,2:3:0:0:
110,258,110026,5,8,3:0:0:0:
138,237,110112,1,8,2:3:0:0:
151,204,110197,1,8,2:3:0:0:
145,169,110283,1,8,2:3:0:0:
121,143,110369,2,1,P|85:150|55:156,3,50,8|0|12|0,2:3|3:0|3:1|0:0,0:0:0:0:
5,232,110712,2,1,P|10:315|65:361,1,150,8|8,2:3|2:3,0:0:0:0:
83,357,111054,1,12,3:1:0:0:
199,327,111226,1,8,2:3:0:0:
199,327,111312,1,8,2:3:0:0:
199,327,111397,6,1,P|212:273|231:222,1,100,6|0,3:0|3:0,0:0:0:0:
270,148,111740,2,1,P|257:94|238:43,1,100,10|4,3:0|3:2,0:0:0:0:
218,22,111997,1,0,3:0:0:0:
218,22,112083,2,1,P|257:46|366:10,1,150,2|0,3:0|3:0,0:0:0:0:
371,0,112426,1,10,3:0:0:0:
476,71,112597,6,1,P|430:88|416:134,1,100,0|2,3:0|3:0,0:0:0:0:
398,266,112940,2,1,P|352:248|338:202,1,100,0|10,3:0|3:0,0:0:0:0:
512,209,113283,1,0,3:0:0:0:
512,209,113369,1,0,3:0:0:0:
512,209,113454,2,1,P|497:256|489:306,1,100,2|0,3:2|3:0,0:0:0:0:
409,151,113797,1,10,3:0:0:0:
319,188,113969,1,0,3:0:0:0:
319,188,114054,1,0,3:0:0:0:
319,188,114140,6,1,L|201:164,2,100,6|0|10,3:0|3:0|3:0,0:0:0:0:
398,134,114654,1,0,3:0:0:0:
327,33,114826,2,1,L|209:57,1,100,2|0,3:0|3:0,0:0:0:0:
157,100,115169,2,1,L|39:76,1,100,10|0,3:0|3:0,0:0:0:0:
105,196,115512,6,1,P|125:261|146:355,1,150,4|0,3:0|0:0,0:0:0:0:
216,384,115854,2,1,P|232:310|254:239,1,150,4|0,3:2|0:0,0:0:0:0:
326,192,116197,2,1,P|346:257|367:351,1,150,4|0,3:0|0:0,0:0:0:0:
443,384,116540,1,4,3:2:0:0:
443,384,116626,1,8,2:3:0:0:
443,384,116712,2,1,P|446:352|451:326,1,50,8|8,2:3|2:3,0:0:0:0:
512,271,116883,5,4,3:0:0:0:
426,215,117054,2,1,P|401:148|470:79,1,150,10|0,2:3|3:0,0:0:0:0:
472,86,117397,1,10,2:3:0:0:
375,0,117569,2,1,P|320:16|261:26,1,100,2|10,3:2|2:3,0:0:0:0:
224,89,117912,2,1,P|168:75|112:54,1,100,2|10,2:0|2:3,0:0:0:0:
70,0,118254,6,1,P|3:75|64:163,1,200,2|2,3:2|2:0,0:0:0:0:
178,166,118769,1,10,2:3:0:0:
94,267,118940,2,1,P|44:248|-18:232,1,100,2|10,3:2|2:3,0:0:0:0:
70,364,119283,1,2,3:2:0:0:
70,364,119369,1,0,3:0:0:0:
70,364,119454,1,10,2:3:0:0:
183,263,119626,5,12,3:0:0:0:
222,270,119712,1,0,3:0:0:0:
261,277,119797,1,0,3:0:0:0:
300,284,119883,1,0,3:0:0:0:
339,291,119969,2,1,L|351:342,3,50,0|0|0|0,3:0|3:0|3:0|3:0,0:0:0:0:
431,245,120312,5,12,3:0:0:0:
435,220,120397,1,0,3:0:0:0:
439,195,120483,1,0,3:0:0:0:
443,170,120569,1,0,3:0:0:0:
447,145,120654,2,1,L|458:74,3,50,10|0|0|0,3:0|3:0|3:0|3:0,0:0:0:0:
384,13,120997,5,10,3:0:0:0:
310,77,121169,1,10,2:3:0:0:
222,31,121340,2,1,P|205:84|191:143,1,100,2|10,2:0|2:3,0:0:0:0:
130,229,121683,1,2,3:2:0:0:
130,229,121769,1,0,3:0:0:0:
130,229,121854,2,1,L|117:163,1,50,8|8,2:3|2:3,0:0:0:0:
43,111,122026,1,0,3:0:0:0:
43,111,122112,1,0,3:0:0:0:
43,111,122197,2,1,L|33:160,1,50,8|8,2:3|2:3,0:0:0:0:
0,286,122369,6,1,P|34:293|105:314,1,100,4|10,3:2|2:0,0:0:0:0:
158,382,122712,2,1,P|192:375|263:354,1,100,2|10,2:0|2:0,0:0:0:0:
302,277,123054,2,1,P|344:295|342:357,1,100,2|10,3:2|2:0,0:0:0:0:
214,264,123397,2,1,P|218:216|262:196,1,100,2|10,2:0|2:0,0:0:0:0:
395,225,123740,5,2,3:2:0:0:
323,140,123912,2,1,P|331:102|354:25,1,100,10|2,2:0|2:0,0:0:0:0:
373,24,124169,1,0,3:0:0:0:
373,24,124254,1,10,2:0:0:0:
228,96,124426,1,2,3:2:0:0:
158,19,124597,1,10,2:0:0:0:
158,19,124683,1,2,2:1:0:0:
158,19,124769,2,1,L|95:28,1,50,2|2,3:2|3:1,0:0:0:0:
37,101,124940,2,1,L|100:110,1,50,10|2,2:0|2:1,0:0:0:0:
170,162,125112,5,12,3:0:0:0:
204,197,125197,1,0,3:0:0:0:
211,246,125283,1,0,3:0:0:0:
191,292,125369,1,0,3:0:0:0:
147,315,125454,1,0,3:0:0:0:
97,306,125540,1,0,3:0:0:0:
63,269,125626,2,1,L|75:212,5,50,12|0|0|0|0|0,3:0|3:0|3:0|3:0|3:0|3:0,0:0:0:0:
200,254,126140,2,1,L|210:302,3,50,10|0|0|0,3:0|3:0|3:0|3:0,0:0:0:0:
264,371,126483,6,1,P|311:336|414:332,1,150,12|8,3:0|2:3,0:0:0:0:
433,310,126826,2,1,L|422:366,3,50,8|8|8|8,3:0|2:3|2:3|2:3,0:0:0:0:
507,257,127169,2,1,L|497:207,3,50,8|8|8|8,3:0|2:3|2:3|2:3,0:0:0:0:
404,167,127512,2,1,L|393:223,3,50,8|8|8|8,3:0|2:3|2:3|2:3,0:0:0:0:
448,58,127854,6,1,P|395:74|342:87,1,110,4|10,3:0|3:0,0:0:0:0:
227,20,128197,1,2,3:0:0:0:
235,53,128283,1,0,3:0:0:0:
244,86,128369,1,10,3:0:0:0:
253,118,128454,1,0,3:0:0:0:
263,151,128540,2,1,P|200:192|165:172,1,110,2|10,3:0|3:0,0:0:0:0:
60,57,128883,2,1,P|112:48|148:87,1,110,2|10,3:0|3:0,0:0:0:0:
75,241,129226,6,1,P|92:300|108:348,1,110,2|10,3:0|3:0,0:0:0:0:
282,380,129569,1,2,3:0:0:0:
317,350,129654,1,0,3:0:0:0:
330,308,129740,1,10,3:0:0:0:
317,266,129826,1,0,3:0:0:0:
283,237,129912,1,2,3:0:0:0:
254,205,129997,1,0,3:0:0:0:
244,161,130083,1,10,3:0:0:0:
251,117,130169,1,0,3:0:0:0:
285,89,130254,2,1,P|317:99|340:104,3,55,2|0|8|8,3:0|3:0|2:3|3:0,0:0:0:0:
213,30,130597,6,1,P|258:-1|322:3,1,110,4|10,3:2|3:0,0:0:0:0:
433,129,130940,1,2,3:0:0:0:
408,35,131112,1,10,3:0:0:0:
341,187,131283,2,1,P|355:239|373:292,1,110,2|10,3:0|3:0,0:0:0:0:
227,384,131626,2,1,P|245:330|259:278,1,110,2|10,3:0|3:0,0:0:0:0:
229,135,131969,5,2,3:0:0:0:
188,117,132054,1,0,3:0:0:0:
146,130,132140,1,10,3:0:0:0:
125,168,132226,1,0,3:0:0:0:
87,191,132312,1,2,3:0:0:0:
43,187,132397,1,0,3:0:0:0:
17,151,132483,2,1,P|27:122|38:85,3,55,10|0|2|0,3:0|3:0|3:0|3:0,0:0:0:0:
53,0,132826,1,8,2:3:0:0:
53,0,132912,1,8,2:3:0:0:
53,0,132997,2,1,P|27:8|1:17,1,55,0|0,3:0|3:0,0:0:0:0:
116,64,133169,2,1,P|142:74|169:82,1,55,8|8,2:3|2:3,0:0:0:0:
242,15,133340,6,1,P|269:69|256:128,1,110,4|10,3:0|3:0,0:0:0:0:
198,243,133683,1,2,3:0:0:0:
300,211,133854,1,10,3:0:0:0:
376,352,134026,2,1,P|322:334|270:320,1,110,2|10,3:0|2:3,0:0:0:0:
407,248,134369,2,1,P|461:230|513:216,1,110,2|10,3:0|2:3,0:0:0:0:
451,82,134712,6,1,L|433:145,5,55,12|0|0|0|0|0,3:0|3:0|3:0|3:0|3:0|3:0,0:0:0:0:
298,158,135226,2,1,L|313:210,5,55,12|0|0|0|0|0,3:0|3:0|3:0|3:0|3:0|3:0,0:0:0:0:
369,38,135740,2,1,L|351:101,3,55,12|0|0|0,3:0|3:0|3:0|3:0,0:0:0:0:
243,7,136083,5,4,3:2:0:0:
194,18,136169,1,0,3:0:0:0:
145,28,136254,1,10,3:0:0:0:
96,40,136340,1,0,3:0:0:0:
49,55,136426,2,1,P|37:99|29:123,3,55,2|0|10|0,3:0|3:0|3:0|3:0,0:0:0:0:
134,152,136769,5,2,3:0:0:0:
157,197,136854,1,0,3:0:0:0:
151,247,136940,1,10,3:0:0:0:
120,286,137026,1,0,3:0:0:0:
73,300,137112,2,1,P|30:284|6:277,3,55,2|8|8|8,3:0|3:0|3:0|3:0,0:0:0:0:
135,384,137454,6,1,P|185:349|241:348,1,110,8|8,3:0|2:3,0:0:0:0:
259,361,137712,1,8,2:3:0:0:
259,361,137797,1,8,3:0:0:0:
341,274,137969,1,8,2:3:0:0:
247,155,138140,2,1,L|237:210,3,55,8|8|8|8,3:0|2:3|2:3|2:3,0:0:0:0:
303,88,138483,2,1,L|293:33,3,55,8|8|8|8,3:0|2:3|2:3|2:3,0:0:0:0:
214,0,138826,6,1,P|154:11|115:71,1,110,4|10,3:0|3:0,0:0:0:0:
47,120,139169,1,2,3:2:0:0:
52,152,139254,1,0,3:0:0:0:
57,184,139340,1,10,3:0:0:0:
63,216,139426,1,0,3:0:0:0:
69,248,139512,2,1,P|120:260|180:283,1,110,2|10,3:2|3:0,0:0:0:0:
292,337,139854,2,1,P|241:349|181:372,1,110,2|10,3:2|3:0,0:0:0:0:
290,217,140197,6,1,P|345:228|349:294,1,110,2|10,3:2|3:0,0:0:0:0:
445,374,140540,1,2,3:2:0:0:
480,347,140626,1,0,3:0:0:0:
491,304,140712,1,10,3:0:0:0:
482,261,140797,1,0,3:0:0:0:
445,236,140883,1,2,3:2:0:0:
423,197,140969,1,0,3:0:0:0:
422,153,141054,1,10,3:0:0:0:
453,121,141140,1,0,3:0:0:0:
497,118,141226,2,1,P|507:150|516:186,3,55,2|0|10|2,3:2|3:0|3:0|3:2,0:0:0:0:
453,17,141569,6,1,P|396:11|365:54,1,110,4|10,3:2|3:0,0:0:0:0:
334,142,141912,1,2,3:2:0:0:
261,46,142083,1,10,3:0:0:0:
193,129,142254,2,1,P|177:76|158:24,1,110,2|10,3:2|3:0,0:0:0:0:
321,137,142597,2,1,P|302:188|286:241,1,110,2|10,3:2|3:0,0:0:0:0:
270,343,142940,5,2,3:1:0:0:
231,365,143026,1,0,3:0:0:0:
186,362,143112,1,10,3:0:0:0:
152,334,143197,1,2,3:2:0:0:
147,290,143283,2,1,P|182:285|217:276,3,55,0|2|10|0,3:0|3:1|3:2|3:0,0:0:0:0:
17,322,143626,1,2,3:1:0:0:
21,295,143712,1,0,3:0:0:0:
25,268,143797,1,10,3:2:0:0:
29,241,143883,1,2,3:1:0:0:
35,214,143969,2,1,P|70:219|105:228,3,55,0|2|10|0,3:0|3:1|3:0|3:0,0:0:0:0:
160,154,144312,6,1,P|141:93|114:22,1,110,4|10,3:0|3:0,0:0:0:0:
213,0,144654,1,2,3:2:0:0:
266,87,144826,1,10,3:0:0:0:
328,14,144997,2,1,P|393:18|408:79,1,110,2|10,3:2|3:0,0:0:0:0:
508,121,145340,2,1,P|443:125|428:186,1,110,2|10,3:2|3:0,0:0:0:0:
470,293,145683,6,1,L|482:227,5,55,12|0|0|0|0|0,3:0|3:0|3:0|3:0|3:0|3:0,0:0:0:0:
372,288,146197,2,1,L|384:354,5,55,12|0|0|0|0|0,3:0|3:0|3:0|3:0|3:0|3:0,0:0:0:0:
301,224,146712,2,1,L|313:158,3,55,12|0|0|0,3:0|3:0|3:0|3:0,0:0:0:0:
222,289,147054,5,8,3:0:0:0:
172,314,147140,1,8,2:3:0:0:
117,302,147226,1,8,2:3:0:0:
85,256,147312,1,8,2:3:0:0:
87,201,147397,1,8,3:0:0:0:
118,162,147483,1,8,2:3:0:0:
123,118,147569,1,8,2:3:0:0:
98,89,147654,1,8,2:3:0:0:
65,85,147740,2,1,P|34:90|-8:106,3,55,8|8|8|8,3:0|2:3|2:3|2:3,0:0:0:0:
116,4,148083,2,1,P|147:9|189:25,3,55,8|8|8|8,3:0|2:3|2:3|2:3,0:0:0:0:
224,97,148426,6,1,P|313:79|435:60,1,210,4|0,3:0|0:0,0:0:0:0:
506,112,149797,5,4,3:2:0:0:
425,158,149969,2,1,P|409:200|429:259,2,100,4|2|0,3:2|2:0|3:0,0:0:0:0:
494,206,150826,1,12,2:3:0:0:
512,313,150997,1,8,2:3:0:0:
512,313,151083,1,8,2:3:0:0:
512,313,151169,2,1,P|480:322|439:335,3,50,8|8|8|8,3:0|2:3|2:3|2:3,0:0:0:0:
406,384,151512,2,1,P|374:375|333:362,3,50,8|8|8|8,3:0|2:3|2:3|2:3,0:0:0:0:
306,312,151854,2,1,P|274:321|233:334,3,50,8|8|8|8,3:0|2:3|2:3|2:3,0:0:0:0:
201,384,152197,2,1,P|169:375|128:362,3,50,8|8|8|8,3:0|2:3|2:3|2:3,0:0:0:0:
99,309,152540,6,1,P|74:220|164:167,1,200,4|10,3:0|3:0,0:0:0:0:
269,217,153054,1,0,3:0:0:0:
269,217,153140,1,0,3:0:0:0:
269,217,153226,1,2,3:0:0:0:
230,119,153397,2,1,P|238:93|244:71,1,50,0|0,3:0|3:0,0:0:0:0:
331,7,153569,2,1,P|347:76|370:161,1,150,10|0,3:0|3:0,0:0:0:0:
372,181,153912,6,1,P|401:188|444:200,1,50,2|0,3:0|3:0,0:0:0:0:
495,93,154083,1,0,3:0:0:0:
495,93,154169,1,0,3:0:0:0:
495,93,154254,2,1,P|466:100|423:112,3,50,10|0|0|0,3:0|3:0|3:0|3:0,0:0:0:0:
496,222,154597,2,1,P|503:193|515:150,3,50,2|0|0|0,3:0|3:0|3:0|3:0,0:0:0:0:
435,275,154940,1,10,3:0:0:0:
512,384,155112,2,1,P|505:359|499:335,1,50,0|0,3:0|3:0,0:0:0:0:
389,355,155283,5,4,3:1:0:0:
351,369,155369,1,0,3:0:0:0:
311,362,155454,1,0,3:0:0:0:
279,337,155540,1,0,3:0:0:0:
275,297,155626,2,1,P|289:265|306:236,3,50,10|0|0|0,3:0|3:0|3:0|3:0,0:0:0:0:
330,167,155969,1,2,3:2:0:0:
290,162,156054,1,0,3:0:0:0:
250,157,156140,1,0,3:0:0:0:
210,152,156226,1,0,3:0:0:0:
170,147,156312,2,1,P|146:156|124:168,3,50,12|0|0|0,3:0|3:0|3:0|3:0,0:0:0:0:
187,278,156654,6,1,P|114:258|41:241,1,150,4|8,3:2|2:3,0:0:0:0:
18,215,156997,2,1,P|22:190|34:168,3,50,8|8|8|8,3:0|2:3|2:3|2:3,0:0:0:0:
0,90,157340,2,1,P|23:81|48:80,3,50,8|8|0|0,3:0|2:3|3:0|3:0,0:0:0:0:
101,0,157683,1,8,2:3:0:0:
101,0,157769,1,8,2:3:0:0:
101,0,157854,2,1,P|120:15|133:37,1,50,8|8,2:3|2:3,0:0:0:0:
125,132,158026,5,6,3:0:0:0:
132,176,158112,1,0,3:0:0:0:
139,220,158197,1,0,3:0:0:0:
146,264,158283,1,0,3:0:0:0:
153,308,158369,2,1,P|129:317|107:329,3,50,10|0|0|0,3:0|3:0|3:0|3:0,0:0:0:0:
222,368,158712,2,1,P|270:367|319:314,1,100,2|0,3:2|3:0,0:0:0:0:
397,352,158969,1,0,3:0:0:0:
397,352,159054,2,1,P|420:309|398:240,1,100,10|0,3:0|3:0,0:0:0:0:
267,240,159397,5,4,3:2:0:0:
235,207,159483,1,0,3:0:0:0:
230,162,159569,1,0,3:0:0:0:
246,120,159654,1,0,3:0:0:0:
284,96,159740,2,1,P|308:105|330:117,3,50,10|0|0|0,3:0|3:0|3:0|3:0,0:0:0:0:
399,180,160083,2,1,P|375:188|353:200,3,50,2|0|0|0,3:2|3:0|3:0|3:0,0:0:0:0:
418,88,160426,2,1,P|466:80|512:100,1,100,10|0,3:0|3:0,0:0:0:0:
485,255,160769,5,12,3:0:0:0:
468,301,160854,1,0,3:0:0:0:
423,325,160940,1,0,3:0:0:0:
372,323,161026,1,0,3:0:0:0:
333,290,161112,1,0,3:0:0:0:
285,274,161197,1,0,3:0:0:0:
236,286,161283,1,0,3:0:0:0:
201,322,161369,1,0,3:0:0:0:
209,370,161454,2,1,P|296:328|265:246,1,200,12|0,3:0|3:0,0:0:0:0:
142,252,161969,1,0,3:0:0:0:
253,154,162140,6,1,P|226:149|204:142,3,50,8|8|8|8,3:0|2:3|2:3|2:3,0:0:0:0:
92,78,162483,2,1,P|116:73|140:66,3,50,8|8|8|8,3:0|2:3|2:3|2:3,0:0:0:0:
238,6,162826,2,1,P|233:30|226:54,3,50,8|8|8|8,3:0|2:3|2:3|2:3,0:0:0:0:
327,100,163169,2,1,P|320:75|315:51,3,50,8|8|8|8,3:0|3:0|3:0|3:0,0:0:0:0:
397,0,163512,6,1,P|433:6|440:160,1,200,4|10,3:0|3:0,0:0:0:0:
361,182,164026,1,0,3:0:0:0:
455,258,164197,2,1,P|483:248|521:241,3,50,2|0|0|0,3:1|3:0|3:0|3:0,0:0:0:0:
389,310,164540,2,1,P|365:301|341:295,3,50,10|0|0|0,3:0|3:0|3:0|3:0,0:0:0:0:
268,250,164883,5,2,3:1:0:0:
228,255,164969,1,0,3:0:0:0:
188,260,165054,1,0,3:0:0:0:
148,266,165140,1,0,3:0:0:0:
108,272,165226,2,1,P|96:303|87:336,3,50,10|0|0|0,3:0|3:0|3:0|3:0,0:0:0:0:
14,259,165569,1,2,3:1:0:0:
18,234,165654,1,0,3:0:0:0:
22,209,165740,1,0,3:0:0:0:
26,184,165826,1,0,3:0:0:0:
30,159,165912,2,1,P|55:153|90:147,1,50,10|0,3:0|3:0,0:0:0:0:
154,77,166083,2,1,P|129:71|105:66,1,50,2|2,3:1|3:2,0:0:0:0:
212,144,166254,6,1,P|199:172|188:210,7,50,10|0|0|0|0|0|0|0,3:0|3:0|3:0|3:0|3:0|3:0|3:0|3:0,0:0:0:0:
270,83,166940,2,1,P|261:59|250:36,3,50,12|0|0|0,3:0|3:0|3:0|3:0,0:0:0:0:
325,145,167283,2,1,P|312:173|301:211,3,50,10|0|0|0,3:0|3:0|3:0|3:0,0:0:0:0:
365,67,167626,5,12,3:0:0:0:
365,67,167712,1,0,3:0:0:0:
365,67,167797,2,1,P|392:58|434:52,1,50,0|0,3:0|3:0,0:0:0:0:
512,125,167969,1,10,3:2:0:0:
512,125,168054,1,0,3:0:0:0:
512,125,168140,2,1,P|485:116|443:110,1,50,0|0,3:0|3:0,0:0:0:0:
388,198,168312,2,1,P|415:189|457:183,3,50,2|0|0|0,3:1|3:0|3:0|3:0,0:0:0:0:
505,241,168654,1,10,3:2:0:0:
501,265,168740,1,2,3:1:0:0:
497,289,168826,1,2,3:2:0:0:
493,313,168912,1,2,3:1:0:0:
489,336,168997,6,1,P|449:301|385:305,1,100,12|0,3:1|3:0,0:0:0:0:
328,256,169340,2,1,P|276:269|244:324,1,100,0|0,3:0|3:0,0:0:0:0:
154,384,169683,2,1,P|107:367|58:354,1,100,12|0,3:0|3:0,0:0:0:0:
0,281,170026,2,1,P|46:263|95:250,1,100,0|0,3:0|3:0,0:0:0:0:
227,264,170369,5,10,3:0:0:0:
243,167,170540,1,0,3:0:0:0:
233,143,170626,1,0,3:0:0:0:
215,125,170712,1,8,3:0:0:0:
191,116,170797,1,0,3:0:0:0:
165,117,170883,1,0,3:0:0:0:
142,127,170969,1,0,3:0:0:0:
126,146,171054,2,1,P|159:153|195:171,3,50,12|0|0|0,3:0|3:0|3:0|3:0,0:0:0:0:
66,86,171397,2,1,P|33:93|-3:111,3,50,8|0|0|0,3:0|3:0|3:0|3:0,0:0:0:0:
155,17,171740,5,4,3:0:0:0:
155,17,171826,1,0,3:0:0:0:
155,17,171912,2,1,P|185:22|220:32,1,50,0|0,3:0|3:0,0:0:0:0:
277,0,172083,2,1,P|289:27|300:62,3,50,10|0|0|0,3:0|3:0|3:0|3:0,0:0:0:0:
350,127,172426,1,2,3:2:0:0:
350,127,172512,1,0,3:0:0:0:
350,127,172597,2,1,P|380:122|415:112,1,50,0|0,3:0|3:0,0:0:0:0:
472,144,172769,2,1,P|484:116|495:81,3,50,10|0|0|0,3:0|3:0|3:0|3:0,0:0:0:0:
381,233,173112,6,1,P|349:221|309:210,3,50,2|0|0|0,3:2|3:0|3:0|3:0,0:0:0:0:
453,279,173454,2,1,P|485:267|525:256,3,50,10|0|0|0,3:0|3:0|3:0|3:0,0:0:0:0:
373,379,173797,5,8,2:3:0:0:
373,379,173883,1,8,2:3:0:0:
373,379,173969,2,1,P|359:339|350:301,1,50,0|0,3:0|3:0,0:0:0:0:
245,253,174140,1,8,2:3:0:0:
245,253,174226,1,8,2:3:0:0:
245,253,174312,2,1,P|231:293|222:331,1,50,8|8,2:3|2:3,0:0:0:0:
144,383,174483,6,1,P|128:305|87:175,1,200,4|2,3:0|3:2,0:0:0:0:
167,109,174997,1,10,3:0:0:0:
167,109,175083,1,0,3:0:0:0:
167,109,175169,2,1,P|202:117|234:123,3,50,2|0|10|0,3:2|3:0|3:0|3:0,0:0:0:0:
115,14,175512,2,1,P|90:19|66:24,3,50,2|0|10|0,3:2|3:0|3:0|3:0,0:0:0:0:
226,27,175854,5,2,3:2:0:0:
250,32,175940,1,0,3:0:0:0:
274,37,176026,1,10,3:0:0:0:
298,42,176112,1,0,3:0:0:0:
322,47,176197,2,1,P|338:102|358:162,1,100,2|10,3:2|3:0,0:0:0:0:
336,173,176454,1,0,3:0:0:0:
336,173,176540,2,1,P|330:197|325:221,3,50,2|0|10|0,3:2|3:0|3:0|3:0,0:0:0:0:
410,251,176883,1,2,3:2:0:0:
410,251,176969,1,0,3:0:0:0:
410,251,177054,2,1,P|404:276|398:300,1,50,10|2,3:0|3:1,0:0:0:0:
288,345,177226,6,1,B|231:309|174:330|202:349|138:368|88:332,1,200,6|2,3:2|3:2,0:0:0:0:
57,233,177740,1,10,3:0:0:0:
57,233,177826,1,0,3:0:0:0:
57,233,177912,2,1,P|66:205|76:173,1,50,2|0,3:2|3:0,0:0:0:0:
15,117,178083,2,1,P|7:93|0:69,1,50,10|0,3:0|3:0,0:0:0:0:
64,10,178254,1,2,3:2:0:0:
88,7,178340,1,0,3:0:0:0:
113,7,178426,1,10,3:0:0:0:
137,11,178512,1,0,3:0:0:0:
159,20,178597,6,1,P|151:43|143:67,3,50,2|0|10|0,3:2|3:0|3:0|3:0,0:0:0:0:
227,87,178940,2,1,P|234:110|242:134,3,50,2|0|10|0,3:2|3:0|3:0|3:0,0:0:0:0:
330,19,179283,2,1,P|322:42|314:66,3,50,2|0|10|0,3:0|3:0|3:0|3:0,0:0:0:0:
395,100,179626,1,8,3:0:0:0:
400,144,179712,1,8,2:3:0:0:
404,188,179797,1,8,2:3:0:0:
409,232,179883,1,8,2:3:0:0:
414,276,179969,6,1,P|375:338|302:334,1,150,4|0,3:0|3:0,0:0:0:0:
278,298,180312,2,1,P|282:272|299:250,3,50,2|0|10|0,3:2|3:0|3:0|3:0,0:0:0:0:
179,356,180654,2,1,P|117:317|121:244,1,150,2|0,3:2|3:0,0:0:0:0:
157,220,180997,2,1,P|183:224|205:241,3,50,2|0|10|0,3:2|3:0|3:0|3:0,0:0:0:0:
88,164,181340,5,2,3:2:0:0:
88,164,181426,1,0,3:0:0:0:
88,164,181512,2,1,P|82:134|74:104,1,50,10|0,3:0|3:0,0:0:0:0:
179,74,181683,2,1,P|173:104|165:134,3,50,2|0|10|0,3:2|3:0|3:0|3:0,0:0:0:0:
254,158,182026,1,2,3:1:0:0:
266,160,182112,1,2,3:1:0:0:
278,162,182197,2,1,P|308:156|338:148,1,50,10|2,3:0|3:1,0:0:0:0:
363,36,182369,1,8,3:0:0:0:
389,14,182454,1,8,2:3:0:0:
424,15,182540,1,8,2:3:0:0:
455,31,182626,1,8,2:3:0:0:
466,64,182712,6,1,P|434:194|412:325,1,250,12|0,3:0|0:0,0:0:0:0:
338,239,183740,2,1,P|334:218|326:195,2,33.3333333333333,0|0|0,3:0|3:0|3:0,0:0:0:0:
279,312,184083,2,1,B|212:271|119:310|156:335|73:356|4:296|4:296|51:312|105:288,1,385,12|0,3:0|0:0,0:0:0:0:
160,215,185454,6,1,P|147:147|129:82,1,110,4|10,3:0|3:0,0:0:0:0:
44,44,185797,1,2,3:0:0:0:
66,19,185883,1,0,3:0:0:0:
95,3,185969,1,10,3:0:0:0:
127,2,186054,1,0,3:0:0:0:
155,18,186140,2,1,P|192:48|265:29,1,110,2|10,3:0|3:0,0:0:0:0:
346,0,186483,2,1,P|370:64|390:144,1,110,2|10,3:0|3:0,0:0:0:0:
424,237,186826,6,1,P|485:228|483:153,1,110,2|10,3:0|3:0,0:0:0:0:
334,166,187169,1,2,3:0:0:0:
305,198,187254,1,0,3:0:0:0:
303,242,187340,1,10,3:0:0:0:
326,279,187426,1,0,3:0:0:0:
340,320,187512,1,2,3:0:0:0:
323,360,187597,1,0,3:0:0:0:
286,384,187683,1,10,3:0:0:0:
242,376,187769,1,0,3:0:0:0:
220,338,187854,2,1,P|254:343|297:329,3,55,2|0|8|8,3:0|3:0|3:0|3:0,0:0:0:0:
152,242,188197,6,1,P|135:296|120:365,1,110,4|10,3:2|3:0,0:0:0:0:
27,294,188540,1,2,3:0:0:0:
67,168,188712,1,10,3:0:0:0:
3,62,188883,2,1,P|67:23|115:60,1,110,2|10,3:0|3:0,0:0:0:0:
170,144,189226,2,1,P|117:152|79:115,1,110,2|10,3:0|3:0,0:0:0:0:
204,37,189569,5,2,3:0:0:0:
243,17,189654,1,0,3:0:0:0:
286,22,189740,1,10,3:0:0:0:
320,49,189826,1,0,3:0:0:0:
342,86,189912,1,2,3:0:0:0:
382,101,189997,1,0,3:0:0:0:
425,93,190083,2,1,P|435:58|438:20,3,55,10|0|2|0,3:0|3:0|3:0|3:0,0:0:0:0:
510,155,190426,1,8,2:3:0:0:
510,155,190512,1,8,2:3:0:0:
510,155,190597,2,1,P|479:161|441:174,1,55,0|0,3:0|3:0,0:0:0:0:
367,230,190769,2,1,P|398:236|436:249,1,55,8|8,2:3|2:3,0:0:0:0:
507,299,190940,6,1,P|469:338|388:325,1,110,4|10,3:0|3:0,0:0:0:0:
280,253,191283,1,2,3:0:0:0:
321,381,191454,1,10,3:0:0:0:
209,300,191626,2,1,P|152:281|86:266,1,110,2|10,3:0|3:0,0:0:0:0:
0,204,191969,2,1,P|57:185|123:170,1,110,2|10,3:0|3:0,0:0:0:0:
184,95,192312,6,1,P|174:56|159:11,5,55,12|0|0|0|0|0,3:0|3:0|3:0|3:0|3:0|3:0,0:0:0:0:
272,0,192826,2,1,P|264:26|257:53,5,55,12|0|0|0|0|0,3:0|3:0|3:0|3:0|3:0|3:0,0:0:0:0:
350,112,193340,2,1,P|340:73|325:28,3,55,12|0|0|0,3:0|3:0|3:0|3:0,0:0:0:0:
420,5,193683,5,4,3:2:0:0:
460,22,193769,1,0,3:0:0:0:
484,57,193854,1,10,3:0:0:0:
485,101,193940,1,0,3:0:0:0:
458,136,194026,2,1,P|445:161|434:209,3,55,2|0|10|0,3:0|3:0|3:0|3:0,0:0:0:0:
502,270,194369,5,2,3:0:0:0:
488,311,194454,1,0,3:0:0:0:
449,332,194540,1,10,3:0:0:0:
404,331,194626,1,0,3:0:0:0:
370,301,194712,2,1,P|341:293|294:296,3,55,2|8|8|8,3:0|3:0|3:0|3:0,0:0:0:0:
259,372,195054,6,1,P|199:360|159:320,1,110,8|8,3:0|2:3,0:0:0:0:
161,302,195312,1,8,2:3:0:0:
161,302,195397,1,8,3:0:0:0:
223,201,195569,1,8,2:3:0:0:
69,161,195740,2,1,P|82:191|94:229,3,55,8|8|8|8,3:0|2:3|2:3|2:3,0:0:0:0:
108,86,196083,2,1,P|116:60|127:34,3,55,8|8|8|8,3:0|2:3|2:3|2:3,0:0:0:0:
205,2,196426,6,1,P|260:16|332:30,1,110,4|10,3:0|3:0,0:0:0:0:
424,131,196769,1,2,3:2:0:0:
423,163,196854,1,0,3:0:0:0:
403,189,196940,1,10,3:0:0:0:
374,205,197026,1,0,3:0:0:0:
340,205,197112,2,1,P|304:143|340:78,1,110,2|10,3:2|3:0,0:0:0:0:
479,57,197454,2,1,P|511:99|507:153,1,110,2|10,3:2|3:0,0:0:0:0:
457,310,197797,6,1,P|402:296|330:282,1,110,2|10,3:2|3:0,0:0:0:0:
246,345,198140,1,2,3:2:0:0:
206,365,198226,1,0,3:0:0:0:
163,354,198312,1,10,3:0:0:0:
138,317,198397,1,0,3:0:0:0:
145,273,198483,1,2,3:2:0:0:
127,232,198569,1,0,3:0:0:0:
86,216,198654,1,10,3:0:0:0:
45,233,198740,1,0,3:0:0:0:
40,276,198826,2,1,P|66:283|92:291,3,55,2|0|10|2,3:2|3:0|3:0|3:2,0:0:0:0:
209,215,199169,6,1,P|217:162|177:127,1,110,4|10,3:2|3:0,0:0:0:0:
31,139,199512,1,2,3:2:0:0:
90,31,199683,1,10,3:0:0:0:
242,40,199854,2,1,P|297:26|369:12,1,110,2|10,3:2|3:0,0:0:0:0:
410,148,200197,2,1,P|356:136|302:123,1,110,2|10,3:2|3:0,0:0:0:0:
492,60,200540,5,2,3:1:0:0:
496,103,200626,1,0,3:0:0:0:
501,145,200712,1,10,3:0:0:0:
506,188,200797,1,2,3:2:0:0:
512,232,200883,2,1,P|480:244|449:259,3,55,0|2|10|0,3:0|3:1|3:2|3:0,0:0:0:0:
423,352,201226,1,2,3:1:0:0:
396,371,201312,1,0,3:0:0:0:
362,371,201397,1,10,3:2:0:0:
330,362,201483,1,2,3:1:0:0:
315,332,201569,2,1,P|325:306|336:281,3,55,0|2|10|0,3:0|3:1|3:0|3:0,0:0:0:0:
385,196,201912,6,1,P|375:143|327:123,1,110,4|10,3:0|3:0,0:0:0:0:
178,180,202254,1,2,3:2:0:0:
289,210,202426,1,10,3:0:0:0:
199,75,202597,2,1,P|145:88|91:99,1,110,2|10,3:2|3:0,0:0:0:0:
0,236,202940,2,1,P|53:249|107:260,1,110,2|10,3:2|3:0,0:0:0:0:
197,354,203283,6,1,L|131:366,5,55,12|0|0|0|0|0,3:0|3:0|3:0|3:0|3:0|3:0,0:0:0:0:
291,275,203797,2,1,L|236:265,5,55,12|0|0|0|0|0,3:0|3:0|3:0|3:0|3:0|3:0,0:0:0:0:
398,339,204312,2,1,L|343:348,3,55,12|0|0|0,3:0|3:0|3:0|3:0,0:0:0:0:
429,247,204654,5,8,2:3:0:0:
447,194,204740,1,8,2:3:0:0:
419,145,204826,1,8,2:3:0:0:
366,128,204912,1,8,2:3:0:0:
314,144,204997,1,8,3:0:0:0:
261,127,205083,1,8,2:3:0:0:
235,77,205169,1,8,2:3:0:0:
245,23,205254,1,8,2:3:0:0:
295,0,205340,2,1,P|321:8|350:12,3,55,8|8|8|8,3:0|2:3|2:3|2:3,0:0:0:0:
419,59,205683,2,1,P|446:56|473:48,3,55,8|8|8|8,3:0|2:3|2:3|2:3,0:0:0:0:
512,135,206026,5,2,3:0:0:0:
504,178,206112,1,8,2:3:0:0:
472,208,206197,1,8,2:3:0:0:
428,212,206283,1,8,2:3:0:0:
386,197,206369,1,8,2:3:0:0:
363,159,206454,1,8,2:3:0:0:
325,136,206540,1,0,3:0:0:0:
280,136,206626,1,0,3:0:0:0:
250,168,206712,2,1,P|259:193|265:220,3,55,8|8|0|0,2:3|2:3|3:0|3:0,0:0:0:0:
336,264,207054,2,1,P|330:290|320:316,3,55,8|8|0|0,2:3|2:3|3:0|3:0,0:0:0:0:
256,384,207397,5,12,3:0:0:0:
256,192,207483,12,1,209454,0:0:0:0:
227,97,209797,6,1,B|178:85|178:85|135:110,1,100,8|8,3:0|3:0,0:0:0:0:
64,233,210140,2,1,P|46:128|17:26,1,212,4|0,3:2|0:0,0:0:0:0:
