osu file format v14

[General]
AudioFilename: audio.ogg
AudioLeadIn: 0
PreviewTime: 62026
Countdown: 0
SampleSet: None
StackLeniency: 0.7
Mode: 0
LetterboxInBreaks: 0
WidescreenStoryboard: 1

[Editor]
Bookmarks: 7169,18140,29112,40083,51054,72997,83969,94940,105912,116883,127854,138826,152540,163512,174483,185454,196426
DistanceSpacing: 0.5
BeatDivisor: 4
GridSize: 32
TimelineZoom: 3.400004

[Metadata]
Title:Dawn of the Dragonstar
TitleUnicode:Dawn of the Dragonstar
Artist:Twilight Force
ArtistUnicode:Twilight Force
Creator:nebuwua
Version:Extra Collab
Source:
Tags:makidonalds dcs meiikyuu werhakon gloryhammer roupus symphonic melodic power metal powermetal adventure epic fantasy english nuclear blast records born borne Christer Björn Mikael Lundkvist Johan Philip Michael Lindh Eldhrimnir Daniel Beckman Gustaf Hansfeldt Aerendir Anders Joakim Johansson Alessandro Conti Ylva Eriksson Lynd Blackwald De'Azsh Allyon
BeatmapID:4241682
BeatmapSetID:1837608

[Difficulty]
HPDrainRate:4.8
CircleSize:4
OverallDifficulty:8.5
ApproachRate:9
SliderMultiplier:2
SliderTickRate:1

[Events]
//Background and Video events
0,0,"phuoc-quan-dragon-rise-test-small.jpg",0,0
//Break Periods
//Storyboard Layer 0 (Background)
//Storyboard Layer 1 (Fail)
//Storyboard Layer 2 (Pass)
//Storyboard Layer 3 (Foreground)
//Storyboard Layer 4 (Overlay)
//Storyboard Sound Samples

[TimingPoints]
312,342.857142857143,4,3,1,60,1,0
6997,-100,4,3,1,5,0,0
7169,-100,4,3,1,60,0,0
9912,-100,4,3,2,60,0,0
10254,-100,4,3,1,60,0,0
15397,-100,4,3,9,60,0,0
16769,-100,4,3,3,60,0,0
17112,-111.111111111111,4,3,3,60,0,0
17454,-125,4,3,4,60,0,0
17539,-125,4,3,5,60,0,0
17625,-125,4,3,6,60,0,0
17797,-125,4,3,1,60,0,0
17969,-100,4,3,1,60,0,0
18140,-90.9090909090909,4,3,1,60,0,0
18482,-90.9090909090909,4,3,2,60,0,0
19340,-90.9090909090909,4,3,1,60,0,0
19425,-90.9090909090909,4,3,2,60,0,0
20712,-90.9090909090909,4,3,1,60,0,0
20883,-90.9090909090909,4,3,7,60,0,0
21226,-90.9090909090909,4,3,5,60,0,0
21569,-90.9090909090909,4,3,1,60,0,0
21912,-90.9090909090909,4,3,8,60,0,0
22083,-90.9090909090909,4,3,7,60,0,0
22940,-90.9090909090909,4,3,1,60,0,0
23283,-90.9090909090909,4,3,4,60,0,0
23369,-90.9090909090909,4,3,8,60,0,0
23454,-90.9090909090909,4,3,1,60,0,0
23626,-90.9090909090909,4,3,2,60,0,0
24312,-90.9090909090909,4,3,1,60,0,0
24483,-90.9090909090909,4,3,2,60,0,0
24911,-90.9090909090909,4,3,1,60,0,0
25339,-90.9090909090909,4,3,2,60,0,0
25683,-90.9090909090909,4,3,1,60,0,0
25854,-90.9090909090909,4,3,2,60,0,0
27054,-90.9090909090909,4,3,7,60,0,0
27740,-90.9090909090909,4,3,1,60,0,0
28940,-90.9090909090909,4,3,4,60,0,0
29112,-100,4,3,1,60,0,0
33054,-100,4,3,4,60,0,0
33139,-100,4,3,8,60,0,0
33226,-100,4,3,7,60,0,0
33740,-100,4,3,9,60,0,0
34597,-100,4,3,1,60,0,0
39054,-100,4,3,3,60,0,0
39397,-100,4,3,4,60,0,0
39482,-100,4,3,6,60,0,0
39826,-100,4,3,1,60,0,0
42826,-100,4,3,9,60,0,0
43512,-100,4,3,7,60,0,0
44025,-100,4,3,4,60,0,0
44111,-100,4,3,6,60,0,0
44197,-100,4,3,7,60,0,0
44712,-100,4,3,1,60,0,0
45054,-100,4,3,4,60,0,0
45226,-100,4,3,6,60,0,0
45397,-100,4,3,8,60,0,0
45569,-100,4,3,9,60,0,0
46083,-100,4,3,1,60,0,0
48312,-100,4,3,9,60,0,0
49939,-100,4,3,1,60,0,0
50112,-100,4,3,3,60,0,0
50369,-100,4,3,2,60,0,0
50883,-100,4,3,3,60,0,0
50969,-100,4,3,4,60,0,0
51396,-100,4,3,1,60,0,0
53797,-100,4,3,7,60,0,0
54483,-100,4,3,9,60,0,0
55254,-100,4,3,1,60,0,0
55340,-100,4,3,2,60,0,0
56540,-100,4,3,1,60,0,0
56711,-100,4,3,2,60,0,0
58854,-100,4,3,1,60,0,0
58940,-100,4,3,2,60,0,0
59025,-100,4,3,1,60,0,0
59112,-100,4,3,2,60,0,0
59197,-100,4,3,1,60,0,0
59283,-100,4,3,2,60,0,0
59797,-100,4,3,7,60,0,0
60312,-100,4,3,9,60,0,0
60740,-100,4,3,3,60,0,0
60997,-100,4,3,4,60,0,0
61340,-100,4,3,3,60,0,0
61512,-100,4,3,4,60,0,0
61683,-100,4,3,6,60,0,0
61854,-100,4,3,1,60,0,0
62026,-100,4,3,1,60,0,1
68883,-100,4,3,2,60,0,1
69397,-100,4,3,7,60,0,1
69912,-100,4,3,2,60,0,1
70254,-100,4,3,1,60,0,1
71369,-100,4,3,3,60,0,1
71969,-100,4,3,100,60,0,1
71974,-100,4,3,4,60,0,1
72140,-100,4,3,1,60,0,1
72312,-100,4,3,3,60,0,1
72483,-100,4,3,4,60,0,1
72654,-100,4,3,1,60,0,1
73168,-100,4,3,2,60,0,1
75740,-100,4,3,1,60,0,1
75911,-100,4,3,2,60,0,1
77112,-100,4,3,1,60,0,1
77283,-100,4,3,2,60,0,1
77540,-100,4,3,1,60,0,1
77626,-100,4,3,2,60,0,1
77797,-100,4,3,1,60,0,1
77969,-100,4,3,2,60,0,1
78054,-100,4,3,1,60,0,1
78311,-100,4,3,2,60,0,1
78483,-100,4,3,1,60,0,1
78654,-100,4,3,2,60,0,1
79854,-100,4,3,7,60,0,1
80883,-100,4,3,2,60,0,1
81226,-100,4,3,4,60,0,1
81912,-100,4,3,6,60,0,1
82254,-100,4,3,8,60,0,1
82597,-250.000000000001,4,3,4,60,0,1
83283,-250.000000000001,4,2,100,60,0,1
83288,-250.000000000001,4,3,1,60,0,1
83969,-90.9090909090909,4,3,1,60,0,0
86712,-90.9090909090909,4,3,2,60,0,0
87054,-90.9090909090909,4,3,1,60,0,0
92197,-90.9090909090909,4,3,9,60,0,0
92883,-90.9090909090909,4,3,7,60,0,0
93569,-90.9090909090909,4,3,3,60,0,0
94254,-90.9090909090909,4,3,4,60,0,0
94425,-90.9090909090909,4,3,6,60,0,0
94597,-90.9090909090909,4,3,1,60,0,0
94940,-100,4,3,1,60,0,0
98883,-100,4,3,4,60,0,0
98969,-100,4,3,8,60,0,0
99054,-100,4,3,7,60,0,0
99397,-100,4,3,9,60,0,0
99740,-100,4,3,1,60,0,0
99826,-100,4,3,4,60,0,0
99997,-100,4,3,6,60,0,0
100083,-100,4,3,2,60,0,0
100596,-100,4,3,1,60,0,0
103169,-100,4,3,7,60,0,0
103512,-100,4,3,2,60,0,0
103854,-100,4,3,7,60,0,0
104197,-100,4,3,1,60,0,0
105226,-100,4,3,3,60,0,0
105569,-100,4,3,4,60,0,0
105912,-100,4,3,1,60,0,0
108654,-100,4,3,9,60,0,0
109340,-100,4,3,7,60,0,0
110026,-100,4,3,3,60,0,0
110540,-100,4,3,2,60,0,0
110712,-100,4,3,4,60,0,0
111054,-100,4,3,2,60,0,0
111226,-100,4,3,6,60,0,0
111397,-100,4,3,9,60,0,0
111911,-100,4,3,1,60,0,0
114140,-100,4,3,9,60,0,0
115854,-100,4,3,1,60,0,0
116197,-100,4,3,2,60,0,0
116540,-100,4,3,1,60,0,0
116883,-100,4,3,2,60,0,0
117225,-100,4,3,1,60,0,0
119626,-100,4,3,7,60,0,0
120312,-100,4,3,9,60,0,0
121082,-100,4,3,1,60,0,0
121169,-100,4,3,2,60,0,0
122369,-100,4,3,1,60,0,0
122540,-100,4,3,2,60,0,0
124683,-100,4,3,1,60,0,0
124769,-100,4,3,2,60,0,0
124854,-100,4,3,1,60,0,0
124940,-100,4,3,2,60,0,0
125025,-100,4,3,1,60,0,0
125112,-100,4,3,2,60,0,0
125626,-100,4,3,7,60,0,0
126140,-100,4,3,9,60,0,0
126569,-100,4,3,3,60,0,0
126826,-100,4,3,4,60,0,0
127169,-100,4,3,3,60,0,0
127340,-100,4,3,4,60,0,0
127512,-100,4,3,6,60,0,0
127683,-100,4,3,1,60,0,0
127854,-100,4,3,1,60,0,1
134712,-100,4,3,2,60,0,1
135226,-100,4,3,7,60,0,1
135740,-100,4,3,2,60,0,1
136083,-100,4,3,1,60,0,1
137197,-100,4,3,3,60,0,1
137797,-100,4,3,100,60,0,1
137802,-100,4,3,4,60,0,1
137968,-100,4,3,1,60,0,1
138140,-100,4,3,3,60,0,1
138312,-100,4,3,4,60,0,1
138483,-100,4,3,1,60,0,1
138997,-100,4,3,2,60,0,1
141569,-100,4,3,1,60,0,1
141740,-100,4,3,2,60,0,1
142940,-100,4,3,1,60,0,1
143112,-100,4,3,2,60,0,1
143369,-100,4,3,1,60,0,1
143454,-100,4,3,2,60,0,1
143626,-100,4,3,1,60,0,1
143797,-100,4,3,2,60,0,1
143883,-100,4,3,1,60,0,1
144140,-100,4,3,2,60,0,1
144312,-100,4,3,1,60,0,1
144483,-100,4,3,2,60,0,1
145683,-100,4,3,7,60,0,1
146712,-100,4,3,2,60,0,1
147054,-100,4,3,4,60,0,1
147740,-100,4,3,6,60,0,1
148083,-100,4,3,8,60,0,1
148426,-250,4,3,4,60,0,1
149112,-250,4,2,100,60,0,1
149117,-250,4,3,1,60,0,1
149797,-250,4,3,1,60,0,0
149969,-166.666666666667,4,3,1,60,0,0
150311,-166.666666666667,4,3,3,60,0,0
150654,-166.666666666667,4,3,9,60,0,0
150826,-166.666666666667,4,3,2,60,0,0
151169,-100,4,3,3,60,0,0
151512,-100,4,3,4,60,0,0
151854,-100,4,3,3,60,0,0
152026,-100,4,3,4,60,0,0
152197,-100,4,3,6,60,0,0
152368,-100,4,3,8,60,0,0
152540,-100,4,3,1,60,0,0
156312,-100,4,3,2,60,0,0
156654,-100,4,3,1,60,0,0
156997,-100,4,3,3,60,0,0
157168,-100,4,3,4,60,0,0
157340,-100,4,3,6,60,0,0
157683,-100,4,3,1,60,0,0
157854,-100,4,3,6,60,0,0
157939,-100,4,3,8,60,0,0
158026,-100,4,3,9,60,0,0
158712,-100,4,3,1,60,0,0
160769,-100,4,3,2,60,0,0
161454,-100,4,3,7,60,0,0
162483,-100,4,3,4,60,0,0
162654,-100,4,3,6,60,0,0
162826,-100,4,3,4,60,0,0
162997,-100,4,3,8,60,0,0
163169,-100,4,3,2,60,0,0
163512,-100,4,3,1,60,0,0
163854,-100,4,3,2,60,0,0
164197,-100,4,3,1,60,0,0
164540,-100,4,3,2,60,0,0
164883,-100,4,3,1,60,0,0
165226,-100,4,3,2,60,0,0
165569,-100,4,3,1,60,0,0
165912,-100,4,3,2,60,0,0
166083,-100,4,3,1,60,0,0
166169,-100,4,3,2,60,0,0
166254,-100,4,3,9,60,0,0
167969,-100,4,3,2,60,0,0
168312,-100,4,3,1,60,0,0
168654,-100,4,3,2,60,0,0
168740,-100,4,3,1,60,0,0
168826,-100,4,3,2,60,0,0
168912,-100,4,3,1,60,0,0
169683,-100,4,3,9,60,0,0
171740,-100,4,3,1,60,0,0
174312,-100,4,3,4,60,0,0
174483,-100,4,3,1,60,0,0
174654,-100,4,3,2,60,0,0
177139,-100,4,3,1,60,0,0
177226,-100,4,3,2,60,0,0
179969,-100,4,3,1,60,0,0
180140,-100,4,3,2,60,0,0
182026,-100,4,3,1,60,0,0
182197,-100,4,3,2,60,0,0
182283,-100,4,3,1,60,0,0
182369,-100,4,3,3,60,0,0
182540,-100,4,3,4,60,0,0
182626,-100,4,3,6,60,0,0
182712,-333.333333333333,4,3,2,60,0,0
183740,-100,4,3,2,60,0,0
185283,-100,4,3,2,5,0,0
185454,-100,4,3,1,60,0,1
192312,-100,4,3,2,60,0,1
192826,-100,4,3,7,60,0,1
193340,-100,4,3,2,60,0,1
193683,-100,4,3,1,60,0,1
194797,-100,4,3,3,60,0,1
195397,-100,4,3,4,60,0,1
195569,-100,4,3,1,60,0,1
195740,-100,4,3,3,60,0,1
195911,-100,4,3,4,60,0,1
196083,-100,4,3,1,60,0,1
196597,-100,4,3,2,60,0,1
199169,-100,4,3,1,60,0,1
199340,-100,4,3,2,60,0,1
200540,-100,4,3,1,60,0,1
200712,-100,4,3,2,60,0,1
200969,-100,4,3,1,60,0,1
201054,-100,4,3,2,60,0,1
201226,-100,4,3,1,60,0,1
201397,-100,4,3,2,60,0,1
201483,-100,4,3,1,60,0,1
201740,-100,4,3,2,60,0,1
201912,-100,4,3,1,60,0,1
202083,-100,4,3,2,60,0,1
203283,-100,4,3,7,60,0,1
204312,-100,4,3,2,60,0,1
204654,-100,4,3,4,60,0,1
204740,-100,4,3,1,60,0,1
204997,-100,4,3,3,60,0,1
205254,-100,4,3,4,60,0,1
205683,-100,4,3,6,60,0,1
206026,-100,4,3,1,60,0,1
206369,-100,4,3,4,60,0,1
206712,-100,4,3,6,60,0,1
207054,-100,4,3,8,60,0,1
207397,-100,4,3,2,60,0,1
209797,-100,4,3,8,60,0,0
210140,-166.666666666666,4,3,2,60,0,0

[Colours]
Combo1 : 127,140,81
Combo2 : 229,128,242
Combo3 : 4,217,57
Combo4 : 84,172,191

[HitObjects]
256,192,654,12,1,6997,2:0:0:0:
358,116,7169,6,1,P|321:83|258:90,1,100,4|0,3:0|3:0,2:0:0:0:
229,146,7426,1,0,3:0:0:0:
229,146,7512,2,1,P|192:179|129:172,1,100,10|0,2:3|3:0,2:0:0:0:
118,158,7769,1,0,3:0:0:0:
118,158,7854,1,2,3:2:0:0:
4,253,8026,2,1,L|55:240,1,50,0|0,3:0|3:0,2:0:0:0:
116,334,8197,2,1,L|67:321,1,50,10|0,2:3|2:0,2:0:0:0:
14,238,8369,2,1,L|65:225,1,50,0|0,3:0|3:0,2:0:0:0:
182,259,8540,6,1,P|216:300|210:351,1,100,2|0,3:2|3:0,2:0:0:0:
286,384,8797,1,0,3:0:0:0:
286,384,8883,2,1,B|303:287|303:287|306:284|306:284|324:168,1,200,10|2,2:3|3:2,2:0:0:0:
274,83,9397,1,0,3:0:0:0:
274,83,9483,1,0,3:0:0:0:
274,83,9569,2,1,P|319:54|366:64,1,100,10|0,2:3|3:0,2:0:0:0:
381,90,9826,1,0,3:0:0:0:
381,90,9912,5,4,3:0:0:0:
486,211,10083,1,0,3:0:0:0:
486,211,10169,1,0,3:0:0:0:
486,211,10254,2,1,P|439:193|386:183,1,100,10|0,2:3|3:0,2:0:0:0:
319,302,10597,2,1,P|366:284|419:274,1,100,2|0,3:0|3:0,2:0:0:0:
307,194,10940,2,1,P|260:176|207:166,1,100,10|0,2:3|3:0,2:0:0:0:
183,186,11197,1,0,3:0:0:0:
183,186,11283,6,1,B|159:138|159:138|176:95,1,100,4|0,3:2|3:0,2:0:0:0:
97,0,11626,2,1,B|114:43|114:43|90:91,1,100,10|0,2:3|3:0,2:0:0:0:
59,106,11883,1,0,3:0:0:0:
59,106,11969,1,12,3:1:0:0:
5,284,12312,1,8,2:3:0:0:
21,330,12397,1,8,2:3:0:0:
62,358,12483,1,8,2:3:0:0:
112,355,12569,1,8,2:3:0:0:
144,317,12654,6,1,P|183:298|238:311,1,100,4|0,3:0|3:0,2:0:0:0:
428,372,12997,2,1,L|441:321,1,50,10|0,2:3|2:0,2:0:0:0:
341,263,13169,2,1,L|353:311,1,50,0|0,3:0|3:0,2:0:0:0:
421,359,13340,2,1,L|452:241,1,100,2|0,3:2|3:0,2:0:0:0:
397,209,13597,1,0,3:0:0:0:
397,209,13683,2,1,L|366:91,1,100,10|0,2:3|3:0,2:0:0:0:
280,23,14026,6,1,B|339:-13|387:24|374:41|425:68|479:39,1,200,2|10,3:0|2:3,2:0:0:0:
282,128,14540,1,0,3:0:0:0:
282,128,14626,1,0,3:0:0:0:
282,128,14712,2,1,P|233:127|198:90,1,100,2|0,3:2|3:0,2:0:0:0:
101,37,14969,1,0,3:0:0:0:
101,37,15054,2,1,P|124:78|110:128,1,100,10|0,2:3|3:0,2:0:0:0:
139,292,15397,5,12,3:0:0:0:
143,267,15483,1,0,3:0:0:0:
148,242,15569,1,0,3:0:0:0:
157,219,15654,1,0,3:0:0:0:
170,198,15740,2,1,P|197:190|226:185,3,50,0|0|0|0,3:0|3:0|3:0|3:0,2:0:0:0:
279,267,16083,5,10,3:0:0:0:
320,295,16169,1,0,3:0:0:0:
369,292,16254,1,0,3:0:0:0:
404,256,16340,1,0,3:0:0:0:
408,206,16426,1,0,3:0:0:0:
381,163,16512,1,0,3:0:0:0:
332,153,16597,2,1,L|317:222,1,50,8|8,3:0|3:0,2:0:0:0:
399,268,16769,6,1,L|468:253,3,50,8|8|0|0,3:0|3:0|3:0|3:0,2:0:0:0:
328,320,17112,2,1,L|259:305,3,45.0000000000001,6|0|8|8,3:0|3:0|3:0|2:3,2:0:0:0:
239,245,17454,2,1,L|170:260,3,40,8|8|8|8,3:0|2:3|2:3|2:3,2:0:0:0:
109,319,17797,1,8,2:3:0:0:
109,319,17883,1,8,2:3:0:0:
109,319,17969,2,1,L|120:259,1,50,0|0,3:0|3:0,2:0:0:0:
54,158,18140,6,1,P|121:177|164:53,1,220,4|10,3:0|2:0,2:0:0:0:
21,20,18654,1,0,3:0:0:0:
21,20,18740,1,0,3:0:0:0:
21,20,18826,2,1,P|45:46|82:79,1,55,2|0,3:2|2:0,2:0:0:0:
170,61,18997,2,1,P|194:35|231:2,1,55,0|0,3:0|3:0,2:0:0:0:
274,135,19169,2,1,P|239:127|192:111,1,55,10|0,2:0|2:0,2:0:0:0:
287,8,19340,2,1,P|297:41|307:90,1,55,2|0,3:1|3:0,2:0:0:0:
360,171,19512,6,1,P|381:110|416:41,1,110,2|0,3:2|3:0,2:0:0:0:
406,59,19769,1,0,3:0:0:0:
412,50,19854,1,10,2:0:0:0:
499,192,20026,1,0,3:0:0:0:
499,192,20112,1,0,3:0:0:0:
499,192,20197,2,1,P|426:196|268:239,1,220,2|10,3:2|2:0,2:0:0:0:
194,322,20712,1,2,3:1:0:0:
64,198,20883,5,12,3:0:0:0:
69,219,20969,1,0,3:0:0:0:
73,240,21054,1,0,3:0:0:0:
78,261,21140,1,0,3:0:0:0:
82,284,21226,2,1,P|91:317|99:347,1,55,8|0,3:0|3:0,2:0:0:0:
191,384,21397,2,1,P|200:351|208:321,1,55,0|0,3:0|3:0,2:0:0:0:
282,234,21569,5,10,3:0:0:0:
320,213,21654,1,0,3:0:0:0:
363,218,21740,1,0,3:0:0:0:
394,248,21826,1,0,3:0:0:0:
396,292,21912,2,1,P|388:321|377:352,3,55,8|0|8|8,3:0|3:0|3:0|3:0,2:0:0:0:
472,185,22254,5,12,3:0:0:0:
462,136,22340,1,0,0:0:0:0:
417,114,22426,1,0,0:0:0:0:
367,121,22512,1,0,0:0:0:0:
337,160,22597,2,1,P|327:185|316:234,3,55,0|0|0|0,0:0|0:0|0:0|0:0,2:0:0:0:
190,263,22940,5,12,0:0:0:0:
157,284,23026,1,0,0:0:0:0:
118,285,23112,1,0,0:0:0:0:
83,268,23197,1,0,0:0:0:0:
67,232,23283,1,8,0:0:0:0:
74,194,23369,1,8,0:0:0:0:
102,168,23454,2,1,P|136:154|172:151,1,55,8|8,0:0|0:0,2:0:0:0:
279,261,23626,6,1,P|312:150|351:49,1,220,6|10,3:0|2:3,2:0:0:0:
178,33,24140,1,2,3:2:0:0:
178,33,24226,1,0,3:0:0:0:
178,33,24312,2,1,P|205:96|254:110,1,110,2|2,3:1|3:2,2:0:0:0:
378,38,24654,2,1,P|368:66|354:107,1,55,10|0,2:3|2:0,2:0:0:0:
303,179,24826,2,1,P|313:207|327:248,1,55,2|2,3:2|3:1,2:0:0:0:
425,356,24997,6,1,P|343:340|203:320,1,220,4|10,3:2|2:3,2:0:0:0:
95,363,25512,1,2,3:2:0:0:
95,363,25597,1,0,3:0:0:0:
95,363,25683,1,2,3:1:0:0:
13,255,25854,1,2,3:2:0:0:
13,255,25940,1,0,3:0:0:0:
13,255,26026,2,1,P|80:265|120:226,1,110,10|2,2:3|3:2,2:0:0:0:
139,109,26369,5,12,3:0:0:0:
171,80,26454,1,0,3:0:0:0:
214,74,26540,1,0,3:0:0:0:
252,95,26626,1,0,3:0:0:0:
265,137,26712,2,1,P|268:172|267:205,3,55,0|0|0|0,3:0|3:0|3:0|3:0,2:0:0:0:
340,299,27054,5,12,3:0:0:0:
356,320,27140,1,0,3:0:0:0:
380,333,27226,1,0,3:0:0:0:
406,339,27312,1,0,3:0:0:0:
432,332,27397,1,0,3:0:0:0:
452,313,27483,1,0,3:0:0:0:
456,285,27569,2,1,P|457:255|450:213,1,55,0|0,3:0|3:0,2:0:0:0:
500,100,27740,2,1,P|466:117|381:134,1,110,10|0,3:0|3:0,2:0:0:0:
237,45,28083,5,8,2:3:0:0:
248,87,28169,1,8,2:3:0:0:
258,129,28254,1,8,2:3:0:0:
268,171,28340,1,8,2:3:0:0:
281,213,28426,2,1,P|290:245|299:284,1,55,0|0,3:0|3:0,2:0:0:0:
199,364,28597,1,8,2:3:0:0:
199,364,28683,1,8,2:3:0:0:
199,364,28769,2,1,P|208:332|217:293,3,55,0|0|8|8,3:0|3:0|2:3|2:3,2:0:0:0:
170,217,29112,6,1,P|113:200|73:220,1,100,4|0,3:0|3:0,2:0:0:0:
64,247,29369,1,0,3:0:0:0:
64,247,29454,1,10,2:3:0:0:
6,177,29626,1,0,3:0:0:0:
56,92,29797,2,1,P|100:77|160:65,1,100,2|0,3:2|2:0,2:0:0:0:
181,82,30054,1,0,3:0:0:0:
181,82,30140,1,10,2:3:0:0:
252,2,30312,6,1,P|346:29|335:125,1,200,0|0,3:0|2:0,2:0:0:0:
306,129,30740,1,0,3:0:0:0:
306,129,30826,1,10,2:3:0:0:
391,176,30997,1,0,3:0:0:0:
476,138,31169,1,2,3:0:0:0:
415,284,31512,2,1,L|356:298,1,50,10|0,2:3|2:0,2:0:0:0:
324,363,31683,2,1,L|265:349,1,50,0|0,3:0|3:0,2:0:0:0:
224,282,31854,6,1,B|169:293|169:293|166:295|166:295|117:305,1,100,4|0,3:0|2:0,2:0:0:0:
49,360,32112,1,0,3:0:0:0:
49,360,32197,2,1,B|104:371|104:371|107:373|107:373|156:383,1,100,10|0,2:3|3:0,2:0:0:0:
146,199,32540,2,1,P|91:182|23:244,1,150,2|0,3:2|3:0,2:0:0:0:
31,268,32883,1,10,2:3:0:0:
209,297,33054,2,1,L|221:231,1,50,8|8,3:0|2:3,2:0:0:0:
291,192,33226,5,4,3:0:0:0:
308,174,33312,1,0,3:0:0:0:
316,150,33397,1,0,3:0:0:0:
316,124,33483,1,0,3:0:0:0:
305,101,33569,1,0,3:0:0:0:
286,84,33654,1,0,3:0:0:0:
261,79,33740,2,1,P|243:109|236:143,5,50,12|0|0|0|0|0,3:0|3:0|3:0|3:0|3:0|3:0,2:0:0:0:
170,173,34254,1,12,3:0:0:0:
170,173,34340,1,0,3:0:0:0:
170,173,34426,2,1,P|161:149|147:128,1,50,0|0,3:0|3:0,2:0:0:0:
97,9,34597,6,1,P|186:27|297:62,1,200,4|10,3:0|2:3,2:0:0:0:
373,144,35112,1,0,3:0:0:0:
463,78,35283,2,1,L|475:130,1,50,2|0,3:2|2:0,2:0:0:0:
367,65,35454,2,1,L|379:13,1,50,0|0,2:0|3:0,2:0:0:0:
451,72,35626,2,1,L|463:124,1,50,10|0,2:3|2:0,2:0:0:0:
412,223,35797,6,1,P|462:207|526:196,1,100,0|2,3:0|3:2,2:0:0:0:
457,324,36140,2,1,P|409:308|360:298,1,100,0|10,2:0|2:3,2:0:0:0:
274,234,36483,2,1,B|211:231|189:276|205:281|172:339|100:314,1,200,0|0,3:0|2:0,2:0:0:0:
84,299,36912,1,0,3:0:0:0:
84,299,36997,1,10,2:3:0:0:
141,218,37169,2,1,L|154:160,1,50,0|0,3:0|3:0,2:0:0:0:
91,112,37340,5,10,3:0:0:0:
83,72,37426,1,0,3:0:0:0:
99,35,37512,1,0,3:0:0:0:
132,14,37597,1,0,3:0:0:0:
172,14,37683,1,10,3:0:0:0:
205,36,37769,1,0,3:0:0:0:
212,75,37854,2,1,P|189:80|162:89,1,50,0|0,3:0|3:0,2:0:0:0:
280,18,38026,2,1,P|303:23|330:32,3,50,10|0|0|0,3:0|3:0|3:0|3:0,2:0:0:0:
221,84,38369,2,1,P|198:89|171:98,1,50,10|0,3:0|3:0,2:0:0:0:
294,149,38540,1,0,3:0:0:0:
294,149,38626,1,0,3:0:0:0:
294,149,38712,5,8,2:3:0:0:
324,188,38797,1,8,2:3:0:0:
317,237,38883,1,0,3:0:0:0:
279,270,38969,1,0,3:0:0:0:
230,280,39054,2,1,L|216:222,3,50,8|8|0|0,2:3|2:3|3:0|3:0,2:0:0:0:
339,317,39397,2,1,L|325:375,3,50,8|8|0|0,2:3|2:3|3:0|3:0,2:0:0:0:
221,296,39740,1,0,3:0:0:0:
221,296,39826,1,8,2:3:0:0:
221,296,39912,2,1,L|207:238,1,50,8|8,2:3|2:3,2:0:0:0:
128,157,40083,6,1,P|189:148|215:80,1,100,4|0,3:0|3:0,2:0:0:0:
210,110,40340,1,0,3:0:0:0:
210,99,40426,1,10,2:3:0:0:
130,16,40597,2,1,P|135:46|137:81,1,50,0|0,3:0|3:0,2:0:0:0:
45,208,40769,2,1,P|139:200|274:198,1,200,2|10,3:0|2:3,2:0:0:0:
364,263,41283,2,1,P|369:235|378:201,1,50,0|0,3:0|3:0,2:0:0:0:
304,105,41454,6,1,P|309:133|318:167,1,50,2|0,3:2|2:0,2:0:0:0:
377,268,41626,2,1,P|382:240|391:206,1,50,0|0,3:0|3:0,2:0:0:0:
329,28,41797,2,1,P|270:29|220:87,1,100,10|0,2:3|3:0,2:0:0:0:
236,61,42054,1,0,3:0:0:0:
235,70,42140,1,2,3:0:0:0:
189,157,42312,1,0,3:0:0:0:
82,47,42483,2,1,P|97:115|116:211,1,150,10|0,2:3|3:0,2:0:0:0:
88,282,42826,5,14,3:0:0:0:
114,318,42912,1,0,3:0:0:0:
158,320,42997,1,0,3:0:0:0:
195,296,43083,1,0,3:0:0:0:
238,283,43169,1,2,3:0:0:0:
280,294,43254,1,0,3:0:0:0:
306,330,43340,2,1,P|315:360|321:386,1,50,0|0,3:0|3:0,2:0:0:0:
414,250,43512,5,12,3:0:0:0:
414,250,43597,1,0,3:0:0:0:
414,250,43683,2,1,P|444:246|468:243,1,50,0|0,3:0|3:0,2:0:0:0:
343,179,43854,2,1,P|313:175|289:172,3,50,8|0|8|8,3:0|3:0|3:0|3:0,2:0:0:0:
403,99,44197,5,12,2:3:0:0:
415,55,44283,1,8,2:3:0:0:
392,15,44369,1,0,3:0:0:0:
348,4,44454,1,0,3:0:0:0:
306,20,44540,1,0,3:0:0:0:
286,60,44626,1,0,2:0:0:0:
299,103,44712,2,1,P|337:101|355:97,1,50,10|0,3:0|2:0,2:0:0:0:
234,6,44883,2,1,P|204:2|180:-1,3,50,8|8|8|8,2:3|2:3|2:3|2:3,2:0:0:0:
145,80,45226,1,8,2:3:0:0:
145,80,45312,1,8,2:3:0:0:
145,80,45397,2,1,P|113:85|87:89,1,50,8|8,2:3|2:3,2:0:0:0:
4,30,45569,6,1,P|21:125|39:236,1,200,6|10,3:0|3:0,2:0:0:0:
37,237,45997,1,0,3:0:0:0:
37,247,46083,1,4,3:2:0:0:
105,344,46254,2,1,P|158:362|206:328,1,100,2|0,3:0|3:0,2:0:0:0:
198,333,46512,1,0,3:0:0:0:
200,323,46597,1,10,3:0:0:0:
280,239,46769,2,1,P|277:269|275:295,1,50,0|0,3:0|3:0,2:0:0:0:
341,368,46940,5,2,3:0:0:0:
341,368,47026,1,0,3:0:0:0:
341,368,47112,2,1,P|348:268|357:162,1,200,0|0,3:0|3:0,2:0:0:0:
417,77,47626,1,2,3:2:0:0:
417,77,47712,1,0,3:0:0:0:
417,77,47797,2,1,P|379:75|354:68,1,50,0|0,3:0|3:0,2:0:0:0:
268,8,47969,1,10,3:0:0:0:
268,8,48054,1,0,3:0:0:0:
268,8,48140,2,1,P|306:6|331:-1,1,50,0|0,3:0|3:0,2:0:0:0:
241,103,48312,5,6,3:0:0:0:
212,137,48397,1,0,3:0:0:0:
167,142,48483,1,0,3:0:0:0:
126,122,48569,1,0,3:0:0:0:
117,78,48654,2,1,P|118:46|122:17,1,50,10|0,3:0|3:0,2:0:0:0:
9,0,48826,2,1,P|10:32|14:61,1,50,0|0,3:0|3:0,2:0:0:0:
108,85,48997,2,1,P|109:53|113:24,1,50,2|0,3:0|3:0,2:0:0:0:
13,181,49169,1,0,3:0:0:0:
13,181,49254,1,0,3:0:0:0:
13,181,49340,2,1,P|41:171|83:165,1,50,10|0,3:0|3:0,2:0:0:0:
142,221,49512,2,1,P|170:231|212:237,1,50,0|0,3:0|3:0,2:0:0:0:
309,184,49683,5,2,3:0:0:0:
309,184,49769,1,0,3:0:0:0:
309,184,49854,2,1,P|302:212|296:250,1,50,8|8,3:0|2:3,2:0:0:0:
354,342,50026,1,8,2:3:0:0:
362,297,50112,1,8,3:0:0:0:
374,254,50197,1,8,2:3:0:0:
383,209,50283,1,8,2:3:0:0:
390,164,50369,2,1,P|397:134|405:102,3,50,12|0|0|8,3:0|3:0|3:0|3:0,2:0:0:0:
339,24,50712,5,8,2:3:0:0:
310,64,50797,1,8,2:3:0:0:
260,72,50883,1,8,2:3:0:0:
211,59,50969,1,8,2:3:0:0:
187,15,51054,6,1,P|129:-3|59:104,1,200,4|2,3:0|2:0,2:0:0:0:
75,122,51483,1,0,3:0:0:0:
75,122,51569,1,10,2:3:0:0:
178,211,51740,2,1,B|194:164|194:164|163:117,1,100,2|10,3:2|2:3,2:0:0:0:
90,231,52083,1,2,2:0:0:0:
90,231,52169,1,0,3:0:0:0:
90,231,52254,1,10,2:3:0:0:
3,339,52426,6,1,B|40:370|40:370|191:337,1,200,2|2,3:2|2:0,2:0:0:0:
208,312,52854,1,0,3:0:0:0:
208,312,52940,1,10,2:3:0:0:
335,230,53112,2,1,P|375:266|365:315,1,100,2|10,3:2|2:3,2:0:0:0:
241,233,53454,1,2,3:2:0:0:
241,233,53540,1,0,3:0:0:0:
241,233,53626,1,10,2:3:0:0:
162,113,53797,5,12,3:0:0:0:
187,81,53883,1,0,3:0:0:0:
225,70,53969,1,0,3:0:0:0:
264,75,54054,1,0,3:0:0:0:
291,104,54140,1,0,3:0:0:0:
324,125,54226,1,0,3:0:0:0:
364,128,54312,1,0,3:0:0:0:
400,111,54397,1,0,3:0:0:0:
418,75,54483,2,1,L|401:17,3,50,12|0|0|0,3:0|3:0|3:0|3:0,2:0:0:0:
481,129,54826,2,1,L|466:176,3,50,10|0|0|0,3:0|3:0|3:0|3:0,2:0:0:0:
390,240,55169,6,1,P|362:227|334:221,1,50,10|0,3:0|2:0,2:0:0:0:
466,298,55340,2,1,P|494:285|522:279,1,50,10|0,2:3|2:0,2:0:0:0:
381,250,55512,2,1,P|353:237|258:223,1,100,2|10,2:0|2:3,2:0:0:0:
205,327,55854,1,2,3:2:0:0:
205,327,55940,1,0,3:0:0:0:
205,327,56026,2,1,L|192:265,1,50,8|8,2:3|2:3,2:0:0:0:
125,225,56197,1,0,3:0:0:0:
125,225,56283,1,0,3:0:0:0:
125,225,56369,2,1,L|112:287,1,50,8|8,2:3|2:3,2:0:0:0:
42,341,56540,6,1,P|28:289|12:244,1,100,4|10,3:2|2:0,2:0:0:0:
85,143,56883,1,2,2:0:0:0:
85,143,56969,1,0,3:0:0:0:
85,143,57054,1,10,2:0:0:0:
0,70,57226,2,1,P|38:35|89:38,1,100,2|10,3:2|2:0,2:0:0:0:
181,136,57569,1,2,2:0:0:0:
181,136,57654,1,0,3:0:0:0:
181,136,57740,1,10,2:0:0:0:
267,75,57912,6,1,P|314:86|365:110,1,100,2|10,3:2|2:0,2:0:0:0:
390,223,58254,1,2,2:0:0:0:
390,223,58340,1,0,3:0:0:0:
390,223,58426,1,10,2:0:0:0:
468,139,58597,2,1,P|505:175|498:226,1,100,2|10,3:2|2:0,2:0:0:0:
474,240,58854,1,2,2:1:0:0:
474,240,58940,2,1,L|462:294,1,50,2|2,3:2|3:1,2:0:0:0:
392,353,59112,2,1,L|381:304,1,50,10|2,2:0|2:1,2:0:0:0:
296,218,59283,5,12,3:0:0:0:
250,197,59369,1,0,3:0:0:0:
200,203,59454,1,0,3:0:0:0:
162,235,59540,1,0,3:0:0:0:
153,284,59626,1,0,3:0:0:0:
170,330,59712,1,0,3:0:0:0:
214,351,59797,2,1,L|230:298,5,50,12|0|0|0|0|0,3:0|3:0|3:0|3:0|3:0|3:0,2:0:0:0:
316,268,60312,1,10,3:0:0:0:
316,268,60397,1,0,3:0:0:0:
316,268,60483,2,1,L|299:199,1,50,0|0,3:0|3:0,2:0:0:0:
221,172,60654,5,12,3:0:0:0:
178,146,60740,1,8,2:3:0:0:
160,99,60826,1,8,2:3:0:0:
174,50,60912,1,8,2:3:0:0:
216,25,60997,2,1,L|273:37,3,50,8|8|8|8,3:0|2:3|2:3|2:3,2:0:0:0:
328,104,61340,5,8,3:0:0:0:
352,100,61426,1,8,2:3:0:0:
376,95,61512,1,8,2:3:0:0:
400,90,61597,1,8,2:3:0:0:
424,86,61683,2,1,L|477:75,3,50,8|8|8|8,3:0|2:3|2:3|2:3,2:0:0:0:
469,195,62026,5,4,3:0:0:0:
469,195,62112,1,0,3:0:0:0:
469,195,62197,1,10,3:0:0:0:
469,195,62283,1,0,3:0:0:0:
469,195,62369,2,1,P|428:190|405:189,1,50,2|0,3:0|3:0,2:0:0:0:
346,245,62540,2,1,P|305:250|282:251,1,50,10|0,3:0|3:0,2:0:0:0:
176,199,62712,5,2,3:0:0:0:
130,218,62797,1,0,3:0:0:0:
112,265,62883,1,10,3:0:0:0:
123,313,62969,1,0,3:0:0:0:
166,336,63054,2,1,P|201:333|231:324,3,50,2|0|10|0,3:0|3:0|3:0|3:0,2:0:0:0:
92,258,63397,1,2,3:0:0:0:
92,258,63483,1,0,3:0:0:0:
92,258,63569,2,1,P|57:255|27:246,1,50,10|0,3:0|3:0,2:0:0:0:
181,127,63740,5,2,3:0:0:0:
223,100,63826,1,0,3:0:0:0:
272,106,63912,1,10,3:0:0:0:
302,144,63997,1,0,3:0:0:0:
294,193,64083,1,2,3:0:0:0:
303,242,64169,1,0,3:0:0:0:
343,270,64254,1,10,3:0:0:0:
393,269,64340,1,0,3:0:0:0:
430,236,64426,1,2,3:0:0:0:
429,185,64512,1,0,3:0:0:0:
391,152,64597,2,1,P|354:138|336:136,1,50,8|8,3:0|3:0,2:0:0:0:
265,56,64769,6,1,P|269:83|272:120,3,50,4|0|10|0,3:2|3:0|3:0|3:0,2:0:0:0:
294,193,65112,2,1,P|267:189|230:186,1,50,2|0,3:0|3:0,2:0:0:0:
143,125,65283,2,1,P|167:122|192:118,1,50,10|0,3:0|3:0,2:0:0:0:
93,240,65454,1,2,3:0:0:0:
93,240,65540,1,0,3:0:0:0:
93,240,65626,2,1,P|90:213|85:168,1,50,10|0,3:0|3:0,2:0:0:0:
11,99,65797,2,1,P|9:121|6:148,3,50,2|0|10|0,3:0|3:0|3:0|3:0,2:0:0:0:
127,42,66140,5,2,3:0:0:0:
172,22,66226,1,0,3:0:0:0:
221,33,66312,1,10,3:0:0:0:
243,78,66397,1,0,3:0:0:0:
231,127,66483,1,2,3:0:0:0:
243,176,66569,1,0,3:0:0:0:
286,200,66654,1,10,3:0:0:0:
335,192,66740,1,0,3:0:0:0:
364,151,66826,1,2,3:0:0:0:
357,101,66912,1,0,3:0:0:0:
314,75,66997,2,1,P|289:76|264:78,1,50,8|8,2:3|2:3,2:0:0:0:
122,28,67169,1,0,3:0:0:0:
122,28,67254,1,0,3:0:0:0:
122,28,67340,2,1,P|159:22|196:21,1,50,8|8,2:3|2:3,2:0:0:0:
90,115,67512,6,1,P|92:139|94:170,3,50,4|0|10|0,3:0|3:0|3:0|3:0,2:0:0:0:
67,270,67854,2,1,P|95:265|129:262,1,50,2|0,3:0|3:0,2:0:0:0:
188,218,68026,2,1,P|216:223|250:226,1,50,10|0,3:0|3:0,2:0:0:0:
318,308,68197,1,2,3:0:0:0:
318,308,68283,1,0,3:0:0:0:
318,308,68369,2,1,P|323:280|326:246,1,50,10|0,2:3|3:0,2:0:0:0:
401,195,68540,2,1,P|406:223|409:257,3,50,2|0|10|0,3:0|3:0|2:3|3:0,2:0:0:0:
330,136,68883,5,12,3:0:0:0:
367,102,68969,1,0,3:0:0:0:
416,98,69054,1,0,3:0:0:0:
462,117,69140,1,0,3:0:0:0:
486,160,69226,1,0,3:0:0:0:
482,210,69312,1,0,3:0:0:0:
446,245,69397,2,1,P|422:207|415:182,1,50,12|0,3:0|3:0,2:0:0:0:
312,136,69569,5,0,3:0:0:0:
263,126,69654,1,0,3:0:0:0:
216,143,69740,1,0,3:0:0:0:
195,188,69826,1,0,3:0:0:0:
204,237,69912,2,1,P|242:246|265:247,3,50,12|0|0|0,3:0|3:0|3:0|3:0,2:0:0:0:
137,318,70254,5,4,3:2:0:0:
94,343,70340,1,0,3:0:0:0:
44,343,70426,1,10,3:0:0:0:
10,306,70512,1,0,3:0:0:0:
4,256,70597,2,1,P|37:246|64:247,3,50,2|0|10|0,3:0|3:0|3:0|3:0,2:0:0:0:
227,335,70940,5,2,3:0:0:0:
268,365,71026,1,0,3:0:0:0:
319,365,71112,1,10,3:0:0:0:
359,335,71197,1,0,3:0:0:0:
368,286,71283,1,2,3:0:0:0:
351,239,71369,1,8,3:0:0:0:
309,214,71454,2,1,P|279:247|260:274,1,50,8|8,3:0|3:0,2:0:0:0:
202,110,71626,6,1,B|246:143|246:143|255:261,2,150,8|8|8,3:0|2:3|2:3,0:0:0:0:
191,109,72226,1,8,2:3:0:0:
181,111,72312,1,8,3:0:0:0:
103,195,72483,2,1,P|93:127|79:67,1,100,8|8,2:3|3:0,2:0:0:0:
143,9,72826,1,8,2:3:0:0:
143,9,72912,1,8,2:3:0:0:
143,9,72997,6,1,L|87:22,3,50,4|0|10|0,3:0|3:0|3:0|3:0,2:0:0:0:
203,79,73340,1,2,3:2:0:0:
203,79,73426,1,0,3:0:0:0:
203,79,73512,2,1,L|259:92,1,50,10|0,3:0|3:0,2:0:0:0:
320,21,73683,1,2,3:2:0:0:
366,2,73769,1,0,3:0:0:0:
414,12,73854,1,10,3:0:0:0:
440,54,73940,1,0,3:0:0:0:
429,106,74026,2,1,L|360:123,3,50,2|0|10|0,3:2|3:0|3:0|3:0,2:0:0:0:
296,162,74369,6,1,P|284:190|276:220,3,50,2|0|10|0,3:2|3:0|3:0|3:0,2:0:0:0:
375,261,74712,1,2,3:2:0:0:
374,310,74797,1,0,3:0:0:0:
341,348,74883,1,10,3:0:0:0:
290,348,74969,1,0,3:0:0:0:
250,317,75054,1,2,3:2:0:0:
229,271,75140,1,0,3:0:0:0:
184,247,75226,1,10,3:0:0:0:
135,257,75312,1,0,3:0:0:0:
101,293,75397,1,2,3:2:0:0:
103,343,75483,1,0,3:0:0:0:
140,376,75569,1,10,3:0:0:0:
189,377,75654,1,2,3:2:0:0:
228,345,75740,6,1,L|218:288,3,50,4|0|10|0,3:2|3:0|3:0|3:0,2:0:0:0:
144,207,76083,2,1,L|135:256,1,50,2|0,3:2|3:0,2:0:0:0:
238,331,76254,2,1,L|229:281,1,50,10|0,3:0|3:0,2:0:0:0:
284,180,76426,1,2,3:2:0:0:
284,180,76512,1,0,3:0:0:0:
284,180,76597,2,1,L|345:190,1,50,10|0,3:0|3:0,2:0:0:0:
208,89,76769,2,1,L|158:97,3,50,2|0|10|0,3:2|3:0|3:0|3:0,2:0:0:0:
317,5,77112,5,2,3:1:0:0:
366,5,77197,1,0,3:0:0:0:
411,25,77283,1,10,3:0:0:0:
432,70,77369,1,2,3:2:0:0:
429,119,77454,1,0,3:0:0:0:
401,161,77540,1,2,3:1:0:0:
354,178,77626,1,10,3:2:0:0:
304,169,77712,1,0,3:0:0:0:
271,131,77797,1,2,3:1:0:0:
225,110,77883,1,0,3:0:0:0:
175,114,77969,1,10,3:2:0:0:
140,150,78054,1,2,3:1:0:0:
138,200,78140,2,1,P|151:220|161:243,3,50,0|2|10|0,3:0|3:1|3:0|3:0,2:0:0:0:
289,251,78483,5,4,3:0:0:0:
289,251,78569,1,0,3:0:0:0:
289,251,78654,1,10,3:0:0:0:
289,251,78740,1,0,3:0:0:0:
289,251,78826,2,1,P|275:278|268:305,1,50,2|0,3:2|3:0,2:0:0:0:
238,384,78997,2,1,P|221:358|201:338,1,50,10|0,3:0|3:0,2:0:0:0:
148,273,79169,2,1,P|178:271|205:264,3,50,2|0|10|0,3:2|3:0|3:0|3:0,2:0:0:0:
271,161,79512,2,1,P|301:162|328:169,3,50,2|0|10|2,3:2|3:0|3:0|3:2,2:0:0:0:
405,301,79854,5,12,3:0:0:0:
454,305,79940,1,0,3:0:0:0:
497,280,80026,1,0,3:0:0:0:
511,231,80112,1,0,3:0:0:0:
492,185,80197,1,0,3:0:0:0:
448,160,80283,1,0,3:0:0:0:
398,167,80369,2,1,P|385:188|378:212,5,50,12|0|0|0|0|0,3:0|3:0|3:0|3:0|3:0|3:0,2:0:0:0:
285,154,80883,2,1,P|277:130|265:108,3,50,12|0|0|0,3:0|3:0|3:0|3:0,2:0:0:0:
306,25,81226,5,8,3:0:0:0:
265,5,81312,1,8,2:3:0:0:
220,11,81397,1,8,2:3:0:0:
191,45,81483,1,8,2:3:0:0:
190,90,81569,1,8,3:0:0:0:
213,127,81654,1,8,2:3:0:0:
254,144,81740,1,8,2:3:0:0:
297,133,81826,1,8,2:3:0:0:
327,99,81912,1,8,3:0:0:0:
370,91,81997,1,8,2:3:0:0:
412,106,82083,1,8,2:3:0:0:
437,143,82169,1,8,2:3:0:0:
434,187,82254,1,8,3:0:0:0:
402,219,82340,1,8,2:3:0:0:
358,232,82426,1,8,2:3:0:0:
315,216,82512,1,8,2:3:0:0:
287,178,82597,6,1,B|211:152|164:219|176:227|124:284|32:239,1,279.999999999999,4|0,3:0|2:0,0:0:0:0:
284,330,83969,6,1,P|294:268|444:276,1,220,4|10,3:0|2:3,2:0:0:0:
386,363,84483,1,0,3:0:0:0:
386,363,84569,1,0,3:0:0:0:
386,363,84654,2,1,P|371:323|363:294,1,55,2|0,3:2|2:0,2:0:0:0:
377,192,84826,2,1,P|401:166|438:133,1,55,0|0,3:0|3:0,2:0:0:0:
481,266,84997,2,1,P|446:258|399:242,1,55,10|0,2:3|2:0,2:0:0:0:
494,139,85169,2,1,P|504:172|514:221,1,55,0|0,3:0|3:0,2:0:0:0:
355,106,85340,6,1,P|294:85|225:50,1,110,2|0,3:2|3:0,2:0:0:0:
243,60,85597,1,0,3:0:0:0:
234,54,85683,1,10,2:3:0:0:
113,176,85854,1,0,3:0:0:0:
113,176,85940,1,0,3:0:0:0:
113,176,86026,2,1,P|174:155|243:120,1,110,2|0,3:2|3:0,2:0:0:0:
82,59,86369,1,10,2:3:0:0:
22,180,86540,1,0,3:0:0:0:
22,180,86626,1,0,3:0:0:0:
22,180,86712,6,1,P|86:205|47:336,1,220,4|10,3:0|2:3,2:0:0:0:
186,240,87226,1,0,3:0:0:0:
186,240,87312,1,0,3:0:0:0:
186,240,87397,2,1,P|247:228|311:224,1,110,2|0,3:0|3:0,2:0:0:0:
418,155,87740,2,1,P|363:150|309:139,1,110,10|0,2:3|3:0,2:0:0:0:
286,123,87997,1,0,3:0:0:0:
268,101,88083,6,1,P|191:88|116:86,1,110,4|0,3:2|3:0,2:0:0:0:
148,90,88340,1,0,3:0:0:0:
138,94,88426,1,10,2:3:0:0:
29,24,88597,2,1,P|39:54|46:95,1,55,0|0,3:0|3:0,2:0:0:0:
1,200,88769,2,1,P|73:179|133:169,1,110,12|0,3:1|3:0,2:0:0:0:
229,274,89112,1,8,2:3:0:0:
238,231,89197,1,8,2:3:0:0:
247,187,89283,1,8,2:3:0:0:
257,144,89369,1,8,2:3:0:0:
268,101,89454,6,1,P|336:73|409:135,1,165,4|0,3:0|3:0,2:0:0:0:
405,155,89797,2,1,P|378:165|340:166,1,55,10|0,2:3|2:0,2:0:0:0:
250,237,89969,2,1,P|277:240|303:249,1,55,0|0,3:0|3:0,2:0:0:0:
394,316,90140,1,2,3:2:0:0:
452,229,90312,1,0,3:0:0:0:
452,229,90397,1,0,3:0:0:0:
452,229,90483,2,1,P|441:156|440:97,1,110,10|0,2:3|3:0,2:0:0:0:
351,28,90826,38,1,B|315:34|277:37|277:37|237:68|237:68|192:73|138:77,1,220,2|10,3:0|2:3,2:0:0:0:
34,11,91340,1,0,3:0:0:0:
34,11,91426,1,0,3:0:0:0:
34,11,91512,2,1,P|47:73|53:136,1,110,2|0,3:2|3:0,2:0:0:0:
45,146,91769,1,0,3:0:0:0:
35,171,91854,2,1,P|26:244|23:345,1,165,10|0,2:3|3:0,2:0:0:0:
40,359,92197,5,12,3:0:0:0:
77,382,92283,1,0,3:0:0:0:
121,379,92369,1,0,3:0:0:0:
153,350,92454,1,0,3:0:0:0:
163,307,92540,2,1,P|126:298|102:296,3,55,0|0|0|0,3:0|3:0|3:0|3:0,2:0:0:0:
210,224,92883,1,12,3:0:0:0:
248,201,92969,1,0,3:0:0:0:
291,204,93054,1,0,3:0:0:0:
326,230,93140,1,0,3:0:0:0:
332,273,93226,1,0,3:0:0:0:
315,313,93312,1,0,3:0:0:0:
275,332,93397,2,1,P|255:297|253:267,1,55,8|8,3:0|3:0,2:0:0:0:
334,208,93569,5,8,3:0:0:0:
334,208,93654,1,8,2:3:0:0:
334,208,93740,2,1,P|366:202|402:202,3,55,0|0|6|0,3:0|3:0|3:0|3:0,2:0:0:0:
487,139,94083,1,8,2:3:0:0:
487,139,94169,1,8,2:3:0:0:
487,139,94254,2,1,P|455:133|419:133,3,55,8|8|8|8,3:0|2:3|2:3|2:3,2:0:0:0:
372,46,94597,1,8,2:3:0:0:
372,46,94683,1,8,2:3:0:0:
372,46,94769,2,1,P|331:50|286:51,1,55,0|0,3:0|3:0,2:0:0:0:
227,0,94940,6,1,P|192:35|203:88,1,100,4|0,3:0|3:0,2:0:0:0:
229,94,95197,1,0,3:0:0:0:
229,94,95283,1,10,2:3:0:0:
164,163,95454,1,0,3:0:0:0:
70,87,95626,2,1,B|54:153|54:153|56:159|56:159|32:258,1,150,2|0,3:2|3:0,2:0:0:0:
56,263,95969,1,10,2:3:0:0:
137,365,96140,6,1,P|185:345|236:335,1,100,0|2,3:0|3:0,2:0:0:0:
350,264,96483,2,1,P|332:200|213:210,1,200,0|0,2:0|3:0,2:0:0:0:
325,384,96997,2,1,P|340:320|362:263,1,100,2|0,3:0|2:0,2:0:0:0:
376,270,97254,1,0,3:0:0:0:
376,270,97340,1,10,2:3:0:0:
482,226,97512,1,0,3:0:0:0:
482,226,97597,1,0,3:0:0:0:
482,226,97683,6,1,P|454:129|432:22,1,200,2|10,3:0|2:3,2:0:0:0:
344,90,98197,1,0,3:0:0:0:
287,14,98369,2,1,L|229:4,1,50,2|0,3:2|2:0,2:0:0:0:
175,105,98540,2,1,L|224:96,1,50,0|0,2:0|3:0,2:0:0:0:
273,24,98712,2,1,L|215:14,1,50,10|0,2:3|2:0,2:0:0:0:
109,41,98883,1,8,3:0:0:0:
109,41,98969,1,8,2:3:0:0:
109,41,99054,5,12,3:0:0:0:
60,55,99140,1,0,3:0:0:0:
43,102,99226,1,0,3:0:0:0:
52,151,99312,1,0,3:0:0:0:
92,180,99397,2,1,P|105:144|120:122,3,50,12|0|0|0,3:0|3:0|3:0|3:0,2:0:0:0:
216,172,99740,5,12,2:3:0:0:
220,196,99826,1,8,3:0:0:0:
225,220,99912,1,8,3:0:0:0:
229,244,99997,1,8,3:0:0:0:
232,268,100083,2,1,P|206:280|184:299,1,50,12|0,3:0|3:0,2:0:0:0:
152,367,100254,6,1,B|215:397|257:352|245:343|284:303|343:325,1,200,8|0,3:0|3:0,2:0:0:0:
360,348,100683,1,0,3:0:0:0:
360,348,100769,1,10,2:3:0:0:
451,312,100940,1,0,3:0:0:0:
366,239,101112,2,1,L|352:178,1,50,2|0,3:2|2:0,2:0:0:0:
452,144,101283,2,1,L|440:192,1,50,0|0,2:0|3:0,2:0:0:0:
352,231,101454,2,1,L|338:170,1,50,10|0,2:3|2:0,2:0:0:0:
333,90,101626,6,1,P|285:99|261:142,1,100,0|2,3:0|3:2,2:0:0:0:
182,248,101969,2,1,P|197:201|172:160,1,100,0|10,2:0|2:3,2:0:0:0:
27,84,102312,2,1,B|76:42|130:65|120:79|168:99|223:48,1,200,0|0,3:0|2:0,2:0:0:0:
226,25,102740,1,0,3:0:0:0:
226,25,102826,1,10,2:3:0:0:
82,143,102997,2,1,L|69:200,1,50,0|0,3:0|3:0,2:0:0:0:
4,263,103169,5,12,3:0:0:0:
2,312,103254,1,0,3:0:0:0:
34,350,103340,1,0,3:0:0:0:
84,350,103426,1,0,3:0:0:0:
121,316,103512,2,1,P|131:295|151:276,3,50,12|0|0|0,3:0|3:0|3:0|3:0,2:0:0:0:
239,383,103854,5,12,3:0:0:0:
263,379,103940,1,0,3:0:0:0:
287,372,104026,1,0,3:0:0:0:
311,368,104112,1,0,3:0:0:0:
335,362,104197,2,1,P|343:332|356:307,1,50,10|0,3:0|3:0,2:0:0:0:
266,291,104369,2,1,P|258:261|245:236,1,50,0|0,3:0|3:0,2:0:0:0:
264,143,104540,5,8,2:3:0:0:
264,143,104626,1,8,2:3:0:0:
264,143,104712,2,1,L|317:155,1,50,0|0,3:0|3:0,2:0:0:0:
366,237,104883,1,8,2:3:0:0:
366,237,104969,1,8,2:3:0:0:
366,237,105054,2,1,L|419:225,1,50,0|0,3:0|3:0,2:0:0:0:
460,158,105226,2,1,P|431:139|398:132,3,50,8|8|0|0,2:3|2:3|3:0|3:0,2:0:0:0:
402,58,105569,2,1,P|370:71|345:94,3,50,8|8|0|0,2:3|2:3|3:0|3:0,2:0:0:0:
265,0,105912,6,1,P|235:96|128:68,1,200,4|10,3:0|2:3,2:0:0:0:
71,0,106426,1,0,3:0:0:0:
71,0,106512,1,0,3:0:0:0:
71,0,106597,2,1,P|62:68|39:213,1,200,2|10,3:0|2:3,2:0:0:0:
16,322,107112,1,0,3:0:0:0:
135,379,107283,6,1,P|131:348|128:311,1,50,2|0,3:2|2:0,2:0:0:0:
212,233,107454,2,1,P|208:264|205:301,1,50,0|0,3:0|3:0,2:0:0:0:
262,365,107626,2,1,P|313:343|363:337,1,100,10|0,2:3|3:0,2:0:0:0:
366,339,107883,1,0,3:0:0:0:
375,342,107969,1,2,3:0:0:0:
493,372,108140,1,0,3:0:0:0:
490,239,108312,2,1,P|474:177|444:122,1,100,10|0,2:3|3:0,2:0:0:0:
368,104,108654,5,14,3:0:0:0:
378,147,108740,1,0,3:0:0:0:
362,189,108826,1,0,3:0:0:0:
322,210,108912,1,0,3:0:0:0:
278,199,108997,2,1,P|273:163|271:138,3,50,2|0|0|0,3:0|3:0|3:0|3:0,2:0:0:0:
197,76,109340,2,1,P|166:80|129:83,1,50,12|0,3:0|3:0,2:0:0:0:
37,149,109512,2,1,P|68:153|105:156,1,50,0|0,3:0|3:0,2:0:0:0:
180,237,109683,1,8,3:0:0:0:
180,237,109769,1,8,2:3:0:0:
180,237,109854,2,1,P|176:268|173:305,1,50,8|8,2:3|2:3,2:0:0:0:
277,358,110026,5,8,3:0:0:0:
277,358,110112,1,8,2:3:0:0:
277,358,110197,2,1,P|263:329|229:318,3,50,8|8|8|0,2:3|2:3|2:3|3:0,2:0:0:0:
281,246,110540,1,12,3:1:0:0:
281,246,110626,1,0,2:0:0:0:
281,246,110712,2,1,P|251:235|219:252,3,50,8|8|8|8,2:3|2:3|2:3|2:3,2:0:0:0:
375,176,111054,2,1,P|369:199|361:236,1,50,12|0,3:1|2:0,2:0:0:0:
467,112,111226,1,8,2:3:0:0:
467,112,111312,1,8,2:3:0:0:
467,112,111397,6,1,P|420:102|387:96,3,50,6|0|0|0,3:0|3:0|3:0|3:0,2:0:0:0:
351,46,111740,2,1,P|304:56|271:62,3,50,10|0|4|0,3:0|3:0|3:2|3:0,2:0:0:0:
240,129,112083,1,2,3:0:0:0:
201,152,112169,1,0,3:0:0:0:
156,151,112254,1,0,3:0:0:0:
117,126,112340,1,0,3:0:0:0:
104,82,112426,2,1,P|134:73|165:70,1,50,10|0,3:0|3:0,2:0:0:0:
23,8,112597,6,1,P|28:45|34:82,3,50,0|0|2|0,3:0|3:0|3:0|3:0,2:0:0:0:
6,158,112940,1,0,3:0:0:0:
6,158,113026,1,0,3:0:0:0:
6,158,113112,2,1,P|1:195|-5:232,3,50,10|0|0|0,3:0|3:0|3:0|3:0,2:0:0:0:
79,300,113454,1,2,3:2:0:0:
79,300,113540,1,0,3:0:0:0:
79,300,113626,2,1,P|47:295|8:294,1,50,0|0,3:0|3:0,2:0:0:0:
144,232,113797,2,1,P|176:227|215:226,3,50,10|0|0|0,3:0|3:0|3:0|3:0,2:0:0:0:
280,329,114140,5,6,3:0:0:0:
285,284,114226,1,0,3:0:0:0:
291,239,114312,1,0,3:0:0:0:
297,194,114397,1,0,3:0:0:0:
303,149,114483,2,1,P|306:114|308:95,3,50,10|0|0|0,3:0|3:0|3:0|3:0,2:0:0:0:
209,28,114826,1,2,3:0:0:0:
168,8,114912,1,0,3:0:0:0:
123,9,114997,1,0,3:0:0:0:
84,31,115083,1,0,3:0:0:0:
69,73,115169,2,1,P|63:106|63:142,3,50,10|0|0|0,3:0|3:0|3:0|3:0,2:0:0:0:
213,174,115512,6,1,B|162:143|109:183|127:200|62:238|0:188,2,200,4|4|4,3:0|3:2|3:0,2:0:0:0:
342,103,116540,1,4,3:2:0:0:
333,151,116626,1,8,2:3:0:0:
325,201,116712,1,8,2:3:0:0:
317,249,116797,1,8,2:3:0:0:
310,299,116883,6,1,B|401:334|401:334|493:287,1,200,4|2,3:0|2:0,2:0:0:0:
500,251,117312,1,0,3:0:0:0:
500,251,117397,1,10,2:3:0:0:
408,185,117569,2,1,P|394:130|370:79,1,100,2|10,3:2|2:3,2:0:0:0:
432,0,117912,1,2,2:0:0:0:
432,0,117997,1,0,3:0:0:0:
432,0,118083,1,10,2:3:0:0:
294,92,118254,6,1,P|209:62|94:36,1,200,2|2,3:2|2:0,2:0:0:0:
71,52,118683,1,0,3:0:0:0:
71,52,118769,1,10,2:3:0:0:
20,191,118940,2,1,P|84:198|112:159,1,100,2|10,3:2|2:3,2:0:0:0:
168,91,119283,1,2,3:2:0:0:
168,91,119369,1,0,3:0:0:0:
168,91,119454,1,10,2:3:0:0:
271,147,119626,5,12,3:0:0:0:
290,182,119712,1,0,3:0:0:0:
283,221,119797,1,0,3:0:0:0:
253,248,119883,1,0,3:0:0:0:
212,249,119969,1,0,3:0:0:0:
174,263,120054,1,0,3:0:0:0:
157,299,120140,1,0,3:0:0:0:
168,337,120226,1,0,3:0:0:0:
198,362,120312,2,1,P|225:346|247:343,3,50,12|0|0|0,3:0|3:0|3:0|3:0,2:0:0:0:
306,300,120654,2,1,P|334:313|349:329,3,50,10|0|0|0,3:0|3:0|3:0|3:0,2:0:0:0:
413,384,120997,6,1,L|425:324,1,50,10|0,3:0|2:0,2:0:0:0:
492,296,121169,2,1,L|480:236,1,50,10|0,2:3|2:0,2:0:0:0:
402,217,121340,2,1,L|424:102,1,100,2|10,2:0|2:3,2:0:0:0:
365,9,121683,1,2,3:2:0:0:
365,9,121769,1,0,3:0:0:0:
365,9,121854,2,1,P|351:36|345:65,1,50,8|8,2:3|2:3,2:0:0:0:
288,126,122026,1,0,3:0:0:0:
288,126,122112,1,0,3:0:0:0:
288,126,122197,2,1,P|281:101|269:80,1,50,8|8,2:3|2:3,2:0:0:0:
204,13,122369,6,1,B|154:23|154:23|151:26|151:26|106:34,1,100,4|10,3:2|2:0,2:0:0:0:
28,111,122712,1,2,2:0:0:0:
28,111,122797,1,0,3:0:0:0:
28,111,122883,1,10,2:0:0:0:
162,212,123054,2,1,P|198:171|189:130,1,100,2|10,3:2|2:0,2:0:0:0:
62,200,123397,1,2,2:0:0:0:
62,200,123483,1,0,3:0:0:0:
62,200,123569,1,10,2:0:0:0:
102,312,123740,6,1,P|153:322|199:337,1,100,2|10,3:2|2:0,2:0:0:0:
315,280,124083,1,2,2:0:0:0:
315,280,124169,1,0,3:0:0:0:
315,280,124254,1,10,2:0:0:0:
403,342,124426,2,1,B|413:285|413:285|415:282|415:282|423:240,1,100,2|10,3:2|2:0,2:0:0:0:
451,220,124683,1,2,2:1:0:0:
451,220,124769,2,1,P|441:188|419:166,1,50,2|2,3:2|3:1,2:0:0:0:
468,107,124940,2,1,P|435:97|405:103,1,50,10|2,2:0|2:1,2:0:0:0:
337,156,125112,5,12,3:0:0:0:
292,178,125197,1,0,3:0:0:0:
243,164,125283,1,0,3:0:0:0:
218,119,125369,1,0,3:0:0:0:
181,85,125454,1,0,3:0:0:0:
130,84,125540,1,0,3:0:0:0:
89,113,125626,2,1,L|105:168,5,50,12|0|0|0|0|0,3:0|3:0|3:0|3:0|3:0|3:0,2:0:0:0:
19,62,126140,1,10,3:0:0:0:
19,62,126226,1,0,3:0:0:0:
19,62,126312,2,1,L|5:110,1,50,0|0,3:0|3:0,2:0:0:0:
64,249,126483,5,12,3:0:0:0:
89,292,126569,1,8,2:3:0:0:
136,305,126654,1,8,2:3:0:0:
183,288,126740,1,8,2:3:0:0:
200,240,126826,2,1,L|146:226,3,50,8|8|8|8,3:0|2:3|2:3|2:3,2:0:0:0:
266,332,127169,5,8,3:0:0:0:
271,307,127254,1,8,2:3:0:0:
276,282,127340,1,8,2:3:0:0:
282,257,127426,1,8,2:3:0:0:
286,233,127512,2,1,L|299:172,3,50,8|8|8|8,3:0|2:3|2:3|2:3,2:0:0:0:
369,97,127854,5,4,3:0:0:0:
369,97,127940,1,0,3:0:0:0:
369,97,128026,1,10,3:0:0:0:
369,97,128112,1,0,3:0:0:0:
369,97,128197,2,1,P|374:138|375:161,1,50,2|0,3:0|3:0,2:0:0:0:
434,214,128369,2,1,P|429:255|428:278,1,50,10|0,3:0|3:0,2:0:0:0:
296,370,128540,5,2,3:0:0:0:
250,351,128626,1,0,3:0:0:0:
232,304,128712,1,10,3:0:0:0:
243,256,128797,1,0,3:0:0:0:
286,233,128883,2,1,P|321:236|351:245,3,50,2|0|10|0,3:0|3:0|3:0|3:0,2:0:0:0:
210,321,129226,2,1,P|175:318|145:309,3,50,2|0|10|0,3:0|3:0|3:0|3:0,2:0:0:0:
173,167,129569,5,2,3:0:0:0:
215,140,129654,1,0,3:0:0:0:
264,146,129740,1,10,3:0:0:0:
294,184,129826,1,0,3:0:0:0:
286,233,129912,1,2,3:0:0:0:
295,282,129997,1,0,3:0:0:0:
335,310,130083,1,10,3:0:0:0:
385,309,130169,1,0,3:0:0:0:
420,273,130254,1,2,3:0:0:0:
417,222,130340,1,0,3:0:0:0:
380,187,130426,2,1,P|344:173|312:169,1,50,8|8,2:3|3:0,2:0:0:0:
176,188,130597,6,1,P|180:215|183:252,3,50,4|0|10|0,3:2|3:0|3:0|3:0,2:0:0:0:
210,97,130940,2,1,P|183:93|146:90,1,50,2|0,3:0|3:0,2:0:0:0:
93,150,131112,2,1,P|68:153|43:157,1,50,10|0,3:0|3:0,2:0:0:0:
5,37,131283,1,2,3:0:0:0:
5,37,131369,1,0,3:0:0:0:
5,37,131454,2,1,P|2:64|-3:109,1,50,10|0,3:0|3:0,2:0:0:0:
96,167,131626,2,1,P|98:189|101:216,3,50,2|0|10|0,3:0|3:0|3:0|3:0,2:0:0:0:
269,235,131969,5,2,3:0:0:0:
299,275,132054,1,0,3:0:0:0:
299,325,132140,1,10,3:0:0:0:
274,367,132226,1,0,3:0:0:0:
226,384,132312,1,2,3:0:0:0:
177,370,132397,1,0,3:0:0:0:
152,327,132483,1,10,3:0:0:0:
152,276,132569,1,0,3:0:0:0:
125,233,132654,1,2,3:0:0:0:
76,221,132740,1,0,3:0:0:0:
35,250,132826,2,1,P|35:272|38:303,1,50,8|8,2:3|2:3,2:0:0:0:
148,376,132997,1,0,3:0:0:0:
148,376,133083,1,0,3:0:0:0:
148,376,133169,2,1,P|150:352|152:321,1,50,8|8,2:3|2:3,2:0:0:0:
219,231,133340,6,1,P|244:232|269:235,3,50,4|0|10|0,3:0|3:0|3:0|3:0,2:0:0:0:
376,163,133683,2,1,P|348:158|314:155,1,50,2|0,3:0|3:0,2:0:0:0:
241,82,133854,2,1,P|265:79|290:74,1,50,10|0,3:0|3:0,2:0:0:0:
172,163,134026,1,2,3:0:0:0:
172,163,134112,1,0,3:0:0:0:
172,163,134197,2,1,P|167:135|164:101,1,50,10|0,2:3|3:0,2:0:0:0:
84,41,134369,2,1,P|79:69|76:103,3,50,2|0|10|0,3:0|3:0|2:3|3:0,2:0:0:0:
24,195,134712,5,12,3:0:0:0:
55,235,134797,1,0,3:0:0:0:
103,243,134883,1,0,3:0:0:0:
149,225,134969,1,0,3:0:0:0:
172,180,135054,1,0,3:0:0:0:
160,131,135140,1,0,3:0:0:0:
122,97,135226,2,1,P|89:97|64:104,1,50,12|0,3:0|3:0,2:0:0:0:
118,256,135397,5,0,3:0:0:0:
161,280,135483,1,0,3:0:0:0:
211,276,135569,1,0,3:0:0:0:
251,247,135654,1,0,3:0:0:0:
271,201,135740,2,1,P|267:176|261:152,3,50,12|0|0|0,3:0|3:0|3:0|3:0,2:0:0:0:
348,330,136083,5,4,3:2:0:0:
391,355,136169,1,0,3:0:0:0:
441,355,136254,1,10,3:0:0:0:
475,318,136340,1,0,3:0:0:0:
481,268,136426,2,1,P|448:258|421:259,3,50,2|0|10|0,3:0|3:0|3:0|3:0,2:0:0:0:
383,177,136769,5,2,3:0:0:0:
353,136,136854,1,0,3:0:0:0:
353,85,136940,1,10,3:0:0:0:
383,45,137026,1,0,3:0:0:0:
432,36,137112,1,2,3:0:0:0:
479,53,137197,1,8,3:0:0:0:
504,95,137283,2,1,P|471:125|444:144,1,50,8|8,3:0|3:0,2:0:0:0:
353,85,137454,6,1,B|320:129|320:129|202:138,2,150,8|8|8,3:0|2:3|2:3,0:0:0:0:
355,75,138054,1,8,2:3:0:0:
355,65,138140,1,8,3:0:0:0:
201,16,138312,2,1,P|210:70|217:122,1,100,8|8,2:3|3:0,2:0:0:0:
161,233,138654,1,8,2:3:0:0:
161,233,138740,1,8,2:3:0:0:
161,233,138826,6,1,L|105:222,3,50,4|0|10|0,3:0|3:0|3:0|3:0,2:0:0:0:
230,287,139169,1,2,3:2:0:0:
230,287,139254,1,0,3:0:0:0:
230,287,139340,2,1,L|286:276,1,50,10|0,3:0|3:0,2:0:0:0:
365,302,139512,1,2,3:2:0:0:
410,282,139597,1,0,3:0:0:0:
423,233,139683,1,10,3:0:0:0:
398,189,139769,1,0,3:0:0:0:
349,180,139854,2,1,P|339:206|333:240,3,50,2|0|10|0,3:2|3:0|3:0|3:0,2:0:0:0:
270,130,140197,6,1,L|218:118,3,50,2|0|10|0,3:2|3:0|3:0|3:0,2:0:0:0:
179,34,140540,1,2,3:2:0:0:
128,31,140626,1,0,3:0:0:0:
91,65,140712,1,10,3:0:0:0:
95,114,140797,1,0,3:0:0:0:
128,151,140883,1,2,3:2:0:0:
135,200,140969,1,0,3:0:0:0:
110,242,141054,1,10,3:0:0:0:
60,248,141140,1,0,3:0:0:0:
14,227,141226,1,2,3:2:0:0:
2,178,141312,1,0,3:0:0:0:
24,134,141397,1,10,3:0:0:0:
73,125,141483,1,2,3:2:0:0:
119,143,141569,6,1,P|103:173|96:203,3,50,4|0|10|0,3:2|3:0|3:0|3:0,2:0:0:0:
192,202,141912,2,1,P|208:232|215:262,1,50,2|0,3:2|3:0,2:0:0:0:
275,312,142083,2,1,P|282:288|293:265,1,50,10|0,3:0|3:0,2:0:0:0:
389,196,142254,1,2,3:2:0:0:
389,196,142340,1,0,3:0:0:0:
389,196,142426,2,1,L|316:183,1,50,10|0,3:0|3:0,2:0:0:0:
259,109,142597,2,1,L|332:96,3,50,2|0|10|0,3:2|3:0|3:0|3:0,2:0:0:0:
408,55,142940,5,2,3:1:0:0:
457,64,143026,1,0,3:0:0:0:
489,102,143112,1,10,3:0:0:0:
490,151,143197,1,2,3:2:0:0:
462,192,143283,1,0,3:0:0:0:
412,202,143369,1,2,3:1:0:0:
366,182,143454,1,10,3:2:0:0:
316,188,143540,1,0,3:0:0:0:
286,228,143626,1,2,3:1:0:0:
287,278,143712,1,0,3:0:0:0:
318,315,143797,1,10,3:2:0:0:
367,325,143883,1,2,3:1:0:0:
410,300,143969,2,1,P|401:265|386:241,3,50,0|2|10|0,3:0|3:1|3:0|3:0,2:0:0:0:
318,349,144312,5,4,3:0:0:0:
318,349,144397,1,0,3:0:0:0:
318,349,144483,1,10,3:0:0:0:
318,349,144569,1,0,3:0:0:0:
318,349,144654,2,1,L|263:335,1,50,2|0,3:2|3:0,2:0:0:0:
235,267,144826,2,1,L|180:281,1,50,10|0,3:0|3:0,2:0:0:0:
123,330,144997,2,1,L|110:386,3,50,2|0|10|0,3:2|3:0|3:0|3:0,2:0:0:0:
68,270,145340,2,1,L|55:214,3,50,2|0|10|2,3:2|3:0|3:0|3:2,2:0:0:0:
149,162,145683,5,12,3:0:0:0:
181,123,145769,1,0,3:0:0:0:
182,73,145854,1,0,3:0:0:0:
153,31,145940,1,0,3:0:0:0:
103,21,146026,1,0,3:0:0:0:
55,35,146112,1,0,3:0:0:0:
26,75,146197,2,1,P|59:86|79:98,5,50,12|0|0|0|0|0,3:0|3:0|3:0|3:0|3:0|3:0,2:0:0:0:
144,175,146712,1,12,3:0:0:0:
144,175,146797,1,0,3:0:0:0:
144,175,146883,2,1,P|177:164|197:152,1,50,0|0,3:0|3:0,2:0:0:0:
272,42,147054,5,8,3:0:0:0:
303,10,147140,1,8,2:3:0:0:
348,7,147226,1,8,2:3:0:0:
386,31,147312,1,8,2:3:0:0:
392,75,147397,1,8,3:0:0:0:
370,114,147483,1,8,2:3:0:0:
326,125,147569,1,8,2:3:0:0:
288,149,147654,1,8,2:3:0:0:
278,193,147740,1,8,3:0:0:0:
297,233,147826,1,8,2:3:0:0:
338,249,147912,1,8,2:3:0:0:
381,237,147997,1,8,2:3:0:0:
404,198,148083,1,8,3:0:0:0:
395,153,148169,1,8,2:3:0:0:
358,127,148254,1,8,2:3:0:0:
312,129,148340,1,8,2:3:0:0:
280,161,148426,6,1,B|219:205|147:155|164:129|102:70|20:114,1,280,4|0,3:0|2:0,0:0:0:0:
70,188,149797,5,4,3:2:0:0:
137,267,149969,2,1,P|120:324|108:383,2,120,4|2|0,3:2|2:0|3:0,2:0:0:0:
171,174,150826,1,12,2:3:0:0:
93,53,150997,1,8,2:3:0:0:
93,53,151083,1,8,2:3:0:0:
93,53,151169,6,1,L|163:68,3,50,8|8|8|8,3:0|2:3|2:3|2:3,2:0:0:0:
218,114,151512,2,1,L|288:99,3,50,8|8|8|8,3:0|2:3|2:3|2:3,2:0:0:0:
301,34,151854,1,8,3:0:0:0:
321,19,151940,1,8,2:3:0:0:
345,14,152026,1,8,2:3:0:0:
369,19,152112,1,8,2:3:0:0:
387,35,152197,2,1,L|396:90,3,50,8|8|8|8,3:0|2:3|2:3|2:3,2:0:0:0:
454,156,152540,5,4,3:0:0:0:
445,195,152626,1,0,3:0:0:0:
412,218,152712,1,0,3:0:0:0:
372,216,152797,1,0,3:0:0:0:
338,193,152883,1,10,3:0:0:0:
333,153,152969,1,0,3:0:0:0:
348,116,153054,2,1,P|378:109|405:106,3,50,0|0|2|0,3:0|3:0|3:0|3:0,2:0:0:0:
261,186,153397,2,1,P|236:182|211:176,1,50,0|0,3:0|3:0,2:0:0:0:
108,250,153569,2,1,P|123:230|140:212,1,50,10|0,3:0|3:0,2:0:0:0:
128,85,153740,2,1,P|137:108|144:132,1,50,0|0,3:0|3:0,2:0:0:0:
210,264,153912,5,2,3:0:0:0:
244,283,153997,1,0,3:0:0:0:
284,284,154083,1,0,3:0:0:0:
319,265,154169,1,0,3:0:0:0:
348,232,154254,2,1,P|344:199|336:160,3,50,10|0|0|0,3:0|3:0|3:0|3:0,2:0:0:0:
428,117,154597,2,1,P|423:141|421:166,3,50,2|0|0|0,3:0|3:0|3:0|3:0,2:0:0:0:
341,60,154940,1,10,3:0:0:0:
341,60,155026,1,0,3:0:0:0:
341,60,155112,2,1,P|308:55|278:52,1,50,0|0,3:0|3:0,2:0:0:0:
186,0,155283,5,4,3:1:0:0:
186,0,155369,1,0,3:0:0:0:
186,0,155454,2,1,P|191:33|194:63,1,50,0|0,3:0|3:0,2:0:0:0:
144,132,155626,1,10,3:0:0:0:
144,132,155712,1,0,3:0:0:0:
144,132,155797,2,1,P|139:165|136:195,1,50,0|0,3:0|3:0,2:0:0:0:
181,297,155969,1,2,3:2:0:0:
210,323,156054,1,0,3:0:0:0:
248,332,156140,1,0,3:0:0:0:
286,321,156226,1,0,3:0:0:0:
309,288,156312,2,1,P|312:254|309:227,3,50,12|0|0|0,3:0|3:0|3:0|3:0,2:0:0:0:
388,155,156654,6,1,P|385:189|388:216,1,50,4|0,3:2|3:0,2:0:0:0:
319,100,156826,1,8,2:3:0:0:
319,100,156912,1,8,2:3:0:0:
319,100,156997,2,1,P|285:97|258:100,3,50,8|8|8|8,3:0|2:3|2:3|2:3,2:0:0:0:
386,44,157340,2,1,P|410:42|435:45,3,50,8|8|0|0,3:0|2:3|3:0|3:0,2:0:0:0:
495,122,157683,1,8,2:3:0:0:
495,122,157769,1,8,2:3:0:0:
495,122,157854,2,1,P|493:154|490:187,1,50,8|8,2:3|2:3,2:0:0:0:
380,254,158026,5,6,3:0:0:0:
390,292,158112,1,0,3:0:0:0:
420,317,158197,1,0,3:0:0:0:
459,324,158283,1,0,3:0:0:0:
494,304,158369,2,1,P|505:276|508:253,3,50,10|0|0|0,3:0|3:0|3:0|3:0,2:0:0:0:
371,237,158712,5,2,3:2:0:0:
346,232,158797,1,0,3:0:0:0:
320,231,158883,1,0,3:0:0:0:
295,234,158969,1,0,3:0:0:0:
271,242,159054,2,1,P|256:276|249:304,3,50,10|0|0|0,3:0|3:0|3:0|3:0,2:0:0:0:
165,361,159397,5,4,3:2:0:0:
117,344,159483,1,0,3:0:0:0:
97,297,159569,1,0,3:0:0:0:
108,248,159654,1,0,3:0:0:0:
148,218,159740,1,10,3:0:0:0:
174,175,159826,1,0,3:0:0:0:
168,125,159912,1,0,3:0:0:0:
130,92,159997,1,0,3:0:0:0:
80,98,160083,2,1,P|76:122|72:147,3,50,2|0|0|0,3:2|3:0|3:0|3:0,2:0:0:0:
194,56,160426,2,1,P|189:23|186:0,3,50,10|0|0|0,3:0|3:0|3:0|3:0,2:0:0:0:
288,144,160769,5,12,3:0:0:0:
305,179,160854,1,0,3:0:0:0:
341,194,160940,1,0,3:0:0:0:
380,185,161026,1,0,3:0:0:0:
404,152,161112,1,0,3:0:0:0:
408,112,161197,1,0,3:0:0:0:
387,77,161283,1,0,3:0:0:0:
348,64,161369,1,0,3:0:0:0:
310,76,161454,2,1,P|314:109|318:130,3,50,12|0|0|0,3:0|3:0|3:0|3:0,2:0:0:0:
229,199,161797,2,1,P|225:232|221:253,3,50,0|0|0|0,3:0|3:0|3:0|3:0,2:0:0:0:
288,339,162140,5,8,3:0:0:0:
324,357,162226,1,8,2:3:0:0:
365,360,162312,1,8,2:3:0:0:
402,344,162397,1,8,2:3:0:0:
422,308,162483,2,1,P|427:273|429:240,3,50,8|8|8|8,3:0|2:3|2:3|2:3,2:0:0:0:
329,143,162826,1,8,3:0:0:0:
329,143,162912,1,8,2:3:0:0:
329,143,162997,2,1,P|334:178|336:211,1,50,8|8,2:3|2:3,2:0:0:0:
224,69,163169,2,1,P|219:104|217:137,3,50,8|8|8|8,3:0|3:0|3:0|3:0,2:0:0:0:
19,119,163512,5,4,3:0:0:0:
23,143,163597,1,0,3:0:0:0:
40,161,163683,1,0,3:0:0:0:
63,168,163769,1,0,3:0:0:0:
87,163,163854,2,1,P|114:140|124:114,3,50,10|0|0|0,3:0|3:0|3:0|3:0,2:0:0:0:
75,243,164197,2,1,P|50:244|27:236,3,50,2|0|0|0,3:1|3:0|3:0|3:0,2:0:0:0:
148,213,164540,2,1,P|161:234|165:258,3,50,10|0|0|0,3:0|3:0|3:0|3:0,2:0:0:0:
143,341,164883,5,2,3:1:0:0:
176,378,164969,1,0,3:0:0:0:
225,384,165054,1,0,3:0:0:0:
269,360,165140,1,0,3:0:0:0:
279,310,165226,2,1,L|226:299,3,50,10|0|0|0,3:0|3:0|3:0|3:0,2:0:0:0:
344,199,165569,5,2,3:1:0:0:
382,190,165654,1,0,3:0:0:0:
417,207,165740,1,0,3:0:0:0:
432,243,165826,1,0,3:0:0:0:
420,281,165912,2,1,L|360:299,1,50,10|0,3:0|3:0,2:0:0:0:
260,226,166083,1,2,3:1:0:0:
260,226,166169,1,2,3:2:0:0:
260,226,166254,6,1,P|267:189|276:163,7,50,10|0|0|0|0|0|0|0,3:0|3:0|3:0|3:0|3:0|3:0|3:0|3:0,2:0:0:0:
209,123,166940,1,12,3:0:0:0:
209,123,167026,1,0,3:0:0:0:
209,123,167112,2,1,P|178:127|151:139,1,50,0|0,3:0|3:0,2:0:0:0:
264,69,167283,1,10,3:0:0:0:
264,69,167369,1,0,3:0:0:0:
264,69,167454,2,1,P|295:73|322:85,1,50,0|0,3:0|3:0,2:0:0:0:
364,159,167626,5,12,3:0:0:0:
410,178,167712,1,0,3:0:0:0:
458,167,167797,1,0,3:0:0:0:
477,120,167883,1,0,3:0:0:0:
459,73,167969,2,1,L|400:87,3,50,10|0|0|0,3:2|3:0|3:0|3:0,2:0:0:0:
348,169,168312,2,1,L|299:157,3,50,2|0|0|0,3:1|3:0|3:0|3:0,2:0:0:0:
195,190,168654,1,10,3:2:0:0:
198,229,168740,1,2,3:1:0:0:
203,268,168826,1,2,3:2:0:0:
211,307,168912,1,2,3:1:0:0:
216,346,168997,6,1,P|249:353|276:366,3,50,12|0|0|0,3:1|3:0|3:0|3:0,2:0:0:0:
344,275,169340,2,1,P|311:282|284:295,3,50,0|0|0|0,3:0|3:0|3:0|3:0,2:0:0:0:
396,372,169683,2,1,L|405:314,1,50,12|0,3:0|3:0,2:0:0:0:
410,364,169854,2,1,L|419:306,1,50,0|0,3:0|3:0,2:0:0:0:
512,317,170026,2,1,L|503:259,1,50,0|0,3:0|3:0,2:0:0:0:
498,309,170197,2,1,L|489:251,1,50,0|0,3:0|3:0,2:0:0:0:
416,199,170369,5,10,3:0:0:0:
389,157,170454,1,0,3:0:0:0:
400,108,170540,1,0,3:0:0:0:
442,81,170626,1,0,3:0:0:0:
491,89,170712,2,1,P|497:119|490:152,3,50,8|0|0|0,3:0|3:0|3:0|3:0,2:0:0:0:
323,115,171054,5,12,3:0:0:0:
303,99,171140,1,0,3:0:0:0:
293,75,171226,1,0,3:0:0:0:
293,49,171312,1,0,3:0:0:0:
306,28,171397,2,1,L|358:20,3,50,8|0|0|0,3:0|3:0|3:0|3:0,2:0:0:0:
261,163,171740,5,4,3:0:0:0:
219,179,171826,1,0,3:0:0:0:
175,168,171912,1,0,3:0:0:0:
149,131,171997,1,0,3:0:0:0:
148,85,172083,1,10,3:0:0:0:
123,47,172169,1,0,3:0:0:0:
79,35,172254,1,0,3:0:0:0:
35,48,172340,1,0,3:0:0:0:
8,84,172426,2,1,P|17:105|24:132,3,50,2|0|0|0,3:2|3:0|3:0|3:0,2:0:0:0:
91,171,172769,2,1,P|82:192|75:219,3,50,10|0|0|0,3:0|3:0|3:0|3:0,2:0:0:0:
13,283,173112,5,2,3:2:0:0:
29,301,173197,1,0,3:0:0:0:
51,312,173283,1,0,3:0:0:0:
75,314,173369,1,0,3:0:0:0:
97,304,173454,2,1,P|116:290|133:260,3,50,10|0|0|0,3:0|3:0|3:0|3:0,2:0:0:0:
193,161,173797,1,8,2:3:0:0:
193,161,173883,1,8,2:3:0:0:
193,161,173969,2,1,L|248:172,1,50,0|0,3:0|3:0,2:0:0:0:
312,244,174140,1,8,2:3:0:0:
312,244,174226,1,8,2:3:0:0:
312,244,174312,2,1,L|262:253,1,50,8|8,2:3|2:3,2:0:0:0:
336,160,174483,6,1,P|358:163|391:171,3,50,4|0|10|0,3:0|3:0|3:0|3:0,2:0:0:0:
470,86,174826,1,2,3:2:0:0:
470,86,174912,1,0,3:0:0:0:
470,86,174997,2,1,P|431:86|410:89,1,50,10|0,3:0|3:0,2:0:0:0:
296,26,175169,1,2,3:2:0:0:
261,45,175254,1,0,3:0:0:0:
249,83,175340,1,10,3:0:0:0:
259,121,175426,1,0,3:0:0:0:
288,147,175512,2,1,P|329:159|354:158,1,50,2|0,3:2|3:0,2:0:0:0:
376,259,175683,5,10,3:0:0:0:
395,294,175769,1,0,3:0:0:0:
390,333,175854,1,2,3:2:0:0:
368,366,175940,1,0,3:0:0:0:
328,375,176026,1,10,3:0:0:0:
288,366,176112,1,0,3:0:0:0:
262,335,176197,2,1,P|260:306|259:280,3,50,2|0|10|0,3:2|3:0|3:0|3:0,2:0:0:0:
159,192,176540,1,2,3:2:0:0:
159,192,176626,1,0,3:0:0:0:
159,192,176712,2,1,P|155:224|152:264,1,50,10|0,3:0|3:0,2:0:0:0:
65,316,176883,1,2,3:2:0:0:
65,316,176969,1,0,3:0:0:0:
65,316,177054,2,1,P|61:284|58:244,1,50,10|2,3:0|3:1,2:0:0:0:
78,139,177226,5,6,3:2:0:0:
116,107,177312,1,0,3:0:0:0:
165,99,177397,1,10,3:0:0:0:
212,116,177483,1,0,3:0:0:0:
243,155,177569,2,1,P|249:184|253:213,1,50,2|0,3:2|3:0,2:0:0:0:
335,246,177740,1,10,3:0:0:0:
380,267,177826,1,0,3:0:0:0:
430,265,177912,1,2,3:2:0:0:
466,231,177997,1,0,3:0:0:0:
468,180,178083,2,1,P|435:168|410:165,1,50,10|0,3:0|3:0,2:0:0:0:
325,101,178254,2,1,P|358:89|383:86,3,50,2|0|10|0,3:2|3:0|3:0|3:0,2:0:0:0:
471,27,178597,5,2,3:2:0:0:
471,27,178683,1,0,3:0:0:0:
471,27,178769,2,1,P|464:56|460:85,1,50,10|0,3:0|3:0,2:0:0:0:
382,135,178940,1,2,3:2:0:0:
382,135,179026,1,0,3:0:0:0:
382,135,179112,2,1,P|375:106|371:77,1,50,10|0,3:0|3:0,2:0:0:0:
240,14,179283,2,1,P|269:23|298:27,1,50,2|0,3:0|3:0,2:0:0:0:
207,102,179454,2,1,P|178:111|149:115,1,50,10|0,3:0|3:0,2:0:0:0:
67,31,179626,1,8,3:0:0:0:
72,85,179712,1,8,2:3:0:0:
77,139,179797,1,8,2:3:0:0:
82,193,179883,1,8,2:3:0:0:
88,247,179969,6,1,P|90:277|93:311,3,50,4|0|10|0,3:0|3:0|3:0|3:0,2:0:0:0:
176,331,180312,2,1,P|174:361|171:395,3,50,2|0|10|0,3:2|3:0|3:0|3:0,2:0:0:0:
240,265,180654,1,2,3:2:0:0:
266,241,180740,1,0,3:0:0:0:
301,238,180826,1,10,3:0:0:0:
334,249,180912,1,0,3:0:0:0:
354,277,180997,2,1,P|360:304|364:334,3,50,2|0|10|0,3:2|3:0|3:0|3:0,2:0:0:0:
389,191,181340,5,2,3:2:0:0:
415,167,181426,1,0,3:0:0:0:
450,164,181512,1,10,3:0:0:0:
483,175,181597,1,0,3:0:0:0:
503,203,181683,2,1,P|509:230|513:260,3,50,2|0|10|0,3:2|3:0|3:0|3:0,2:0:0:0:
417,83,182026,5,2,3:1:0:0:
397,78,182112,1,2,3:1:0:0:
377,79,182197,1,10,3:0:0:0:
358,87,182283,1,2,3:1:0:0:
345,102,182369,1,8,3:0:0:0:
339,121,182454,1,8,2:3:0:0:
342,140,182540,1,8,2:3:0:0:
352,157,182626,1,8,2:3:0:0:
366,169,182712,6,1,P|299:185|222:213,1,150,12|0,3:0|2:0,2:0:0:0:
97,283,183740,6,1,P|106:243|110:203,2,66.6666666666667,0|0|0,3:0|3:0|3:0,2:0:0:0:
62,347,184083,1,12,3:0:0:0:
256,192,184169,12,1,185283,2:0:0:0:
321,22,185454,5,4,3:0:0:0:
321,22,185540,1,0,3:0:0:0:
321,22,185626,1,10,3:0:0:0:
321,22,185712,1,0,3:0:0:0:
321,22,185797,2,1,P|310:52|305:82,1,50,2|0,3:0|3:0,2:0:0:0:
407,117,185969,2,1,P|401:92|392:69,1,50,10|0,3:0|3:0,2:0:0:0:
256,145,186140,5,2,3:0:0:0:
247,194,186226,1,0,3:0:0:0:
271,237,186312,1,10,3:0:0:0:
318,252,186397,1,0,3:0:0:0:
365,234,186483,2,1,L|352:180,3,50,2|0|10|0,3:0|3:0|3:0|3:0,2:0:0:0:
493,155,186826,1,2,3:0:0:0:
493,155,186912,1,0,3:0:0:0:
493,155,186997,2,1,L|481:203,1,50,10|0,3:0|3:0,2:0:0:0:
507,313,187169,5,2,3:0:0:0:
486,358,187254,1,0,3:0:0:0:
438,374,187340,1,10,3:0:0:0:
388,368,187426,1,0,3:0:0:0:
350,334,187512,1,2,3:0:0:0:
330,288,187597,1,0,3:0:0:0:
297,250,187683,1,10,3:0:0:0:
247,244,187769,1,0,3:0:0:0:
202,265,187854,1,2,3:0:0:0:
184,311,187940,1,0,3:0:0:0:
196,359,188026,2,1,P|224:347|246:342,1,50,8|8,3:0|3:0,2:0:0:0:
108,304,188197,6,1,P|80:292|58:287,3,50,4|0|10|0,3:2|3:0|3:0|3:0,2:0:0:0:
207,251,188540,2,1,P|235:239|257:234,1,50,2|0,3:0|3:0,2:0:0:0:
120,296,188712,2,1,P|92:284|70:279,1,50,10|0,3:0|3:0,2:0:0:0:
123,124,188883,1,2,3:0:0:0:
123,124,188969,1,0,3:0:0:0:
123,124,189054,2,1,L|138:180,1,50,10|0,3:0|3:0,2:0:0:0:
24,216,189226,2,1,L|36:167,3,50,2|0|10|0,3:0|3:0|3:0|3:0,2:0:0:0:
87,30,189569,5,2,3:0:0:0:
131,7,189654,1,0,3:0:0:0:
180,13,189740,1,10,3:0:0:0:
219,44,189826,1,0,3:0:0:0:
232,92,189912,1,2,3:0:0:0:
257,134,189997,1,0,3:0:0:0:
304,150,190083,1,10,3:0:0:0:
352,137,190169,1,0,3:0:0:0:
379,95,190254,1,2,3:0:0:0:
374,45,190340,1,0,3:0:0:0:
334,13,190426,2,1,L|283:22,1,50,8|8,2:3|2:3,2:0:0:0:
398,111,190597,1,0,3:0:0:0:
398,111,190683,1,0,3:0:0:0:
398,111,190769,2,1,L|449:120,1,50,8|8,2:3|2:3,2:0:0:0:
307,202,190940,6,1,P|297:166|286:144,3,50,4|0|10|0,3:0|3:0|3:0|3:0,2:0:0:0:
377,245,191283,2,1,P|404:234|438:227,1,50,2|0,3:0|3:0,2:0:0:0:
304,287,191454,2,1,P|277:276|243:269,1,50,10|0,3:0|3:0,2:0:0:0:
188,198,191626,1,2,3:0:0:0:
188,198,191712,1,0,3:0:0:0:
188,198,191797,2,1,L|174:254,1,50,10|0,3:0|3:0,2:0:0:0:
105,316,191969,2,1,L|91:260,3,50,2|0|10|0,3:0|3:0|3:0|3:0,2:0:0:0:
8,132,192312,5,12,3:0:0:0:
15,83,192397,1,0,3:0:0:0:
51,48,192483,1,0,3:0:0:0:
101,46,192569,1,0,3:0:0:0:
145,68,192654,1,0,3:0:0:0:
162,115,192740,1,0,3:0:0:0:
142,161,192826,2,1,P|106:138|80:131,1,50,12|0,3:0|3:0,2:0:0:0:
202,11,192997,5,0,3:0:0:0:
251,1,193083,1,0,3:0:0:0:
297,20,193169,1,0,3:0:0:0:
316,65,193254,1,0,3:0:0:0:
306,114,193340,2,1,P|283:136|270:166,3,50,12|0|0|0,3:0|3:0|3:0|3:0,2:0:0:0:
215,247,193683,5,4,3:2:0:0:
223,296,193769,1,0,3:0:0:0:
266,319,193854,1,10,3:0:0:0:
316,316,193940,1,0,3:0:0:0:
351,280,194026,2,1,L|336:220,3,50,2|0|10|0,3:0|3:0|3:0|3:0,2:0:0:0:
407,110,194369,5,2,3:0:0:0:
456,111,194454,1,0,3:0:0:0:
494,143,194540,1,10,3:0:0:0:
494,193,194626,1,0,3:0:0:0:
465,234,194712,2,1,L|412:223,3,50,2|8|8|8,3:0|3:0|3:0|3:0,2:0:0:0:
283,127,195054,5,8,3:0:0:0:
244,87,195140,1,8,2:3:0:0:
188,88,195226,1,8,2:3:0:0:
147,125,195312,1,8,2:3:0:0:
140,179,195397,1,8,3:0:0:0:
101,218,195483,1,8,2:3:0:0:
45,220,195569,1,8,2:3:0:0:
5,181,195654,1,8,2:3:0:0:
5,125,195740,2,1,P|41:133|63:142,3,50,8|8|8|8,3:0|2:3|2:3|2:3,2:0:0:0:
143,196,196083,2,1,P|166:188|191:183,3,50,8|8|8|8,3:0|2:3|2:3|2:3,2:0:0:0:
58,259,196426,5,4,3:0:0:0:
58,259,196512,1,0,3:0:0:0:
58,259,196597,1,10,3:0:0:0:
58,259,196683,1,0,3:0:0:0:
58,259,196769,2,1,P|53:294|51:316,1,50,2|0,3:2|3:0,2:0:0:0:
132,384,196940,2,1,P|127:349|125:327,1,50,10|0,3:0|3:0,2:0:0:0:
202,254,197112,5,2,3:2:0:0:
246,231,197197,1,0,3:0:0:0:
295,238,197283,1,10,3:0:0:0:
327,276,197369,1,0,3:0:0:0:
327,325,197454,2,1,P|293:326|265:320,3,50,2|0|10|0,3:2|3:0|3:0|3:0,2:0:0:0:
392,381,197797,6,1,P|426:382|454:376,3,50,2|0|10|0,3:2|3:0|3:0|3:0,2:0:0:0:
500,263,198140,1,2,3:2:0:0:
496,212,198226,1,0,3:0:0:0:
456,180,198312,1,10,3:0:0:0:
406,177,198397,1,0,3:0:0:0:
364,205,198483,1,2,3:2:0:0:
353,253,198569,1,0,3:0:0:0:
316,286,198654,1,10,3:0:0:0:
265,285,198740,1,0,3:0:0:0:
230,248,198826,1,2,3:2:0:0:
229,197,198912,1,0,3:0:0:0:
261,159,198997,1,10,3:0:0:0:
311,158,199083,1,2,3:2:0:0:
354,183,199169,6,1,P|361:215|363:240,3,50,4|0|10|0,3:2|3:0|3:0|3:0,2:0:0:0:
436,88,199512,2,1,P|426:122|421:153,1,50,2|0,3:2|3:0,2:0:0:0:
315,27,199683,2,1,P|325:61|330:92,1,50,10|0,3:0|3:0,2:0:0:0:
261,159,199854,1,2,3:2:0:0:
261,159,199940,1,0,3:0:0:0:
261,159,200026,2,1,P|229:154|204:151,1,50,10|0,3:0|3:0,2:0:0:0:
110,80,200197,2,1,P|142:75|167:72,3,50,2|0|10|0,3:2|3:0|3:0|3:0,2:0:0:0:
37,179,200540,5,2,3:1:0:0:
19,225,200626,1,0,3:0:0:0:
30,273,200712,1,10,3:0:0:0:
70,301,200797,1,2,3:2:0:0:
120,298,200883,1,0,3:0:0:0:
158,265,200969,1,2,3:1:0:0:
162,215,201054,1,10,3:2:0:0:
190,173,201140,1,0,3:0:0:0:
239,165,201226,1,2,3:1:0:0:
282,190,201312,1,0,3:0:0:0:
295,237,201397,1,10,3:2:0:0:
280,284,201483,1,2,3:1:0:0:
232,300,201569,2,1,P|208:303|172:295,3,50,0|2|10|0,3:0|3:1|3:0|3:0,2:0:0:0:
365,351,201912,5,4,3:0:0:0:
365,351,201997,1,0,3:0:0:0:
365,351,202083,1,10,3:0:0:0:
365,351,202169,1,0,3:0:0:0:
365,351,202254,2,1,P|338:337|311:330,1,50,2|0,3:2|3:0,2:0:0:0:
232,300,202426,2,1,P|258:283|278:263,1,50,10|0,3:0|3:0,2:0:0:0:
343,210,202597,2,1,P|345:240|352:267,3,50,2|0|10|0,3:2|3:0|3:0|3:0,2:0:0:0:
245,115,202940,2,1,P|243:145|236:172,3,50,2|0|10|2,3:2|3:0|3:0|3:2,2:0:0:0:
152,240,203283,5,12,3:0:0:0:
104,256,203369,1,0,3:0:0:0:
56,243,203454,1,0,3:0:0:0:
29,200,203540,1,0,3:0:0:0:
29,149,203626,1,0,3:0:0:0:
60,109,203712,1,0,3:0:0:0:
108,97,203797,2,1,P|118:127|119:161,5,50,12|0|0|0|0|0,3:0|3:0|3:0|3:0|3:0|3:0,2:0:0:0:
199,20,204312,1,12,3:0:0:0:
199,20,204397,1,0,3:0:0:0:
199,20,204483,2,1,P|189:50|188:84,1,50,0|0,3:0|3:0,2:0:0:0:
115,172,204654,5,8,2:3:0:0:
93,228,204740,1,8,2:3:0:0:
110,285,204826,1,8,2:3:0:0:
165,307,204912,1,8,2:3:0:0:
220,286,204997,1,8,3:0:0:0:
243,230,205083,1,8,2:3:0:0:
295,200,205169,1,8,2:3:0:0:
353,211,205254,1,8,2:3:0:0:
387,260,205340,1,8,3:0:0:0:
383,320,205426,1,8,2:3:0:0:
335,357,205512,1,8,2:3:0:0:
275,349,205597,1,8,2:3:0:0:
234,304,205683,2,1,P|226:267|224:243,3,50,8|8|8|8,3:0|2:3|2:3|2:3,2:0:0:0:
351,192,206026,5,2,3:0:0:0:
372,141,206112,1,8,2:3:0:0:
368,86,206197,1,8,2:3:0:0:
334,42,206283,1,8,2:3:0:0:
280,27,206369,1,8,2:3:0:0:
226,39,206454,1,8,2:3:0:0:
190,81,206540,1,0,3:0:0:0:
181,135,206626,1,0,3:0:0:0:
200,186,206712,1,8,2:3:0:0:
194,235,206797,1,8,2:3:0:0:
158,270,206883,1,0,3:0:0:0:
108,277,206969,1,0,3:0:0:0:
64,253,207054,1,8,2:3:0:0:
47,205,207140,1,8,2:3:0:0:
63,157,207226,1,0,3:0:0:0:
105,130,207312,1,0,3:0:0:0:
158,135,207397,5,12,3:0:0:0:
256,192,207483,12,1,209626,2:0:0:0:
170,26,209797,5,8,3:0:0:0:
282,22,209969,1,8,3:0:0:0:
231,117,210140,2,1,P|235:240|243:363,1,240.000000000001,4|0,3:2|2:0,2:0:0:0:
