osu file format v14

[General]
AudioFilename: audio.ogg
AudioLeadIn: 0
PreviewTime: 62026
Countdown: 0
SampleSet: Soft
StackLeniency: 0.7
Mode: 0
LetterboxInBreaks: 0
WidescreenStoryboard: 0

[Editor]
DistanceSpacing: 1.1
BeatDivisor: 4
GridSize: 32
TimelineZoom: 2.500005

[Metadata]
Title:Dawn of the Dragonstar
TitleUnicode:Dawn of the Dragonstar
Artist:Twilight Force
ArtistUnicode:Twilight Force
Creator:nebuwua
Version:Betwixt Crepuscular Light and Antecedent Battles, The Empyrean Oracle Awaits
Source:
Tags:makidonalds dcs meiikyuu werhakon gloryhammer roupus symphonic melodic power metal powermetal adventure epic fantasy english nuclear blast records born borne Christer Björn Mikael Lundkvist Johan Philip Michael Lindh Eldhrimnir Daniel Beckman Gustaf Hansfeldt Aerendir Anders Joakim Johansson Alessandro Conti Ylva Eriksson Lynd Blackwald De'Azsh Allyon
BeatmapID:3773248
BeatmapSetID:1837608

[Difficulty]
HPDrainRate:5
CircleSize:4.3
OverallDifficulty:9.5
ApproachRate:9.7
SliderMultiplier:2
SliderTickRate:1

[Events]
//Background and Video events
0,0,"phuoc-quan-dragon-rise-test-small.jpg",0,0
//Break Periods
//Storyboard Layer 0 (Background)
//Storyboard Layer 1 (Fail)
//Storyboard Layer 2 (Pass)
//Storyboard Layer 3 (Foreground)
//Storyboard Layer 4 (Overlay)
//Storyboard Sound Samples

[TimingPoints]
312,342.857142857143,4,2,1,60,1,0
6997,-100,4,2,1,5,0,0
7169,-100,4,3,1,60,0,0
8282,-100,4,2,1,60,0,0
8369,-100,4,3,1,60,0,0
9912,-100,4,3,2,60,0,0
10254,-100,4,3,1,60,0,0
13082,-100,4,2,1,60,0,0
13169,-100,4,3,1,60,0,0
15397,-100,4,3,9,60,0,0
16769,-100,4,3,3,60,0,0
17454,-100,4,3,4,60,0,0
17539,-100,4,3,5,60,0,0
17625,-100,4,3,6,60,0,0
17797,-100,4,3,1,60,0,0
18483,-100,4,3,2,60,0,0
19254,-100,4,2,2,60,0,0
19340,-100,4,3,1,60,0,0
19425,-100,4,3,2,60,0,0
20369,-100,4,3,1,60,0,0
20540,-100,4,3,2,60,0,0
20625,-100,4,2,2,60,0,0
20712,-100,4,3,1,60,0,0
20883,-100,4,3,7,60,0,0
21226,-100,4,3,5,60,0,0
21569,-100,4,3,1,60,0,0
21912,-100,4,3,8,60,0,0
22083,-100,4,3,7,60,0,0
22940,-100,4,3,1,60,0,0
23283,-100,4,3,4,60,0,0
23369,-100,4,3,8,60,0,0
23454,-100,4,3,1,60,0,0
23626,-100,4,3,2,60,0,0
24312,-100,4,3,1,60,0,0
24483,-100,4,3,2,60,0,0
24739,-100,4,2,2,60,0,0
24826,-100,4,3,2,60,0,0
24911,-100,4,3,1,60,0,0
25340,-100,4,3,2,60,0,0
25683,-100,4,3,1,60,0,0
25854,-100,4,3,2,60,0,0
27054,-100,4,3,7,60,0,0
27740,-100,4,3,1,60,0,0
28940,-100,4,3,4,60,0,0
29112,-100,4,3,1,60,0,0
29968,-100,4,2,1,60,0,0
30054,-100,4,3,1,60,0,0
30225,-100,4,2,1,60,0,0
30312,-100,4,3,1,60,0,0
31340,-100,4,2,1,60,0,0
31426,-100,4,3,1,60,0,0
31597,-100,4,2,1,60,0,0
31683,-100,4,3,1,60,0,0
32025,-100,4,2,1,60,0,0
32112,-100,4,3,1,60,0,0
32711,-100,4,2,1,60,0,0
32797,-100,4,3,1,60,0,0
32968,-100,4,2,1,60,0,0
33054,-100,4,3,4,60,0,0
33140,-100,4,3,8,60,0,0
33226,-100,4,3,7,60,0,0
33740,-100,4,3,9,60,0,0
34597,-100,4,3,1,60,0,0
35368,-100,4,2,1,60,0,0
35539,-100,4,3,1,60,0,0
35711,-100,4,2,1,60,0,0
35797,-100,4,3,1,60,0,0
36140,-100,4,2,1,60,0,0
36226,-100,4,3,1,60,0,0
36825,-100,4,2,1,60,0,0
36912,-100,4,3,1,60,0,0
39054,-100,4,3,3,60,0,0
39397,-100,4,3,4,60,0,0
39483,-100,4,3,6,60,0,0
39826,-100,4,3,1,60,0,0
41539,-100,4,2,1,60,0,0
41626,-100,4,3,1,60,0,0
42826,-100,4,3,9,60,0,0
43512,-100,4,3,7,60,0,0
44026,-100,4,3,4,60,0,0
44112,-100,4,3,6,60,0,0
44197,-100,4,3,7,60,0,0
44712,-100,4,3,1,60,0,0
45054,-100,4,3,4,60,0,0
45226,-100,4,3,6,60,0,0
45397,-100,4,3,8,60,0,0
45569,-100,4,3,9,60,0,0
46083,-100,4,3,1,60,0,0
48312,-100,4,3,9,60,0,0
49939,-100,4,3,1,60,0,0
50112,-100,4,3,3,60,0,0
50369,-100,4,3,2,60,0,0
50883,-100,4,3,3,60,0,0
50969,-100,4,3,4,60,0,0
51226,-100,4,3,1,60,0,0
51825,-100,4,2,1,60,0,0
51912,-100,4,3,1,60,0,0
53797,-100,4,3,7,60,0,0
54483,-100,4,3,9,60,0,0
55254,-100,4,2,1,60,0,0
55340,-100,4,3,2,60,0,0
55425,-100,4,2,2,60,0,0
55512,-100,4,3,2,60,0,0
56540,-100,4,3,1,60,0,0
56712,-100,4,3,2,60,0,0
58854,-100,4,3,1,60,0,0
58940,-100,4,3,2,60,0,0
59025,-100,4,3,1,60,0,0
59112,-100,4,3,2,60,0,0
59197,-100,4,3,1,60,0,0
59283,-100,4,3,2,60,0,0
59797,-100,4,3,7,60,0,0
60312,-100,4,3,9,60,0,0
60739,-100,4,3,3,60,0,0
60997,-111.111111111111,4,3,4,60,0,0
61340,-125,4,3,3,60,0,0
61511,-125,4,3,4,60,0,0
61683,-142.857142857143,4,3,6,60,0,0
61854,-142.857142857143,4,3,1,60,0,0
62026,-142.857142857143,4,3,1,60,0,1
63397,-83.3333333333333,4,3,1,60,0,1
68883,-83.3333333333333,4,3,2,60,0,1
69397,-83.3333333333333,4,3,7,60,0,1
69912,-83.3333333333333,4,3,2,60,0,1
70254,-83.3333333333333,4,3,1,60,0,1
71369,-83.3333333333333,4,3,3,60,0,1
71969,-83.3333333333333,4,3,4,60,0,1
72140,-83.3333333333333,4,3,1,60,0,1
72312,-83.3333333333333,4,3,3,60,0,1
72483,-83.3333333333333,4,3,4,60,0,1
72654,-83.3333333333333,4,3,1,60,0,1
73169,-83.3333333333333,4,3,2,60,0,1
75740,-83.3333333333333,4,3,1,60,0,1
75911,-83.3333333333333,4,3,2,60,0,1
77112,-83.3333333333333,4,3,1,60,0,1
77283,-83.3333333333333,4,3,2,60,0,1
77540,-83.3333333333333,4,3,1,60,0,1
77626,-83.3333333333333,4,3,2,60,0,1
77797,-83.3333333333333,4,3,1,60,0,1
77969,-83.3333333333333,4,3,2,60,0,1
78054,-83.3333333333333,4,3,1,60,0,1
78312,-83.3333333333333,4,3,2,60,0,1
78483,-83.3333333333333,4,3,1,60,0,1
78654,-83.3333333333333,4,3,2,60,0,1
79854,-83.3333333333333,4,3,7,60,0,1
80883,-83.3333333333333,4,3,2,60,0,1
81226,-83.3333333333333,4,3,4,60,0,1
81912,-83.3333333333333,4,3,6,60,0,1
82254,-83.3333333333333,4,3,8,60,0,1
82597,-166.666666666667,4,3,4,60,0,1
83283,-166.666666666667,4,2,100,60,0,1
83288,-166.666666666667,4,3,1,60,0,1
83797,-166.666666666667,4,2,1,60,0,1
83969,-100,4,3,1,60,0,0
85082,-100,4,2,1,60,0,0
85169,-100,4,3,1,60,0,0
86454,-100,4,2,1,60,0,0
86540,-100,4,3,1,60,0,0
86712,-100,4,3,2,60,0,0
87054,-100,4,3,1,60,0,0
89882,-100,4,2,1,60,0,0
89969,-100,4,3,1,60,0,0
92197,-100,4,3,9,60,0,0
92883,-100,4,3,7,60,0,0
93569,-100,4,3,3,60,0,0
94254,-100,4,3,4,60,0,0
94425,-100,4,3,6,60,0,0
94597,-100,4,3,1,60,0,0
95797,-100,4,2,1,60,0,0
95883,-100,4,3,1,60,0,0
96054,-100,4,2,1,60,0,0
96140,-100,4,3,1,60,0,0
96483,-100,4,2,1,60,0,0
96569,-100,4,3,1,60,0,0
97082,-100,4,2,1,60,0,0
97254,-100,4,3,1,60,0,0
97425,-100,4,2,1,60,0,0
97512,-100,4,3,1,60,0,0
97854,-100,4,2,1,60,0,0
97940,-100,4,3,1,60,0,0
98454,-100,4,2,1,60,0,0
98625,-100,4,3,1,60,0,0
98797,-100,4,2,1,60,0,0
98883,-100,4,3,4,60,0,0
98969,-100,4,3,8,60,0,0
99054,-100,4,3,7,60,0,0
99397,-100,4,3,9,60,0,0
99740,-100,4,3,1,60,0,0
99826,-100,4,3,4,60,0,0
99997,-100,4,3,6,60,0,0
100083,-100,4,3,2,60,0,0
100596,-100,4,3,1,60,0,0
101197,-100,4,2,1,60,0,0
101368,-100,4,3,1,60,0,0
101539,-100,4,2,1,60,0,0
101626,-100,4,3,1,60,0,0
101969,-100,4,2,1,60,0,0
102054,-100,4,3,1,60,0,0
102654,-100,4,2,1,60,0,0
102740,-100,4,3,1,60,0,0
103169,-100,4,3,7,60,0,0
103512,-100,4,3,2,60,0,0
103854,-100,4,3,7,60,0,0
104197,-100,4,3,1,60,0,0
105226,-100,4,3,3,60,0,0
105569,-100,4,3,4,60,0,0
105912,-100,4,3,1,60,0,0
107368,-100,4,2,1,60,0,0
107454,-100,4,3,1,60,0,0
108654,-100,4,3,9,60,0,0
109340,-100,4,3,7,60,0,0
110026,-100,4,3,3,60,0,0
110540,-100,4,3,2,60,0,0
110625,-100,4,2,2,60,0,0
110712,-100,4,3,4,60,0,0
111054,-100,4,3,2,60,0,0
111226,-100,4,3,6,60,0,0
111397,-100,4,3,9,60,0,0
111912,-100,4,3,1,60,0,0
114140,-100,4,3,9,60,0,0
115769,-100,4,2,1,60,0,0
115854,-100,4,3,1,60,0,0
116111,-100,4,2,1,60,0,0
116197,-100,4,3,2,60,0,0
116454,-100,4,2,2,60,0,0
116540,-100,4,3,1,60,0,0
116883,-100,4,3,2,60,0,0
117054,-100,4,3,1,60,0,0
117654,-100,4,2,1,60,0,0
117740,-100,4,3,1,60,0,0
119626,-100,4,3,7,60,0,0
120312,-100,4,3,9,60,0,0
121169,-100,4,3,2,60,0,0
122369,-100,4,3,1,60,0,0
122540,-100,4,3,2,60,0,0
124683,-100,4,3,1,60,0,0
124769,-100,4,3,2,60,0,0
124854,-100,4,3,1,60,0,0
124940,-100,4,3,2,60,0,0
125025,-100,4,3,1,60,0,0
125112,-100,4,3,2,60,0,0
125626,-100,4,3,7,60,0,0
126140,-100,4,3,9,60,0,0
126568,-100,4,3,3,60,0,0
126826,-111.111111111111,4,3,4,60,0,0
127169,-125,4,3,3,60,0,0
127340,-125,4,3,4,60,0,0
127512,-142.857142857143,4,3,6,60,0,0
127683,-142.857142857143,4,3,1,60,0,0
127854,-142.857142857143,4,3,1,60,0,1
129226,-78.7401574803149,4,3,1,60,0,1
134712,-78.7401574803149,4,3,2,60,0,1
135226,-78.7401574803149,4,3,7,60,0,1
135740,-78.7401574803149,4,3,2,60,0,1
136083,-78.7401574803149,4,3,1,60,0,1
137197,-78.7401574803149,4,3,3,60,0,1
137797,-78.7401574803149,4,3,4,60,0,1
137969,-78.7401574803149,4,3,1,60,0,1
138140,-78.7401574803149,4,3,3,60,0,1
138312,-78.7401574803149,4,3,4,60,0,1
138483,-78.7401574803149,4,3,1,60,0,1
138997,-78.7401574803149,4,3,2,60,0,1
141569,-78.7401574803149,4,3,1,60,0,1
141740,-78.7401574803149,4,3,2,60,0,1
142940,-78.7401574803149,4,3,1,60,0,1
143112,-78.7401574803149,4,3,2,60,0,1
143369,-78.7401574803149,4,3,1,60,0,1
143454,-78.7401574803149,4,3,2,60,0,1
143626,-78.7401574803149,4,3,1,60,0,1
143797,-78.7401574803149,4,3,2,60,0,1
143883,-78.7401574803149,4,3,1,60,0,1
144140,-78.7401574803149,4,3,2,60,0,1
144312,-78.7401574803149,4,3,1,60,0,1
144483,-78.7401574803149,4,3,2,60,0,1
145683,-78.7401574803149,4,3,7,60,0,1
146712,-78.7401574803149,4,3,2,60,0,1
147054,-78.7401574803149,4,3,4,60,0,1
147740,-78.7401574803149,4,3,6,60,0,1
148083,-78.7401574803149,4,3,8,60,0,1
148426,-200,4,3,4,60,0,1
149112,-200,4,2,100,60,0,1
149117,-200,4,3,1,60,0,1
149626,-200,4,2,1,60,0,1
149797,-200,4,3,1,60,0,0
149969,-166.666666666667,4,3,1,60,0,0
150311,-166.666666666667,4,3,3,60,0,0
150654,-166.666666666667,4,3,9,60,0,0
150826,-166.666666666667,4,3,2,60,0,0
151169,-100,4,3,3,60,0,0
151512,-111.111111111111,4,3,4,60,0,0
151854,-125,4,3,3,60,0,0
152025,-125,4,3,4,60,0,0
152197,-142.857142857143,4,3,6,60,0,0
152368,-142.857142857143,4,3,8,60,0,0
152540,-142.857142857143,4,3,1,60,0,0
153226,-86.9565217391304,4,3,1,60,0,0
156312,-86.9565217391304,4,3,2,60,0,0
156654,-86.9565217391304,4,3,1,60,0,0
156997,-86.9565217391304,4,3,3,60,0,0
157169,-86.9565217391304,4,3,4,60,0,0
157340,-86.9565217391304,4,3,6,60,0,0
157683,-86.9565217391304,4,3,1,60,0,0
157854,-86.9565217391304,4,3,6,60,0,0
157939,-86.9565217391304,4,3,8,60,0,0
158026,-86.9565217391304,4,3,9,60,0,0
158712,-86.9565217391304,4,3,1,60,0,0
160769,-86.9565217391304,4,3,2,60,0,0
161454,-86.9565217391304,4,3,7,60,0,0
162483,-86.9565217391304,4,3,4,60,0,0
162654,-86.9565217391304,4,3,6,60,0,0
162826,-86.9565217391304,4,3,4,60,0,0
162997,-86.9565217391304,4,3,8,60,0,0
163169,-86.9565217391304,4,3,2,60,0,0
163512,-86.9565217391304,4,3,1,60,0,0
163854,-86.9565217391304,4,3,2,60,0,0
164197,-86.9565217391304,4,3,1,60,0,0
164540,-86.9565217391304,4,3,2,60,0,0
164883,-86.9565217391304,4,3,1,60,0,0
165226,-86.9565217391304,4,3,2,60,0,0
165569,-86.9565217391304,4,3,1,60,0,0
165912,-86.9565217391304,4,3,2,60,0,0
166083,-86.9565217391304,4,3,1,60,0,0
166169,-86.9565217391304,4,3,2,60,0,0
166254,-86.9565217391304,4,3,9,60,0,0
167969,-86.9565217391304,4,3,2,60,0,0
168312,-86.9565217391304,4,3,1,60,0,0
168654,-86.9565217391304,4,3,2,60,0,0
168740,-86.9565217391304,4,3,1,60,0,0
168826,-86.9565217391304,4,3,2,60,0,0
168912,-86.9565217391304,4,3,1,60,0,0
169683,-86.9565217391304,4,3,9,60,0,0
171740,-86.9565217391304,4,3,1,60,0,0
174312,-86.9565217391304,4,3,4,60,0,0
174483,-86.9565217391304,4,3,1,60,0,0
174654,-86.9565217391304,4,3,2,60,0,0
177140,-86.9565217391304,4,3,1,60,0,0
177226,-66.6666666666667,4,3,2,60,0,0
178083,-83.3333333333333,4,3,2,60,0,0
179969,-83.3333333333333,4,3,1,60,0,0
180140,-83.3333333333333,4,3,2,60,0,0
182026,-83.3333333333333,4,3,1,60,0,0
182197,-83.3333333333333,4,3,2,60,0,0
182283,-83.3333333333333,4,3,1,60,0,0
182369,-100,4,3,3,60,0,0
182540,-100,4,3,4,60,0,0
182626,-100,4,3,6,60,0,0
182712,-200,4,3,2,60,0,0
183569,-200,4,2,2,60,0,0
183740,-133.333333333333,4,3,2,60,0,0
185283,-133.333333333333,4,2,2,60,0,0
185454,-133.333333333333,4,3,1,60,0,1
186826,-74.0740740740741,4,3,1,60,0,1
192312,-74.0740740740741,4,3,2,60,0,1
192826,-74.0740740740741,4,3,7,60,0,1
193340,-74.0740740740741,4,3,2,60,0,1
193683,-74.0740740740741,4,3,1,60,0,1
194797,-74.0740740740741,4,3,3,60,0,1
195397,-74.0740740740741,4,3,4,60,0,1
195569,-74.0740740740741,4,3,1,60,0,1
195740,-74.0740740740741,4,3,3,60,0,1
195912,-74.0740740740741,4,3,4,60,0,1
196083,-74.0740740740741,4,3,1,60,0,1
196597,-74.0740740740741,4,3,2,60,0,1
199169,-74.0740740740741,4,3,1,60,0,1
199340,-74.0740740740741,4,3,2,60,0,1
200540,-74.0740740740741,4,3,1,60,0,1
200712,-74.0740740740741,4,3,2,60,0,1
200969,-74.0740740740741,4,3,1,60,0,1
201054,-74.0740740740741,4,3,2,60,0,1
201226,-74.0740740740741,4,3,1,60,0,1
201397,-74.0740740740741,4,3,2,60,0,1
201483,-74.0740740740741,4,3,1,60,0,1
201740,-74.0740740740741,4,3,2,60,0,1
201912,-74.0740740740741,4,3,1,60,0,1
202083,-74.0740740740741,4,3,2,60,0,1
203283,-74.0740740740741,4,3,7,60,0,1
204312,-74.0740740740741,4,3,2,60,0,1
204654,-74.0740740740741,4,3,4,60,0,1
204740,-74.0740740740741,4,3,1,60,0,1
204997,-74.0740740740741,4,3,3,60,0,1
205254,-74.0740740740741,4,3,4,60,0,1
205683,-74.0740740740741,4,3,6,60,0,1
206026,-74.0740740740741,4,3,1,60,0,1
206369,-74.0740740740741,4,3,4,60,0,1
206712,-74.0740740740741,4,3,6,60,0,1
207054,-74.0740740740741,4,3,8,60,0,1
207397,-74.0740740740741,4,3,2,60,0,1
207483,-74.0740740740741,4,2,2,60,0,1
209797,-74.0740740740741,4,3,8,60,0,1
210140,-100,4,3,2,60,0,0
210825,-100,4,2,2,60,0,0

[Colours]
Combo1 : 127,140,81
Combo2 : 229,128,242
Combo3 : 4,217,57
Combo4 : 84,172,191

[HitObjects]
256,192,654,12,1,6997,0:0:0:0:
281,244,7169,6,1,B|297:232|297:232|391:258,1,100,4|0,3:0|3:0,0:0:0:0:
401,263,7426,1,0,3:0:0:0:
401,263,7512,1,10,2:3:0:0:
506,157,7683,1,0,3:0:0:0:
506,157,7769,1,0,3:0:0:0:
506,157,7854,1,2,3:2:0:0:
381,53,8026,1,0,3:0:0:0:
381,53,8112,1,0,3:0:0:0:
381,53,8197,2,1,L|323:62,1,50,10|0,2:3|0:0,0:0:0:0:
267,147,8369,2,1,L|209:138,1,50,0|0,3:0|3:0,0:0:0:0:
120,52,8540,6,1,P|88:95|92:163,1,100,2|0,3:2|3:0,0:0:0:0:
166,206,8797,1,0,3:0:0:0:
166,206,8883,2,1,P|198:249|194:317,1,100,10|0,2:3|3:0,0:0:0:0:
194,320,9140,1,0,3:0:0:0:
194,320,9226,1,2,3:2:0:0:
289,384,9397,1,0,3:0:0:0:
289,384,9483,1,0,3:0:0:0:
289,384,9569,2,1,B|308:358|308:358|401:335,1,100,10|0,2:3|3:0,0:0:0:0:
402,341,9826,1,0,3:0:0:0:
402,341,9912,5,4,3:0:0:0:
481,153,10083,1,0,3:0:0:0:
481,153,10169,1,0,3:0:0:0:
481,153,10254,2,1,B|486:197|486:197|489:200|489:200|497:267,1,100,10|0,2:3|3:0,0:0:0:0:
304,274,10512,1,0,3:0:0:0:
304,274,10597,2,1,B|309:230|309:230|312:227|312:227|320:160,1,100,2|0,3:0|3:0,0:0:0:0:
382,34,10854,1,0,3:0:0:0:
382,34,10940,2,1,B|387:78|387:78|390:81|390:81|398:148,1,100,10|0,2:3|3:0,0:0:0:0:
233,193,11197,1,0,3:0:0:0:
233,193,11283,6,1,P|168:192|108:142,1,100,4|0,3:2|3:0,0:0:0:0:
21,65,11540,1,0,3:0:0:0:
21,65,11626,2,1,P|52:121|39:198,1,100,10|0,2:3|3:0,0:0:0:0:
16,229,11883,1,0,3:0:0:0:
16,229,11969,1,12,3:1:0:0:
153,36,12140,1,0,3:0:0:0:
153,36,12226,1,0,3:0:0:0:
153,36,12312,5,8,2:3:0:0:
142,85,12397,1,8,2:3:0:0:
132,133,12483,1,8,2:3:0:0:
122,182,12569,1,8,2:3:0:0:
113,231,12654,5,4,3:0:0:0:
32,344,12826,1,0,3:0:0:0:
32,344,12912,1,0,3:0:0:0:
32,344,12997,2,1,P|51:319|78:301,1,50,10|0,2:3|0:0,0:0:0:0:
123,223,13169,2,1,P|153:225|184:237,1,50,0|0,3:0|3:0,0:0:0:0:
263,187,13340,2,1,P|278:214|290:292,1,100,2|0,3:2|3:0,0:0:0:0:
373,355,13597,1,0,3:0:0:0:
373,355,13683,2,1,P|379:305|400:260,1,100,10|0,2:3|3:0,0:0:0:0:
489,214,13940,1,0,3:0:0:0:
489,214,14026,6,1,B|510:185|510:185|493:77,1,100,2|0,3:0|3:0,0:0:0:0:
497,100,14283,1,0,3:0:0:0:
497,100,14369,1,10,2:3:0:0:
335,16,14540,1,0,3:0:0:0:
335,16,14626,1,0,3:0:0:0:
335,16,14712,2,1,B|281:21|281:21|278:23|278:23|196:33,1,100,2|0,3:2|3:0,0:0:0:0:
181,131,14969,1,0,3:0:0:0:
181,131,15054,2,1,B|235:136|235:136|238:138|238:138|320:148,1,100,10|0,2:3|3:0,0:0:0:0:
143,43,15312,1,0,3:0:0:0:
134,38,15397,5,12,3:0:0:0:
88,58,15483,1,0,3:0:0:0:
70,104,15569,1,0,3:0:0:0:
77,153,15654,1,0,3:0:0:0:
113,187,15740,1,0,3:0:0:0:
140,228,15826,1,0,3:0:0:0:
145,277,15912,1,0,3:0:0:0:
129,324,15997,1,0,3:0:0:0:
87,351,16083,5,10,3:0:0:0:
54,300,16169,1,0,3:0:0:0:
59,240,16254,1,0,3:0:0:0:
106,202,16340,1,0,3:0:0:0:
165,197,16426,1,0,3:0:0:0:
219,223,16512,1,0,3:0:0:0:
252,279,16597,1,8,3:0:0:0:
313,310,16683,1,8,3:0:0:0:
387,297,16769,6,1,L|397:231,3,50,8|8|0|0,3:0|3:0|3:0|3:0,0:0:0:0:
290,168,17112,2,1,L|300:234,3,50,6|0|8|8,3:0|3:0|3:0|2:3,0:0:0:0:
401,126,17454,2,1,L|411:60,3,50,8|8|8|8,3:0|2:3|2:3|2:3,0:0:0:0:
287,7,17797,1,8,2:3:0:0:
266,40,17883,1,8,2:3:0:0:
235,57,17969,1,0,3:0:0:0:
204,57,18054,1,0,3:0:0:0:
181,45,18140,6,1,P|120:25|63:47,1,100,4|0,3:0|3:0,0:0:0:0:
11,88,18397,1,0,3:0:0:0:
11,88,18483,2,1,P|37:141|47:202,1,100,10|0,2:0|3:0,0:0:0:0:
43,206,18740,1,0,3:0:0:0:
43,206,18826,1,2,3:2:0:0:
0,333,18997,1,0,3:0:0:0:
0,333,19083,1,0,3:0:0:0:
0,333,19169,2,1,L|64:325,1,50,10|0,2:0|0:0,0:0:0:0:
118,253,19340,2,1,L|182:261,1,50,2|0,3:1|3:0,0:0:0:0:
224,361,19512,6,1,B|249:379|249:379|344:355,1,100,2|0,3:2|3:0,0:0:0:0:
374,287,19769,1,0,3:0:0:0:
374,287,19854,2,1,B|399:269|399:269|494:293,1,100,10|0,2:0|3:0,0:0:0:0:
490,303,20112,1,0,3:0:0:0:
490,303,20197,1,2,3:2:0:0:
338,155,20369,1,2,3:1:0:0:
338,155,20454,1,0,3:0:0:0:
338,155,20540,2,1,L|330:216,1,50,10|0,2:0|0:0,0:0:0:0:
454,144,20712,2,1,L|446:83,1,50,2|0,3:1|3:0,0:0:0:0:
357,17,20883,5,12,3:0:0:0:
308,2,20969,1,0,3:0:0:0:
258,9,21054,1,0,3:0:0:0:
223,45,21140,1,0,3:0:0:0:
210,92,21226,1,8,3:0:0:0:
176,129,21312,1,0,3:0:0:0:
126,135,21397,1,0,3:0:0:0:
81,113,21483,1,0,3:0:0:0:
62,66,21569,5,10,3:0:0:0:
116,40,21654,1,0,3:0:0:0:
175,50,21740,1,0,3:0:0:0:
212,96,21826,1,0,3:0:0:0:
215,156,21912,1,8,3:0:0:0:
187,209,21997,1,0,3:0:0:0:
132,233,22083,1,8,3:0:0:0:
72,224,22169,1,8,3:0:0:0:
31,179,22254,5,12,3:0:0:0:
88,139,22340,1,0,0:0:0:0:
156,146,22426,1,0,0:0:0:0:
206,194,22512,1,0,0:0:0:0:
224,261,22597,1,0,0:0:0:0:
267,315,22683,1,0,0:0:0:0:
333,338,22769,1,0,0:0:0:0:
401,322,22854,1,0,0:0:0:0:
448,270,22940,1,12,0:0:0:0:
464,202,23026,1,0,0:0:0:0:
443,134,23112,1,0,0:0:0:0:
380,102,23197,1,0,0:0:0:0:
310,102,23283,1,8,0:0:0:0:
264,149,23369,1,8,0:0:0:0:
270,208,23454,1,8,0:0:0:0:
317,235,23540,1,8,0:0:0:0:
363,217,23626,6,1,B|357:167|357:167|354:164|354:164|348:105,1,100,6|2,3:0|3:2,0:0:0:0:
347,97,23883,1,0,3:0:0:0:
347,97,23969,1,10,2:3:0:0:
160,20,24140,1,2,3:2:0:0:
160,20,24226,1,0,3:0:0:0:
160,20,24312,2,1,B|154:70|154:70|151:73|151:73|145:132,1,100,2|2,3:1|3:2,0:0:0:0:
85,177,24569,1,0,3:0:0:0:
85,177,24654,2,1,L|96:248,1,50,10|0,2:3|0:0,0:0:0:0:
165,298,24826,2,1,L|176:227,1,50,2|2,3:2|3:1,0:0:0:0:
250,186,24997,6,1,P|321:169|368:197,1,100,4|0,3:2|3:0,0:0:0:0:
448,161,25254,1,0,3:0:0:0:
448,161,25340,2,1,P|397:108|398:53,1,100,10|2,2:3|3:2,0:0:0:0:
334,9,25597,1,0,3:0:0:0:
334,9,25683,2,1,P|313:78|265:105,1,100,2|2,3:1|3:2,0:0:0:0:
273,101,25940,1,0,3:0:0:0:
273,101,26026,1,10,2:3:0:0:
115,17,26197,1,2,3:2:0:0:
115,17,26283,1,0,3:0:0:0:
115,17,26369,5,12,3:0:0:0:
63,47,26454,1,0,3:0:0:0:
49,105,26540,1,0,3:0:0:0:
71,159,26626,1,0,3:0:0:0:
123,189,26712,1,0,3:0:0:0:
153,241,26797,1,0,3:0:0:0:
150,300,26883,1,0,3:0:0:0:
112,347,26969,1,0,3:0:0:0:
52,354,27054,5,12,3:0:0:0:
46,314,27140,1,0,3:0:0:0:
68,280,27226,1,0,3:0:0:0:
106,268,27312,1,0,3:0:0:0:
145,276,27397,1,0,3:0:0:0:
170,306,27483,1,0,3:0:0:0:
168,346,27569,1,0,3:0:0:0:
147,380,27654,1,0,3:0:0:0:
106,382,27740,5,10,3:0:0:0:
228,260,27912,1,0,3:0:0:0:
228,260,27997,1,0,3:0:0:0:
228,260,28083,5,8,2:3:0:0:
287,249,28169,1,8,2:3:0:0:
346,238,28254,1,8,2:3:0:0:
405,227,28340,1,8,2:3:0:0:
446,236,28426,6,1,L|436:301,1,50,0|0,3:0|3:0,0:0:0:0:
335,358,28597,2,1,L|325:293,1,50,8|8,2:3|2:3,0:0:0:0:
245,187,28769,1,0,3:0:0:0:
220,183,28854,1,0,3:0:0:0:
195,179,28940,1,8,2:3:0:0:
170,175,29026,1,8,2:3:0:0:
143,171,29112,6,1,B|122:193|122:193|134:284,1,100,4|0,3:0|3:0,0:0:0:0:
154,280,29369,1,0,3:0:0:0:
154,280,29454,1,10,2:3:0:0:
240,63,29626,1,0,3:0:0:0:
319,172,29797,2,1,P|368:194|427:183,1,100,2|0,3:2|0:0,0:0:0:0:
468,138,30054,1,0,3:0:0:0:
468,138,30140,2,1,L|458:65,1,50,10|0,2:3|0:0,0:0:0:0:
368,26,30312,1,0,3:0:0:0:
252,137,30483,5,2,3:0:0:0:
385,300,30740,1,0,3:0:0:0:
385,300,30826,1,10,2:3:0:0:
289,272,30997,1,0,3:0:0:0:
209,336,31169,2,1,B|167:342|167:342|162:345|162:345|86:355,1,100,2|0,3:0|0:0,0:0:0:0:
42,314,31426,1,0,3:0:0:0:
42,314,31512,2,1,L|52:241,1,50,10|0,2:3|0:0,0:0:0:0:
119,217,31683,2,1,L|109:144,1,50,0|0,3:0|3:0,0:0:0:0:
38,98,31854,6,1,P|86:65|159:63,1,100,4|0,3:0|0:0,0:0:0:0:
195,1,32112,1,0,3:0:0:0:
195,1,32197,2,1,P|249:22|291:81,1,100,10|0,2:3|3:0,0:0:0:0:
347,188,32540,2,1,B|353:139|353:139|356:136|356:136|362:86,1,100,2|0,3:2|0:0,0:0:0:0:
409,34,32797,1,0,3:0:0:0:
409,34,32883,2,1,L|476:24,1,50,10|0,2:3|0:0,0:0:0:0:
506,124,33054,1,8,3:0:0:0:
506,124,33140,1,8,2:3:0:0:
506,124,33226,5,4,3:0:0:0:
479,154,33312,1,0,3:0:0:0:
442,170,33397,1,0,3:0:0:0:
401,168,33483,1,0,3:0:0:0:
368,144,33569,1,0,3:0:0:0:
353,106,33654,1,0,3:0:0:0:
362,66,33740,5,12,3:0:0:0:
409,81,33826,1,0,3:0:0:0:
439,120,33912,1,0,3:0:0:0:
438,169,33997,1,0,3:0:0:0:
409,210,34083,1,0,3:0:0:0:
363,230,34169,1,0,3:0:0:0:
314,219,34254,5,12,3:0:0:0:
310,194,34340,1,0,3:0:0:0:
307,169,34426,2,1,L|299:95,1,50,0|0,3:0|3:0,0:0:0:0:
232,60,34597,6,1,B|206:46|206:46|108:77,1,100,4|0,3:0|3:0,0:0:0:0:
123,87,34854,1,0,3:0:0:0:
123,87,34940,1,10,2:3:0:0:
191,214,35112,1,0,3:0:0:0:
42,143,35283,2,1,L|32:203,1,50,2|0,3:2|0:0,0:0:0:0:
108,214,35454,2,1,L|118:274,1,50,0|0,0:0|3:0,0:0:0:0:
47,295,35626,2,1,L|37:355,1,50,10|0,2:3|0:0,0:0:0:0:
104,384,35797,6,1,B|156:378|156:378|160:375|160:375|223:366,1,100,0|2,3:0|3:2,0:0:0:0:
311,267,36140,1,0,0:0:0:0:
311,267,36226,1,0,3:0:0:0:
311,267,36312,1,10,2:3:0:0:
451,364,36483,2,1,B|486:318|457:272|442:279|408:226|451:173,1,200,0|0,3:0|0:0,0:0:0:0:
473,169,36912,1,0,3:0:0:0:
473,169,36997,1,10,2:3:0:0:
388,59,37169,1,0,3:0:0:0:
388,59,37254,1,0,3:0:0:0:
388,59,37340,5,10,3:0:0:0:
349,28,37426,1,0,3:0:0:0:
299,30,37512,1,0,3:0:0:0:
257,55,37597,1,0,3:0:0:0:
238,101,37683,1,10,3:0:0:0:
192,121,37769,1,0,3:0:0:0:
143,108,37854,2,1,P|118:88|107:48,1,50,0|0,3:0|3:0,0:0:0:0:
2,210,38026,5,10,3:0:0:0:
26,241,38112,1,0,3:0:0:0:
62,255,38197,1,0,3:0:0:0:
101,249,38283,1,0,3:0:0:0:
130,222,38369,2,1,P|146:200|140:159,1,50,10|0,3:0|3:0,0:0:0:0:
25,332,38540,5,0,3:0:0:0:
25,332,38626,1,0,3:0:0:0:
25,332,38712,1,8,2:3:0:0:
63,377,38797,1,8,2:3:0:0:
122,384,38883,1,0,3:0:0:0:
178,364,38969,1,0,3:0:0:0:
208,313,39054,1,8,2:3:0:0:
227,261,39140,1,8,2:3:0:0:
268,233,39226,1,0,3:0:0:0:
313,234,39312,1,0,3:0:0:0:
346,255,39397,1,8,2:3:0:0:
353,289,39483,1,8,2:3:0:0:
344,317,39569,1,0,3:0:0:0:
324,331,39654,1,0,3:0:0:0:
303,331,39740,1,0,3:0:0:0:
290,323,39826,1,8,2:3:0:0:
285,314,39912,2,1,L|274:217,1,50,8|8,2:3|2:3,0:0:0:0:
328,159,40083,6,1,B|345:145|345:145|457:170,1,100,4|0,3:0|3:0,0:0:0:0:
445,179,40340,1,0,3:0:0:0:
445,179,40426,1,10,2:3:0:0:
511,75,40597,2,1,L|502:9,1,50,0|0,3:0|3:0,0:0:0:0:
411,0,40769,6,1,B|394:-14|394:-14|282:11,1,100,2|0,3:0|3:0,0:0:0:0:
303,23,41026,1,0,3:0:0:0:
303,23,41112,1,10,2:3:0:0:
210,107,41283,2,1,L|157:99,1,50,0|0,3:0|3:0,0:0:0:0:
80,23,41454,6,1,L|133:15,1,50,2|0,3:2|0:0,0:0:0:0:
213,118,41626,2,1,L|160:110,1,50,0|0,3:0|3:0,0:0:0:0:
66,164,41797,2,1,B|60:207|60:207|62:212|62:212|54:276,1,100,10|0,2:3|3:0,0:0:0:0:
71,288,42054,1,0,3:0:0:0:
71,288,42140,1,2,3:0:0:0:
196,366,42312,1,0,3:0:0:0:
196,366,42397,1,0,3:0:0:0:
196,366,42483,2,1,B|190:323|190:323|192:318|192:318|184:254,1,100,10|0,2:3|3:0,0:0:0:0:
241,191,42740,1,0,3:0:0:0:
247,180,42826,5,14,3:0:0:0:
292,158,42912,1,0,3:0:0:0:
340,166,42997,1,0,3:0:0:0:
377,199,43083,1,0,3:0:0:0:
425,210,43169,1,2,3:0:0:0:
471,193,43254,1,0,3:0:0:0:
496,149,43340,1,0,3:0:0:0:
495,98,43426,1,0,3:0:0:0:
459,62,43512,5,12,3:0:0:0:
412,98,43597,1,0,3:0:0:0:
406,157,43683,1,0,3:0:0:0:
428,212,43769,1,0,3:0:0:0:
471,252,43854,1,8,3:0:0:0:
488,304,43940,1,0,3:0:0:0:
467,355,44026,1,8,3:0:0:0:
416,376,44112,1,8,3:0:0:0:
363,360,44197,6,1,L|355:290,1,50,12|8,2:3|2:3,0:0:0:0:
260,257,44369,2,1,L|252:327,1,50,0|0,3:0|3:0,0:0:0:0:
286,384,44540,1,0,3:0:0:0:
328,201,44712,1,10,3:0:0:0:
178,342,44883,5,8,2:3:0:0:
128,348,44969,1,8,2:3:0:0:
87,330,45054,1,8,2:3:0:0:
73,292,45140,1,8,2:3:0:0:
82,258,45226,1,8,2:3:0:0:
108,243,45312,1,8,2:3:0:0:
132,244,45397,1,8,2:3:0:0:
148,255,45483,1,8,2:3:0:0:
151,269,45569,5,6,3:0:0:0:
134,305,45654,1,0,3:0:0:0:
94,313,45740,1,0,3:0:0:0:
56,298,45826,1,0,3:0:0:0:
40,260,45912,1,10,3:0:0:0:
50,221,45997,1,0,3:0:0:0:
88,197,46083,2,1,P|116:195|154:215,1,50,4|0,3:2|3:0,0:0:0:0:
229,284,46254,5,2,3:0:0:0:
270,312,46340,1,0,3:0:0:0:
319,316,46426,1,0,3:0:0:0:
364,294,46512,1,0,3:0:0:0:
382,248,46597,2,1,P|389:223|381:184,1,50,10|0,3:0|3:0,0:0:0:0:
280,140,46769,6,1,P|278:164|284:188,3,50,0|0|2|0,3:0|3:0|3:0|3:0,0:0:0:0:
398,62,47112,1,0,3:0:0:0:
370,33,47197,1,0,3:0:0:0:
330,27,47283,1,10,3:0:0:0:
292,41,47369,1,0,3:0:0:0:
265,70,47454,1,0,3:0:0:0:
226,82,47540,1,0,3:0:0:0:
189,66,47626,2,1,P|172:48|165:6,3,50,2|0|0|0,3:2|3:0|3:0|3:0,0:0:0:0:
87,127,47969,2,1,P|111:121|150:136,3,50,10|0|0|0,3:0|3:0|3:0|3:0,0:0:0:0:
45,64,48312,5,6,3:0:0:0:
11,113,48397,1,0,3:0:0:0:
16,172,48483,1,0,3:0:0:0:
58,214,48569,1,0,3:0:0:0:
117,221,48654,1,10,3:0:0:0:
169,191,48740,1,0,3:0:0:0:
211,148,48826,1,0,3:0:0:0:
271,146,48912,1,0,3:0:0:0:
321,177,48997,1,2,3:0:0:0:
343,233,49083,1,0,3:0:0:0:
395,261,49169,1,0,3:0:0:0:
453,253,49254,1,0,3:0:0:0:
487,203,49340,1,10,3:0:0:0:
482,143,49426,1,0,3:0:0:0:
434,105,49512,1,0,3:0:0:0:
374,107,49597,1,0,3:0:0:0:
326,144,49683,6,1,L|332:213,1,50,2|0,3:0|3:0,0:0:0:0:
251,265,49854,2,1,L|257:196,1,50,8|8,3:0|2:3,0:0:0:0:
173,150,50026,1,8,2:3:0:0:
173,150,50112,2,1,L|179:219,2,50,8|8|8,3:0|2:3|2:3,0:0:0:0:
69,64,50369,5,12,3:0:0:0:
62,103,50454,1,0,3:0:0:0:
55,142,50540,1,0,3:0:0:0:
48,181,50626,1,8,3:0:0:0:
17,204,50712,5,8,2:3:0:0:
20,233,50797,1,8,2:3:0:0:
25,262,50883,1,8,2:3:0:0:
31,291,50969,1,8,2:3:0:0:
61,317,51054,5,4,3:0:0:0:
144,227,51226,2,1,P|196:224|267:268,1,100,10|2,2:3|2:0,0:0:0:0:
254,267,51483,1,0,3:0:0:0:
254,267,51569,1,10,2:3:0:0:
339,363,51740,2,1,L|345:284,1,50,2|0,3:2|0:0,0:0:0:0:
407,176,51912,1,10,2:3:0:0:
482,348,52083,2,1,L|476:269,1,50,2|0,2:0|3:0,0:0:0:0:
404,190,52254,1,10,2:3:0:0:
267,336,52426,5,2,3:2:0:0:
320,201,52597,2,1,B|314:152|314:152|316:148|316:148|307:73,1,100,10|2,2:3|2:0,0:0:0:0:
296,87,52854,1,0,3:0:0:0:
296,87,52940,1,10,2:3:0:0:
203,142,53112,2,1,B|154:136|154:136|150:138|150:138|75:129,1,100,2|10,3:2|2:3,0:0:0:0:
38,25,53454,1,2,3:2:0:0:
38,25,53540,1,0,3:0:0:0:
38,25,53626,1,10,2:3:0:0:
215,8,53797,5,12,3:0:0:0:
265,40,53883,1,0,3:0:0:0:
271,99,53969,1,0,3:0:0:0:
249,154,54054,1,0,3:0:0:0:
194,179,54140,1,0,3:0:0:0:
149,219,54226,1,0,3:0:0:0:
143,278,54312,1,0,3:0:0:0:
169,331,54397,1,0,3:0:0:0:
227,344,54483,2,1,P|260:339|289:307,3,50,12|0|0|0,3:0|3:0|3:0|3:0,0:0:0:0:
338,370,54826,2,1,P|352:339|341:297,3,50,10|0|0|0,3:0|3:0|3:0|3:0,0:0:0:0:
308,238,55169,6,1,L|249:247,1,50,10|0,3:0|0:0,0:0:0:0:
370,178,55340,2,1,L|429:187,1,50,10|0,2:3|0:0,0:0:0:0:
306,119,55512,2,1,B|257:124|257:124|251:122|251:122|191:128,1,100,2|10,2:0|2:3,0:0:0:0:
46,163,55854,1,2,3:2:0:0:
21,194,55940,1,0,3:0:0:0:
19,234,56026,1,8,2:3:0:0:
39,268,56112,1,8,2:3:0:0:
76,282,56197,1,0,3:0:0:0:
115,275,56283,1,0,3:0:0:0:
145,248,56369,1,8,2:3:0:0:
151,208,56454,1,8,2:3:0:0:
135,171,56540,5,4,3:2:0:0:
27,342,56712,1,10,2:0:0:0:
229,272,56883,1,2,2:0:0:0:
229,272,56969,1,0,3:0:0:0:
229,272,57054,1,10,2:0:0:0:
46,131,57226,6,1,B|51:180|51:180|55:184|55:184|60:232,1,100,2|10,3:2|2:0,0:0:0:0:
171,65,57569,1,2,2:0:0:0:
171,65,57654,1,0,3:0:0:0:
171,65,57740,1,10,2:0:0:0:
314,182,57912,5,2,3:2:0:0:
144,134,58083,1,10,2:0:0:0:
356,72,58254,1,2,2:0:0:0:
356,72,58340,1,0,3:0:0:0:
356,72,58426,1,10,2:0:0:0:
224,248,58597,6,1,B|229:199|229:199|233:195|233:195|238:147,1,100,2|10,3:2|2:0,0:0:0:0:
283,79,58854,1,2,2:1:0:0:
283,79,58940,2,1,L|345:72,1,50,2|2,3:2|3:1,0:0:0:0:
391,180,59112,2,1,L|329:173,1,50,10|2,2:0|2:1,0:0:0:0:
452,47,59283,5,12,3:0:0:0:
486,96,59369,1,0,3:0:0:0:
480,155,59454,1,0,3:0:0:0:
441,200,59540,1,0,3:0:0:0:
382,216,59626,1,0,3:0:0:0:
324,198,59712,1,0,3:0:0:0:
295,145,59797,5,12,3:0:0:0:
351,125,59883,1,0,3:0:0:0:
408,142,59969,1,0,3:0:0:0:
443,189,60054,1,0,3:0:0:0:
444,249,60140,1,0,3:0:0:0:
413,301,60226,1,0,3:0:0:0:
354,315,60312,5,10,3:0:0:0:
347,255,60397,1,0,3:0:0:0:
386,209,60483,1,0,3:0:0:0:
446,204,60569,1,0,3:0:0:0:
497,234,60654,6,1,L|504:301,3,50,12|8|8|8,3:0|2:3|2:3|2:3,0:0:0:0:
417,371,60997,2,1,L|424:304,1,45,8|8,3:0|2:3,0:0:0:0:
334,263,61169,2,1,L|341:330,1,45,8|8,2:3|2:3,0:0:0:0:
279,374,61340,2,1,L|215:366,3,40,8|8|8|8,3:0|2:3|2:3|2:3,0:0:0:0:
193,288,61683,2,1,L|257:280,3,35,8|8|8|8,3:0|2:3|2:3|2:3,0:0:0:0:
86,360,62026,5,4,3:0:0:0:
33,330,62112,1,0,3:0:0:0:
18,272,62197,1,10,3:0:0:0:
39,215,62283,1,0,3:0:0:0:
91,185,62369,1,2,3:0:0:0:
150,188,62454,1,0,3:0:0:0:
198,223,62540,1,10,3:0:0:0:
249,254,62626,1,0,3:0:0:0:
307,241,62712,1,2,3:0:0:0:
344,194,62797,1,0,3:0:0:0:
346,133,62883,1,10,3:0:0:0:
306,88,62969,1,0,3:0:0:0:
246,82,63054,1,2,3:0:0:0:
191,107,63140,1,0,3:0:0:0:
130,109,63226,1,10,3:0:0:0:
88,65,63312,1,0,3:0:0:0:
92,5,63397,6,1,L|157:13,3,60,2|0|10|0,3:0|3:0|3:0|3:0,0:0:0:0:
339,73,63740,1,2,3:0:0:0:
385,128,63826,1,0,3:0:0:0:
385,200,63912,1,10,3:0:0:0:
341,256,63997,1,0,3:0:0:0:
269,266,64083,1,2,3:0:0:0:
206,229,64169,1,0,3:0:0:0:
167,169,64254,1,10,3:0:0:0:
97,149,64340,1,0,3:0:0:0:
30,177,64426,1,2,3:0:0:0:
10,246,64512,1,0,3:0:0:0:
33,313,64597,1,8,3:0:0:0:
101,335,64683,1,8,3:0:0:0:
165,302,64769,6,1,L|153:226,3,60,4|0|10|0,3:2|3:0|3:0|3:0,0:0:0:0:
262,115,65112,2,1,L|250:191,1,60,2|0,3:0|3:0,0:0:0:0:
342,261,65283,2,1,L|330:185,1,60,10|0,3:0|3:0,0:0:0:0:
448,66,65454,5,2,3:0:0:0:
403,25,65540,1,0,3:0:0:0:
342,21,65626,1,10,3:0:0:0:
290,51,65712,1,0,3:0:0:0:
260,102,65797,1,2,3:0:0:0:
211,136,65883,1,0,3:0:0:0:
150,133,65969,1,10,3:0:0:0:
106,92,66054,1,0,3:0:0:0:
116,32,66140,5,2,3:0:0:0:
180,15,66226,1,0,3:0:0:0:
238,46,66312,1,10,3:0:0:0:
254,109,66397,1,0,3:0:0:0:
214,161,66483,1,2,3:0:0:0:
168,209,66569,1,0,3:0:0:0:
164,274,66654,1,10,3:0:0:0:
207,324,66740,1,0,3:0:0:0:
272,329,66826,1,2,3:0:0:0:
324,288,66912,1,0,3:0:0:0:
321,222,66997,2,1,L|240:231,1,60,8|8,2:3|2:3,0:0:0:0:
381,346,67169,1,0,3:0:0:0:
381,346,67254,1,0,3:0:0:0:
381,346,67340,2,1,L|462:355,1,60,8|8,2:3|2:3,0:0:0:0:
495,268,67512,6,1,L|483:189,3,60,4|0|10|0,3:0|3:0|3:0|3:0,0:0:0:0:
386,136,67854,2,1,L|374:215,1,60,2|0,3:0|3:0,0:0:0:0:
470,131,68026,2,1,L|458:52,1,60,10|0,3:0|3:0,0:0:0:0:
308,23,68197,1,2,3:0:0:0:
260,28,68283,1,0,3:0:0:0:
212,34,68369,1,10,2:3:0:0:
165,41,68454,1,0,3:0:0:0:
117,51,68540,2,1,L|106:118,3,60,2|0|10|0,3:0|3:0|2:3|3:0,0:0:0:0:
29,277,68883,5,12,3:0:0:0:
81,316,68969,1,0,3:0:0:0:
146,318,69054,1,0,3:0:0:0:
201,281,69140,1,0,3:0:0:0:
216,216,69226,1,0,3:0:0:0:
188,155,69312,1,0,3:0:0:0:
125,134,69397,5,12,3:0:0:0:
108,198,69483,1,0,3:0:0:0:
132,259,69569,1,0,3:0:0:0:
192,282,69654,1,0,3:0:0:0:
257,271,69740,1,0,3:0:0:0:
293,216,69826,1,0,3:0:0:0:
290,149,69912,2,1,L|223:153,3,60,12|0|0|0,3:0|3:0|3:0|3:0,0:0:0:0:
111,253,70254,5,4,3:2:0:0:
160,305,70340,1,0,3:0:0:0:
231,315,70426,1,10,3:0:0:0:
297,286,70512,1,0,3:0:0:0:
340,229,70597,1,2,3:0:0:0:
411,216,70683,1,0,3:0:0:0:
476,245,70769,1,10,3:0:0:0:
493,314,70854,1,0,3:0:0:0:
465,380,70940,5,2,3:0:0:0:
397,353,71026,1,0,3:0:0:0:
378,283,71112,1,10,3:0:0:0:
417,223,71197,1,0,3:0:0:0:
453,160,71283,1,2,3:0:0:0:
425,93,71369,1,8,3:0:0:0:
359,64,71454,1,8,3:0:0:0:
289,84,71540,1,8,3:0:0:0:
268,153,71626,5,8,3:0:0:0:
332,196,71712,1,8,2:3:0:0:
407,178,71797,1,8,2:3:0:0:
445,109,71883,1,8,2:3:0:0:
424,33,71969,1,8,3:0:0:0:
351,5,72054,1,8,2:3:0:0:
276,27,72140,1,8,2:3:0:0:
241,97,72226,1,8,2:3:0:0:
262,172,72312,1,8,3:0:0:0:
227,241,72397,1,8,2:3:0:0:
149,254,72483,1,8,2:3:0:0:
85,208,72569,1,8,2:3:0:0:
80,130,72654,1,8,3:0:0:0:
137,76,72740,1,8,2:3:0:0:
214,85,72826,2,1,L|200:173,1,60,8|8,2:3|2:3,0:0:0:0:
93,305,72997,5,4,3:0:0:0:
125,355,73083,1,0,3:0:0:0:
183,370,73169,1,10,3:0:0:0:
239,351,73254,1,0,3:0:0:0:
268,298,73340,1,2,3:2:0:0:
262,238,73426,1,0,3:0:0:0:
226,189,73512,1,10,3:0:0:0:
225,129,73597,1,0,3:0:0:0:
259,79,73683,1,2,3:2:0:0:
318,73,73769,1,0,3:0:0:0:
372,96,73854,1,10,3:0:0:0:
391,153,73940,1,0,3:0:0:0:
373,210,74026,1,2,3:2:0:0:
347,264,74112,1,0,3:0:0:0:
358,322,74197,1,10,3:0:0:0:
407,355,74283,1,0,3:0:0:0:
467,352,74369,6,1,L|479:270,3,60,2|0|10|0,3:2|3:0|3:0|3:0,0:0:0:0:
382,130,74712,1,2,3:2:0:0:
319,96,74797,1,0,3:0:0:0:
247,105,74883,1,10,3:0:0:0:
204,163,74969,1,0,3:0:0:0:
162,220,75054,1,2,3:2:0:0:
92,238,75140,1,0,3:0:0:0:
24,212,75226,1,10,3:0:0:0:
3,142,75312,1,0,3:0:0:0:
24,73,75397,1,2,3:2:0:0:
90,43,75483,1,0,3:0:0:0:
161,50,75569,1,10,3:0:0:0:
199,110,75654,1,2,3:2:0:0:
191,181,75740,6,1,L|123:190,3,60,4|0|10|0,3:2|3:0|3:0|3:0,0:0:0:0:
233,46,76083,2,1,L|301:55,1,60,2|0,3:2|3:0,0:0:0:0:
339,137,76254,2,1,L|271:146,1,60,10|0,3:0|3:0,0:0:0:0:
384,34,76426,5,2,3:2:0:0:
444,62,76512,1,0,3:0:0:0:
472,120,76597,1,10,3:0:0:0:
455,184,76683,1,0,3:0:0:0:
403,226,76769,1,2,3:2:0:0:
377,279,76854,1,0,3:0:0:0:
384,338,76940,1,10,3:0:0:0:
429,377,77026,1,0,3:0:0:0:
489,373,77112,5,2,3:1:0:0:
472,315,77197,1,0,3:0:0:0:
419,286,77283,1,10,3:0:0:0:
358,288,77369,1,2,3:2:0:0:
314,328,77454,1,0,3:0:0:0:
266,365,77540,1,2,3:1:0:0:
205,369,77626,1,10,3:2:0:0:
158,330,77712,1,0,3:0:0:0:
153,270,77797,1,2,3:1:0:0:
182,217,77883,1,0,3:0:0:0:
237,192,77969,1,10,3:2:0:0:
262,138,78054,1,2,3:1:0:0:
242,81,78140,1,0,3:0:0:0:
192,59,78226,1,2,3:1:0:0:
144,68,78312,1,10,3:0:0:0:
125,105,78397,1,0,3:0:0:0:
134,139,78483,6,1,L|200:132,3,60,4|0|10|0,3:0|3:0|3:0|3:0,0:0:0:0:
37,199,78826,2,1,L|24:269,1,60,2|0,3:2|3:0,0:0:0:0:
125,319,78997,2,1,L|114:259,1,60,10|0,3:0|3:0,0:0:0:0:
229,198,79169,1,2,3:2:0:0:
276,204,79254,1,0,3:0:0:0:
323,211,79340,1,10,3:0:0:0:
370,218,79426,1,0,3:0:0:0:
417,224,79512,2,1,L|481:207,3,60,2|0|10|2,3:2|3:0|3:0|3:2,0:0:0:0:
500,46,79854,5,12,3:0:0:0:
443,11,79940,1,0,3:0:0:0:
377,16,80026,1,0,3:0:0:0:
333,65,80112,1,0,3:0:0:0:
333,130,80197,1,0,3:0:0:0:
373,182,80283,1,0,3:0:0:0:
439,185,80369,5,12,3:0:0:0:
437,119,80454,1,0,3:0:0:0:
392,69,80540,1,0,3:0:0:0:
326,60,80626,1,0,3:0:0:0:
264,83,80712,1,0,3:0:0:0:
236,142,80797,1,0,3:0:0:0:
249,206,80883,2,1,L|322:199,3,60,12|0|0|0,3:0|3:0|3:0|3:0,0:0:0:0:
193,32,81226,5,8,3:0:0:0:
118,6,81312,1,8,2:3:0:0:
43,26,81397,1,8,2:3:0:0:
9,96,81483,1,8,2:3:0:0:
21,173,81569,1,8,3:0:0:0:
79,223,81654,1,8,2:3:0:0:
156,231,81740,1,8,2:3:0:0:
218,183,81826,1,8,2:3:0:0:
295,169,81912,1,8,3:0:0:0:
365,200,81997,1,8,2:3:0:0:
386,275,82083,1,8,2:3:0:0:
361,349,82169,1,8,2:3:0:0:
290,380,82254,1,8,3:0:0:0:
212,366,82340,1,8,2:3:0:0:
173,297,82426,1,8,2:3:0:0:
189,220,82512,1,8,2:3:0:0:
257,177,82597,6,1,P|156:294|181:138,1,419.999999999999,4|0,3:0|0:0,0:0:0:0:
317,116,83969,6,1,B|369:121|369:121|374:120|374:120|440:127,1,100,4|0,3:0|3:0,0:0:0:0:
441,140,84226,1,0,3:0:0:0:
441,140,84312,1,10,2:3:0:0:
382,296,84483,1,0,3:0:0:0:
382,296,84569,1,0,3:0:0:0:
382,296,84654,1,2,3:2:0:0:
212,159,84826,1,0,3:0:0:0:
212,159,84912,1,0,3:0:0:0:
212,159,84997,2,1,L|231:74,1,50,10|0,2:3|0:0,0:0:0:0:
136,6,85169,2,1,L|155:91,1,50,0|0,3:0|3:0,0:0:0:0:
73,106,85340,6,1,P|44:157|34:208,1,100,2|0,3:2|3:0,0:0:0:0:
110,251,85597,1,0,3:0:0:0:
110,251,85683,2,1,P|139:302|149:353,1,100,10|0,2:3|3:0,0:0:0:0:
145,369,85940,1,0,3:0:0:0:
145,369,86026,1,2,3:2:0:0:
235,239,86197,1,0,3:0:0:0:
235,239,86283,1,0,3:0:0:0:
235,239,86369,2,1,L|300:228,1,50,10|0,2:3|0:0,0:0:0:0:
337,333,86540,2,1,L|272:322,1,50,0|0,3:0|3:0,0:0:0:0:
462,240,86712,6,1,B|489:279|489:279|482:346,1,100,4|0,3:0|3:0,0:0:0:0:
376,210,86969,1,0,3:0:0:0:
376,210,87054,2,1,B|370:157|370:157|397:118,1,100,10|0,2:3|3:0,0:0:0:0:
512,24,87312,1,0,3:0:0:0:
512,24,87397,2,1,B|469:54|469:54|422:50,1,100,2|0,3:0|3:0,0:0:0:0:
282,0,87654,1,0,3:0:0:0:
282,0,87740,2,1,B|330:21|330:21|350:64,1,100,10|0,2:3|3:0,0:0:0:0:
276,164,87997,1,0,3:0:0:0:
276,164,88083,6,1,B|235:159|235:159|226:161|226:161|177:156,1,100,4|0,3:2|3:0,0:0:0:0:
118,91,88340,1,0,3:0:0:0:
118,91,88426,2,1,B|77:96|77:96|68:94|68:94|19:99,1,100,10|0,2:3|3:0,0:0:0:0:
3,118,88683,1,0,3:0:0:0:
3,118,88769,1,12,3:1:0:0:
90,249,88940,1,0,3:0:0:0:
90,249,89026,1,0,3:0:0:0:
90,249,89112,5,8,2:3:0:0:
139,255,89197,1,8,2:3:0:0:
188,262,89283,1,8,2:3:0:0:
237,269,89369,1,8,2:3:0:0:
286,275,89454,5,4,3:0:0:0:
411,156,89626,1,0,3:0:0:0:
411,156,89712,1,0,3:0:0:0:
411,156,89797,2,1,P|425:183|428:239,1,50,10|0,2:3|0:0,0:0:0:0:
484,258,89969,2,1,P|469:284|424:318,1,50,0|0,3:0|3:0,0:0:0:0:
437,372,90140,2,1,P|398:375|330:352,1,100,2|0,3:2|3:0,0:0:0:0:
276,286,90397,1,0,3:0:0:0:
276,286,90483,2,1,P|237:282|169:305,1,100,10|0,2:3|3:0,0:0:0:0:
91,363,90740,1,0,3:0:0:0:
91,363,90826,6,1,B|73:347|73:347|94:234,1,100,2|0,3:0|3:0,0:0:0:0:
103,253,91083,1,0,3:0:0:0:
103,253,91169,1,10,2:3:0:0:
193,147,91340,1,0,3:0:0:0:
193,147,91426,1,0,3:0:0:0:
193,147,91512,2,1,B|185:103|185:103|187:101|187:101|176:29,1,100,2|0,3:2|3:0,0:0:0:0:
63,0,91769,1,0,3:0:0:0:
63,0,91854,2,1,B|55:43|55:43|57:45|57:45|46:117,1,100,10|0,2:3|3:0,0:0:0:0:
86,183,92112,1,0,3:0:0:0:
91,193,92197,5,12,3:0:0:0:
130,223,92283,1,0,3:0:0:0:
180,224,92369,1,0,3:0:0:0:
222,198,92454,1,0,3:0:0:0:
249,155,92540,1,0,3:0:0:0:
290,126,92626,1,0,3:0:0:0:
340,123,92712,1,0,3:0:0:0:
386,139,92797,1,0,3:0:0:0:
409,183,92883,5,12,3:0:0:0:
354,208,92969,1,0,3:0:0:0:
295,195,93054,1,0,3:0:0:0:
266,141,93140,1,0,3:0:0:0:
275,81,93226,1,0,3:0:0:0:
323,45,93312,1,0,3:0:0:0:
382,45,93397,1,8,3:0:0:0:
434,83,93483,1,8,3:0:0:0:
439,153,93569,6,1,L|368:165,3,50,8|8|0|0,3:0|2:3|3:0|3:0,0:0:0:0:
308,268,93912,2,1,L|237:256,3,50,6|0|8|8,3:0|3:0|2:3|2:3,0:0:0:0:
228,161,94254,2,1,L|157:173,3,50,8|8|8|8,3:0|2:3|2:3|2:3,0:0:0:0:
88,237,94597,1,8,2:3:0:0:
64,269,94683,1,8,2:3:0:0:
65,304,94769,1,0,3:0:0:0:
78,330,94854,1,0,3:0:0:0:
102,347,94940,6,1,B|146:340|146:340|150:341|150:341|217:332,1,100,4|0,3:0|3:0,0:0:0:0:
221,319,95197,1,0,3:0:0:0:
221,319,95283,1,10,2:3:0:0:
123,163,95454,1,0,3:0:0:0:
272,87,95626,2,1,P|305:138|300:193,1,100,2|0,3:2|0:0,0:0:0:0:
239,218,95883,1,0,3:0:0:0:
239,218,95969,2,1,L|160:210,1,50,10|0,2:3|0:0,0:0:0:0:
131,77,96140,2,1,B|86:82|86:82|83:80|83:80|23:87,1,100,0|2,3:0|3:0,0:0:0:0:
118,244,96483,5,0,0:0:0:0:
118,244,96569,1,0,3:0:0:0:
118,244,96654,1,10,2:3:0:0:
211,36,96826,1,0,3:0:0:0:
329,120,96997,2,1,L|397:111,1,50,2|0,3:0|0:0,0:0:0:0:
327,14,97169,2,1,L|259:5,1,50,0|0,0:0|3:0,0:0:0:0:
335,111,97340,2,1,L|403:102,1,50,10|0,2:3|0:0,0:0:0:0:
453,39,97512,1,0,3:0:0:0:
453,39,97597,1,0,3:0:0:0:
453,39,97683,6,1,B|475:60|475:60|457:156,1,100,2|0,3:0|0:0,0:0:0:0:
450,151,97940,1,0,3:0:0:0:
450,151,98026,1,10,2:3:0:0:
302,218,98197,1,0,3:0:0:0:
451,295,98369,2,1,L|463:230,1,50,2|0,3:2|0:0,0:0:0:0:
338,289,98540,2,1,L|350:354,1,50,0|0,0:0|3:0,0:0:0:0:
442,286,98712,2,1,L|454:221,1,50,10|0,2:3|0:0,0:0:0:0:
382,120,98883,1,8,3:0:0:0:
382,120,98969,1,8,2:3:0:0:
382,120,99054,5,12,3:0:0:0:
340,91,99140,1,0,3:0:0:0:
290,86,99226,1,0,3:0:0:0:
246,110,99312,1,0,3:0:0:0:
215,149,99397,1,12,3:0:0:0:
178,176,99483,1,0,3:0:0:0:
133,171,99569,1,0,3:0:0:0:
100,140,99654,1,0,3:0:0:0:
90,95,99740,5,12,2:3:0:0:
149,84,99826,1,8,3:0:0:0:
202,111,99912,1,8,3:0:0:0:
227,164,99997,1,8,3:0:0:0:
213,222,100083,2,1,L|152:233,1,50,12|0,3:0|3:0,0:0:0:0:
68,290,100254,6,1,B|98:257|98:257|261:290,1,200,8|0,3:0|3:0,0:0:0:0:
265,307,100683,1,0,3:0:0:0:
265,307,100769,1,10,2:3:0:0:
345,384,100940,1,0,3:0:0:0:
406,246,101112,2,1,L|467:257,1,50,2|0,3:2|0:0,0:0:0:0:
341,194,101283,2,1,L|280:205,1,50,0|0,0:0|3:0,0:0:0:0:
410,259,101454,2,1,L|471:270,1,50,10|0,2:3|0:0,0:0:0:0:
508,194,101626,2,1,B|502:147|502:147|504:144|504:144|497:91,1,100,0|2,3:0|3:2,0:0:0:0:
373,18,101969,5,0,0:0:0:0:
373,18,102054,1,0,3:0:0:0:
373,18,102140,1,10,2:3:0:0:
253,105,102312,2,1,B|200:124|150:87|167:75|119:34|54:63,1,200,0|0,3:0|0:0,0:0:0:0:
53,77,102740,1,0,3:0:0:0:
53,77,102826,1,10,2:3:0:0:
105,239,102997,1,0,3:0:0:0:
105,239,103083,1,0,3:0:0:0:
105,239,103169,5,12,3:0:0:0:
142,270,103254,1,0,3:0:0:0:
192,273,103340,1,0,3:0:0:0:
233,244,103426,1,0,3:0:0:0:
260,202,103512,1,12,3:0:0:0:
305,182,103597,1,0,3:0:0:0:
355,183,103683,1,0,3:0:0:0:
398,208,103769,1,0,3:0:0:0:
417,253,103854,5,12,3:0:0:0:
377,274,103940,1,0,3:0:0:0:
332,265,104026,1,0,3:0:0:0:
303,230,104112,1,0,3:0:0:0:
295,184,104197,2,1,L|304:126,1,50,10|0,3:0|3:0,0:0:0:0:
360,18,104369,5,0,3:0:0:0:
360,18,104454,1,0,3:0:0:0:
360,18,104540,1,8,2:3:0:0:
322,65,104626,1,8,2:3:0:0:
262,75,104712,1,0,3:0:0:0:
207,52,104797,1,0,3:0:0:0:
164,8,104883,1,8,2:3:0:0:
104,1,104969,1,8,2:3:0:0:
47,20,105054,1,0,3:0:0:0:
17,72,105140,1,0,3:0:0:0:
22,131,105226,1,8,2:3:0:0:
65,164,105312,1,8,2:3:0:0:
103,194,105397,1,0,3:0:0:0:
111,238,105483,1,0,3:0:0:0:
94,274,105569,1,8,2:3:0:0:
63,289,105654,1,8,2:3:0:0:
33,285,105740,1,0,3:0:0:0:
17,265,105826,1,0,3:0:0:0:
16,243,105912,6,1,B|64:237|64:237|69:239|69:239|126:233,1,100,4|0,3:0|3:0,0:0:0:0:
136,246,106169,1,0,3:0:0:0:
136,246,106254,1,10,2:3:0:0:
237,340,106426,2,1,L|246:278,1,50,0|0,3:0|3:0,0:0:0:0:
315,242,106597,2,1,B|308:193|308:193|309:190|309:190|301:137,1,100,2|0,3:0|3:0,0:0:0:0:
292,131,106854,1,0,3:0:0:0:
292,131,106940,1,10,2:3:0:0:
189,62,107112,1,0,3:0:0:0:
189,62,107197,1,0,3:0:0:0:
189,62,107283,6,1,L|264:53,1,50,2|0,3:2|0:0,0:0:0:0:
297,2,107454,2,1,L|372:11,1,50,0|0,3:0|3:0,0:0:0:0:
393,76,107626,2,1,B|445:69|445:69|450:71|450:71|531:62,1,100,10|0,2:3|3:0,0:0:0:0:
508,55,107883,1,0,3:0:0:0:
508,55,107969,1,2,3:0:0:0:
381,237,108140,1,0,3:0:0:0:
381,237,108226,1,0,3:0:0:0:
381,237,108312,2,1,P|359:202|366:134,1,100,10|0,2:3|3:0,0:0:0:0:
469,182,108569,1,0,3:0:0:0:
475,192,108654,5,14,3:0:0:0:
501,234,108740,1,0,3:0:0:0:
494,283,108826,1,0,3:0:0:0:
457,317,108912,1,0,3:0:0:0:
407,323,108997,1,2,3:0:0:0:
359,306,109083,1,0,3:0:0:0:
321,272,109169,1,0,3:0:0:0:
271,269,109254,1,0,3:0:0:0:
225,290,109340,6,1,P|239:315|250:352,1,50,12|0,3:0|3:0,0:0:0:0:
369,215,109512,2,1,P|377:191|390:169,1,50,0|0,3:0|3:0,0:0:0:0:
278,78,109683,1,8,3:0:0:0:
222,82,109769,1,8,2:3:0:0:
181,118,109854,1,8,2:3:0:0:
176,172,109940,1,8,2:3:0:0:
210,214,110026,6,1,L|262:207,3,50,8|8|8|8,3:0|2:3|2:3|2:3,0:0:0:0:
126,337,110369,2,1,L|136:275,1,50,8|0,2:3|3:0,0:0:0:0:
29,247,110540,2,1,L|39:309,1,50,12|0,3:1|0:0,0:0:0:0:
94,166,110712,6,1,B|103:115|103:115|101:111|101:111|114:27,1,100,8|8,2:3|2:3,0:0:0:0:
210,4,111054,1,12,3:1:0:0:
272,115,111226,1,8,2:3:0:0:
272,115,111312,1,8,2:3:0:0:
272,115,111397,5,6,3:0:0:0:
305,136,111483,1,0,3:0:0:0:
345,136,111569,1,0,3:0:0:0:
380,119,111654,1,0,3:0:0:0:
405,87,111740,1,10,3:0:0:0:
444,78,111826,1,0,3:0:0:0:
483,85,111912,1,4,3:2:0:0:
508,115,111997,1,0,3:0:0:0:
509,155,112083,5,2,3:0:0:0:
458,158,112169,1,0,3:0:0:0:
418,128,112254,1,0,3:0:0:0:
405,79,112340,1,0,3:0:0:0:
423,32,112426,2,1,P|446:16|494:10,1,50,10|0,3:0|3:0,0:0:0:0:
332,65,112597,6,1,P|309:49|261:43,3,50,0|0|2|0,3:0|3:0|3:0|3:0,0:0:0:0:
190,4,112940,1,0,3:0:0:0:
151,16,113026,1,0,3:0:0:0:
127,48,113112,1,10,3:0:0:0:
120,87,113197,1,0,3:0:0:0:
131,125,113283,1,0,3:0:0:0:
162,149,113369,1,0,3:0:0:0:
201,152,113454,2,1,P|226:146|260:116,3,50,2|0|0|0,3:2|3:0|3:0|3:0,0:0:0:0:
338,170,113797,2,1,P|330:194|339:239,3,50,10|0|0|0,3:0|3:0|3:0|3:0,0:0:0:0:
178,320,114140,5,6,3:0:0:0:
218,282,114226,1,0,3:0:0:0:
273,278,114312,1,0,3:0:0:0:
316,310,114397,1,0,3:0:0:0:
348,354,114483,1,10,3:0:0:0:
400,370,114569,1,0,3:0:0:0:
451,352,114654,1,0,3:0:0:0:
483,307,114740,1,0,3:0:0:0:
485,251,114826,1,2,3:0:0:0:
456,209,114912,1,0,3:0:0:0:
410,188,114997,1,0,3:0:0:0:
362,170,115083,1,0,3:0:0:0:
328,132,115169,1,10,3:0:0:0:
324,82,115254,1,0,3:0:0:0:
348,38,115340,1,0,3:0:0:0:
395,20,115426,1,0,3:0:0:0:
443,33,115512,6,1,B|435:69|435:69|282:96,1,150,4|0,3:0|0:0,0:0:0:0:
159,55,115854,2,1,B|167:19|167:19|320:-8,1,150,4|0,3:2|0:0,0:0:0:0:
221,139,116197,2,1,B|213:175|213:175|60:202,1,150,4|0,3:0|0:0,0:0:0:0:
26,153,116540,1,4,3:2:0:0:
11,190,116626,1,8,2:3:0:0:
15,234,116712,1,8,2:3:0:0:
48,270,116797,1,8,2:3:0:0:
102,277,116883,5,4,3:0:0:0:
229,129,117054,2,1,B|282:122|282:122|286:123|286:123|343:115,1,100,10|2,2:3|2:0,0:0:0:0:
354,126,117312,1,0,3:0:0:0:
354,126,117397,1,10,2:3:0:0:
498,280,117569,2,1,L|506:217,1,50,2|0,3:2|0:0,0:0:0:0:
450,102,117740,1,10,2:3:0:0:
356,276,117912,2,1,L|348:213,1,50,2|0,2:0|3:0,0:0:0:0:
447,115,118083,1,10,2:3:0:0:
440,333,118254,5,2,3:2:0:0:
280,199,118426,2,1,P|238:199|161:246,1,100,10|2,2:3|2:0,0:0:0:0:
176,246,118683,1,0,3:0:0:0:
176,246,118769,1,10,2:3:0:0:
66,362,118940,2,1,B|73:311|73:311|76:310|76:310|85:246,1,100,2|10,3:2|2:3,0:0:0:0:
31,139,119283,1,2,3:2:0:0:
31,139,119369,1,0,3:0:0:0:
31,139,119454,1,10,2:3:0:0:
128,28,119626,5,12,3:0:0:0:
185,10,119712,1,0,3:0:0:0:
241,29,119797,1,0,3:0:0:0:
276,77,119883,1,0,3:0:0:0:
289,135,119969,1,0,3:0:0:0:
335,171,120054,1,0,3:0:0:0:
395,174,120140,1,0,3:0:0:0:
442,137,120226,1,0,3:0:0:0:
447,77,120312,5,12,3:0:0:0:
397,73,120397,1,0,3:0:0:0:
353,98,120483,1,0,3:0:0:0:
335,145,120569,1,0,3:0:0:0:
348,192,120654,1,10,3:0:0:0:
388,221,120740,1,0,3:0:0:0:
417,261,120826,1,0,3:0:0:0:
416,311,120912,1,0,3:0:0:0:
385,349,120997,5,10,3:0:0:0:
491,203,121169,1,10,2:3:0:0:
285,269,121340,1,2,2:0:0:0:
285,269,121426,1,0,3:0:0:0:
285,269,121512,1,10,2:3:0:0:
123,132,121683,5,2,3:2:0:0:
139,95,121769,1,0,3:0:0:0:
174,76,121854,1,8,2:3:0:0:
213,80,121940,1,8,2:3:0:0:
244,104,122026,1,0,3:0:0:0:
266,137,122112,1,0,3:0:0:0:
303,148,122197,1,8,2:3:0:0:
341,136,122283,1,8,2:3:0:0:
367,106,122369,5,4,3:2:0:0:
272,20,122540,1,10,2:0:0:0:
243,222,122712,1,2,2:0:0:0:
243,222,122797,1,0,3:0:0:0:
243,222,122883,1,10,2:0:0:0:
444,147,123054,6,1,B|451:200|451:200|455:203|455:203|460:255,1,100,2|10,3:2|2:0,0:0:0:0:
376,358,123397,1,2,2:0:0:0:
376,358,123483,1,0,3:0:0:0:
376,358,123569,1,10,2:0:0:0:
306,172,123740,5,2,3:2:0:0:
463,324,123912,1,10,2:0:0:0:
245,299,124083,1,2,2:0:0:0:
245,299,124169,1,0,3:0:0:0:
245,299,124254,1,10,2:0:0:0:
30,372,124426,6,1,B|78:366|78:366|83:368|83:368|151:359,1,100,2|10,3:2|2:0,0:0:0:0:
170,299,124683,1,2,2:1:0:0:
170,299,124769,2,1,L|157:227,1,50,2|2,3:2|3:1,0:0:0:0:
102,203,124940,2,1,L|115:131,1,50,10|2,2:0|2:1,0:0:0:0:
181,73,125112,5,12,3:0:0:0:
236,52,125197,1,0,3:0:0:0:
294,67,125283,1,0,3:0:0:0:
330,114,125369,1,0,3:0:0:0:
332,173,125454,1,0,3:0:0:0:
307,227,125540,1,0,3:0:0:0:
250,248,125626,5,12,3:0:0:0:
236,189,125712,1,0,3:0:0:0:
255,132,125797,1,0,3:0:0:0:
308,104,125883,1,0,3:0:0:0:
368,100,125969,1,0,3:0:0:0:
419,130,126054,1,0,3:0:0:0:
441,185,126140,5,10,3:0:0:0:
385,208,126226,1,0,3:0:0:0:
326,193,126312,1,0,3:0:0:0:
294,142,126397,1,0,3:0:0:0:
294,81,126483,6,1,L|362:73,3,50,12|8|8|8,3:0|2:3|2:3|2:3,0:0:0:0:
440,177,126826,2,1,L|372:169,1,45,8|8,3:0|2:3,0:0:0:0:
342,263,126997,2,1,L|410:255,1,45,8|8,2:3|2:3,0:0:0:0:
464,337,127169,2,1,L|473:276,3,40,8|8|8|8,3:0|2:3|2:3|2:3,0:0:0:0:
334,350,127512,2,1,L|343:411,3,35,8|8|8|8,3:0|2:3|2:3|2:3,0:0:0:0:
235,274,127854,5,4,3:0:0:0:
186,315,127940,1,0,3:0:0:0:
122,314,128026,1,10,3:0:0:0:
71,275,128112,1,0,3:0:0:0:
60,212,128197,1,2,3:0:0:0:
91,156,128283,1,0,3:0:0:0:
151,137,128369,1,10,3:0:0:0:
212,152,128454,1,0,3:0:0:0:
249,203,128540,1,2,3:0:0:0:
306,229,128626,1,0,3:0:0:0:
369,221,128712,1,10,3:0:0:0:
410,174,128797,1,0,3:0:0:0:
417,110,128883,1,2,3:0:0:0:
382,56,128969,1,0,3:0:0:0:
320,44,129054,1,10,3:0:0:0:
258,62,129140,1,0,3:0:0:0:
233,120,129226,6,1,L|305:128,3,63.5,2|0|10|0,3:0|3:0|3:0|3:0,0:0:0:0:
168,18,129569,1,2,3:0:0:0:
93,8,129654,1,0,3:0:0:0:
27,47,129740,1,10,3:0:0:0:
9,121,129826,1,0,3:0:0:0:
39,191,129912,1,2,3:0:0:0:
108,219,129997,1,0,3:0:0:0:
183,207,130083,1,10,3:0:0:0:
229,146,130169,1,0,3:0:0:0:
300,122,130254,1,2,3:0:0:0:
370,151,130340,1,0,3:0:0:0:
389,224,130426,1,8,2:3:0:0:
357,293,130512,1,8,3:0:0:0:
282,304,130597,6,1,L|273:231,3,63.5,4|0|10|0,3:2|3:0|3:0|3:0,0:0:0:0:
471,169,130940,2,1,L|462:242,1,63.5,2|0,3:0|3:0,0:0:0:0:
356,143,131112,2,1,L|347:70,1,63.5,10|0,3:0|3:0,0:0:0:0:
491,15,131283,5,2,3:0:0:0:
464,72,131369,1,0,3:0:0:0:
403,88,131454,1,10,3:0:0:0:
342,69,131540,1,0,3:0:0:0:
300,20,131626,1,2,3:0:0:0:
237,7,131712,1,0,3:0:0:0:
180,34,131797,1,10,3:0:0:0:
166,96,131883,1,0,3:0:0:0:
193,153,131969,5,2,3:0:0:0:
241,103,132054,1,0,3:0:0:0:
231,33,132140,1,10,3:0:0:0:
168,1,132226,1,0,3:0:0:0:
99,14,132312,1,2,3:0:0:0:
69,76,132397,1,0,3:0:0:0:
85,144,132483,1,10,3:0:0:0:
142,183,132569,1,0,3:0:0:0:
170,246,132654,1,2,3:0:0:0:
151,313,132740,1,0,3:0:0:0:
86,340,132826,2,1,L|79:263,1,63.5,8|8,2:3|2:3,0:0:0:0:
221,195,132997,1,0,3:0:0:0:
221,195,133083,1,0,3:0:0:0:
221,195,133169,2,1,L|214:272,1,63.5,8|8,2:3|2:3,0:0:0:0:
266,365,133340,6,1,L|337:354,3,63.5,4|0|10|0,3:0|3:0|3:0|3:0,0:0:0:0:
402,238,133683,2,1,L|331:227,1,63.5,2|0,3:0|3:0,0:0:0:0:
431,327,133854,2,1,L|502:316,1,63.5,10|0,3:0|3:0,0:0:0:0:
465,168,134026,1,2,3:0:0:0:
414,160,134112,1,0,3:0:0:0:
364,153,134197,1,10,2:3:0:0:
313,146,134283,1,0,3:0:0:0:
262,138,134369,2,1,L|189:157,3,63.5000000000001,2|0|10|0,3:0|3:0|2:3|3:0,0:0:0:0:
16,119,134712,5,12,3:0:0:0:
39,53,134797,1,0,3:0:0:0:
103,25,134883,1,0,3:0:0:0:
171,41,134969,1,0,3:0:0:0:
210,98,135054,1,0,3:0:0:0:
203,167,135140,1,0,3:0:0:0:
153,216,135226,5,12,3:0:0:0:
103,165,135312,1,0,3:0:0:0:
105,95,135397,1,0,3:0:0:0:
155,45,135483,1,0,3:0:0:0:
224,41,135569,1,0,3:0:0:0:
278,83,135654,1,0,3:0:0:0:
285,152,135740,2,1,L|213:159,3,63.5,12|0|0|0,3:0|3:0|3:0|3:0,0:0:0:0:
37,209,136083,5,4,3:2:0:0:
52,283,136169,1,0,3:0:0:0:
113,327,136254,1,10,3:0:0:0:
189,327,136340,1,0,3:0:0:0:
252,283,136426,1,2,3:0:0:0:
297,221,136512,1,0,3:0:0:0:
370,205,136597,1,10,3:0:0:0:
441,232,136683,1,0,3:0:0:0:
464,304,136769,5,2,3:0:0:0:
399,343,136854,1,0,3:0:0:0:
323,332,136940,1,10,3:0:0:0:
270,276,137026,1,0,3:0:0:0:
267,199,137112,1,2,3:0:0:0:
307,135,137197,1,8,3:0:0:0:
382,120,137283,1,8,3:0:0:0:
454,143,137369,1,8,3:0:0:0:
483,212,137454,5,8,3:0:0:0:
414,259,137540,1,8,2:3:0:0:
332,246,137626,1,8,2:3:0:0:
283,178,137712,1,8,2:3:0:0:
284,96,137797,1,8,3:0:0:0:
240,25,137883,1,8,2:3:0:0:
159,5,137969,1,8,2:3:0:0:
81,31,138054,1,8,2:3:0:0:
50,107,138140,1,8,3:0:0:0:
68,187,138226,1,8,2:3:0:0:
133,238,138312,1,8,2:3:0:0:
214,236,138397,1,8,2:3:0:0:
282,188,138483,1,8,3:0:0:0:
296,106,138569,1,8,2:3:0:0:
244,42,138654,2,1,L|222:113,1,63.5000000000001,8|8,2:3|2:3,0:0:0:0:
160,318,138826,5,4,3:0:0:0:
195,370,138912,1,0,3:0:0:0:
256,384,138997,1,10,3:0:0:0:
315,361,139083,1,0,3:0:0:0:
347,306,139169,1,2,3:2:0:0:
344,243,139254,1,0,3:0:0:0:
299,197,139340,1,10,3:0:0:0:
241,170,139426,1,0,3:0:0:0:
221,109,139512,1,2,3:2:0:0:
233,47,139597,1,0,3:0:0:0:
285,10,139683,1,10,3:0:0:0:
348,11,139769,1,0,3:0:0:0:
399,47,139854,1,2,3:2:0:0:
408,110,139940,1,0,3:0:0:0:
386,169,140026,1,10,3:0:0:0:
327,194,140112,1,0,3:0:0:0:
264,183,140197,6,1,L|277:102,3,63.5,2|0|10|0,3:2|3:0|3:0|3:0,0:0:0:0:
163,13,140540,1,2,3:2:0:0:
86,13,140626,1,0,3:0:0:0:
25,59,140712,1,10,3:0:0:0:
17,134,140797,1,0,3:0:0:0:
50,202,140883,1,2,3:2:0:0:
123,222,140969,1,0,3:0:0:0:
194,198,141054,1,10,3:0:0:0:
237,135,141140,1,0,3:0:0:0:
307,105,141226,1,2,3:2:0:0:
381,120,141312,1,0,3:0:0:0:
411,188,141397,1,10,3:0:0:0:
389,261,141483,1,2,3:2:0:0:
314,279,141569,6,1,L|306:203,3,63.5,4|0|10|0,3:2|3:0|3:0|3:0,0:0:0:0:
255,374,141912,2,1,L|188:364,1,63.5,2|0,3:2|3:0,0:0:0:0:
138,244,142083,2,1,L|205:234,1,63.5,10|0,3:0|3:0,0:0:0:0:
74,349,142254,1,2,3:2:0:0:
25,298,142340,1,0,3:0:0:0:
28,228,142426,1,10,3:0:0:0:
78,179,142512,1,0,3:0:0:0:
147,172,142597,1,2,3:2:0:0:
201,128,142683,1,0,3:0:0:0:
207,58,142769,1,10,3:0:0:0:
157,9,142854,1,0,3:0:0:0:
87,13,142940,5,2,3:1:0:0:
112,71,143026,1,0,3:0:0:0:
174,83,143112,1,10,3:0:0:0:
233,61,143197,1,2,3:2:0:0:
274,13,143283,1,0,3:0:0:0:
337,6,143369,1,2,3:1:0:0:
390,39,143454,1,10,3:2:0:0:
402,101,143540,1,0,3:0:0:0:
370,156,143626,1,2,3:1:0:0:
318,193,143712,1,0,3:0:0:0:
304,254,143797,1,10,3:2:0:0:
330,311,143883,1,2,3:1:0:0:
389,332,143969,1,0,3:0:0:0:
443,315,144054,1,2,3:1:0:0:
454,265,144140,1,10,3:0:0:0:
431,226,144226,1,0,3:0:0:0:
392,224,144312,6,1,L|326:235,3,63.5,4|0|10|0,3:0|3:0|3:0|3:0,0:0:0:0:
227,360,144654,2,1,L|293:371,1,63.5,2|0,3:2|3:0,0:0:0:0:
230,263,144826,2,1,L|164:274,1,63.5,10|0,3:0|3:0,0:0:0:0:
60,362,144997,1,2,3:2:0:0:
67,311,145083,1,0,3:0:0:0:
74,260,145169,1,10,3:0:0:0:
82,210,145254,1,0,3:0:0:0:
92,160,145340,2,1,L|74:83,3,63.5000000000001,2|0|10|2,3:2|3:0|3:0|3:2,0:0:0:0:
203,11,145683,5,12,3:0:0:0:
181,77,145769,1,0,3:0:0:0:
199,143,145854,1,0,3:0:0:0:
261,175,145940,1,0,3:0:0:0:
330,169,146026,1,0,3:0:0:0:
372,113,146112,1,0,3:0:0:0:
374,43,146197,5,12,3:0:0:0:
304,54,146283,1,0,3:0:0:0:
262,110,146369,1,0,3:0:0:0:
265,179,146454,1,0,3:0:0:0:
310,232,146540,1,0,3:0:0:0:
378,245,146626,1,0,3:0:0:0:
439,210,146712,2,1,L|431:122,3,63.5,12|0|0|0,3:0|3:0|3:0|3:0,0:0:0:0:
270,19,147054,5,8,3:0:0:0:
188,4,147140,1,8,2:3:0:0:
111,35,147226,1,8,2:3:0:0:
86,113,147312,1,8,2:3:0:0:
112,190,147397,1,8,3:0:0:0:
182,232,147483,1,8,2:3:0:0:
264,222,147569,1,8,2:3:0:0:
323,165,147654,1,8,2:3:0:0:
405,163,147740,1,8,3:0:0:0:
474,208,147826,1,8,2:3:0:0:
492,288,147912,1,8,2:3:0:0:
455,361,147997,1,8,2:3:0:0:
374,381,148083,1,8,3:0:0:0:
296,352,148169,1,8,2:3:0:0:
265,276,148254,1,8,2:3:0:0:
290,197,148340,1,8,2:3:0:0:
367,162,148426,6,1,B|426:213|362:302|293:272|261:235|268:226|211:163|127:210,1,350,4|0,3:0|0:0,0:0:0:0:
21,273,149797,5,4,3:2:0:0:
76,329,149969,2,1,B|141:318|141:318|147:320|147:320|214:307,2,120,4|2|0,3:2|2:0|3:0,0:0:0:0:
204,195,150826,1,12,2:3:0:0:
296,340,150997,1,8,2:3:0:0:
345,347,151083,1,8,2:3:0:0:
394,353,151169,6,1,L|381:286,3,50,8|8|8|8,3:0|2:3|2:3|2:3,0:0:0:0:
472,249,151512,2,1,L|459:316,3,45,8|8|8|8,3:0|2:3|2:3|2:3,0:0:0:0:
366,215,151854,2,1,L|353:148,3,40,8|8|8|8,3:0|2:3|2:3|2:3,0:0:0:0:
451,118,152197,2,1,L|438:185,3,35,8|8|8|8,3:0|2:3|2:3|2:3,0:0:0:0:
392,63,152540,5,4,3:0:0:0:
329,32,152626,1,0,3:0:0:0:
261,43,152712,1,0,3:0:0:0:
224,100,152797,1,0,3:0:0:0:
201,165,152883,1,10,3:0:0:0:
139,197,152969,1,0,3:0:0:0:
72,181,153054,1,0,3:0:0:0:
37,120,153140,1,0,3:0:0:0:
47,51,153226,2,1,L|119:41,1,57.5,2|0,3:0|3:0,0:0:0:0:
193,176,153397,2,1,L|121:166,1,57.5,0|0,3:0|3:0,0:0:0:0:
249,49,153569,5,10,3:0:0:0:
292,37,153654,1,0,3:0:0:0:
335,52,153740,1,0,3:0:0:0:
365,85,153826,1,0,3:0:0:0:
376,130,153912,2,1,P|369:161|332:195,1,57.5,2|0,3:0|3:0,0:0:0:0:
360,304,154083,5,0,3:0:0:0:
318,359,154169,1,0,3:0:0:0:
250,371,154254,1,10,3:0:0:0:
194,329,154340,1,0,3:0:0:0:
185,260,154426,1,0,3:0:0:0:
127,220,154512,1,0,3:0:0:0:
59,227,154597,1,2,3:0:0:0:
30,283,154683,1,0,3:0:0:0:
55,334,154769,1,0,3:0:0:0:
106,338,154854,1,0,3:0:0:0:
140,307,154940,2,1,L|151:245,1,57.5,10|0,3:0|3:0,0:0:0:0:
123,93,155112,1,0,3:0:0:0:
123,93,155197,1,0,3:0:0:0:
123,93,155283,5,4,3:1:0:0:
168,57,155369,1,0,3:0:0:0:
225,57,155454,1,0,3:0:0:0:
272,89,155540,1,0,3:0:0:0:
294,142,155626,1,10,3:0:0:0:
349,173,155712,1,0,3:0:0:0:
411,165,155797,1,0,3:0:0:0:
448,114,155883,1,0,3:0:0:0:
439,51,155969,1,2,3:2:0:0:
385,8,156054,1,0,3:0:0:0:
315,11,156140,1,0,3:0:0:0:
263,57,156226,1,0,3:0:0:0:
259,126,156312,2,1,L|326:119,3,57.5,12|0|0|0,3:0|3:0|3:0|3:0,0:0:0:0:
479,207,156654,5,4,3:2:0:0:
498,279,156740,1,0,3:0:0:0:
466,347,156826,1,8,2:3:0:0:
392,361,156912,1,8,2:3:0:0:
327,325,156997,1,8,3:0:0:0:
298,261,157083,1,8,2:3:0:0:
243,229,157169,1,8,2:3:0:0:
186,238,157254,1,8,2:3:0:0:
161,283,157340,1,8,3:0:0:0:
169,328,157426,1,8,2:3:0:0:
200,352,157512,1,0,3:0:0:0:
234,353,157597,1,0,3:0:0:0:
258,338,157683,2,1,L|266:264,1,57.5,8|8,2:3|2:3,0:0:0:0:
79,229,157854,2,1,L|87:303,1,57.5,8|8,2:3|2:3,0:0:0:0:
273,167,158026,5,6,3:0:0:0:
299,103,158112,1,0,3:0:0:0:
283,36,158197,1,0,3:0:0:0:
219,8,158283,1,0,3:0:0:0:
150,16,158369,1,10,3:0:0:0:
106,68,158454,1,0,3:0:0:0:
104,137,158540,1,0,3:0:0:0:
150,188,158626,1,0,3:0:0:0:
218,199,158712,5,2,3:2:0:0:
232,155,158797,1,0,3:0:0:0:
220,110,158883,1,0,3:0:0:0:
183,81,158969,1,0,3:0:0:0:
137,79,159054,1,10,3:0:0:0:
96,100,159140,1,0,3:0:0:0:
75,141,159226,1,0,3:0:0:0:
80,186,159312,1,0,3:0:0:0:
104,224,159397,5,4,3:2:0:0:
175,246,159483,1,0,3:0:0:0:
243,215,159569,1,0,3:0:0:0:
277,149,159654,1,0,3:0:0:0:
331,97,159740,1,10,3:0:0:0:
405,91,159826,1,0,3:0:0:0:
473,120,159912,1,0,3:0:0:0:
496,190,159997,1,0,3:0:0:0:
470,260,160083,1,2,3:2:0:0:
408,303,160169,1,0,3:0:0:0:
335,295,160254,1,0,3:0:0:0:
280,243,160340,1,0,3:0:0:0:
278,168,160426,2,1,L|353:178,3,57.5,10|0|0|0,3:0|3:0|3:0|3:0,0:0:0:0:
370,52,160769,5,12,3:0:0:0:
298,15,160854,1,0,3:0:0:0:
218,27,160940,1,0,3:0:0:0:
172,93,161026,1,0,3:0:0:0:
175,173,161112,1,0,3:0:0:0:
237,223,161197,1,0,3:0:0:0:
250,302,161283,1,0,3:0:0:0:
212,373,161369,1,0,3:0:0:0:
132,383,161454,1,12,3:0:0:0:
59,348,161540,1,0,3:0:0:0:
42,269,161626,1,0,3:0:0:0:
73,196,161712,1,0,3:0:0:0:
148,170,161797,1,0,3:0:0:0:
225,194,161883,1,0,3:0:0:0:
248,271,161969,1,0,3:0:0:0:
216,344,162054,1,0,3:0:0:0:
137,364,162140,5,8,3:0:0:0:
114,292,162226,1,8,2:3:0:0:
151,233,162312,1,8,2:3:0:0:
213,227,162397,1,8,2:3:0:0:
256,264,162483,1,8,3:0:0:0:
277,311,162569,1,8,2:3:0:0:
319,326,162654,1,8,2:3:0:0:
358,316,162740,1,8,2:3:0:0:
379,288,162826,1,8,3:0:0:0:
378,259,162912,1,8,2:3:0:0:
363,241,162997,1,8,2:3:0:0:
347,234,163083,1,8,2:3:0:0:
335,235,163169,2,1,L|322:296,3,57.5,8|8|8|8,3:0|3:0|3:0|3:0,0:0:0:0:
225,155,163512,5,4,3:0:0:0:
201,138,163597,1,0,3:0:0:0:
172,133,163683,1,0,3:0:0:0:
143,137,163769,1,0,3:0:0:0:
121,156,163854,1,10,3:0:0:0:
90,171,163940,1,0,3:0:0:0:
55,170,164026,1,0,3:0:0:0:
27,149,164112,1,0,3:0:0:0:
15,116,164197,1,2,3:1:0:0:
19,75,164283,1,0,3:0:0:0:
48,47,164369,1,0,3:0:0:0:
87,43,164454,1,0,3:0:0:0:
124,58,164540,1,10,3:0:0:0:
151,94,164626,1,0,3:0:0:0:
202,101,164712,1,0,3:0:0:0:
253,75,164797,1,0,3:0:0:0:
269,13,164883,5,2,3:1:0:0:
200,20,164969,1,0,3:0:0:0:
159,75,165054,1,0,3:0:0:0:
166,143,165140,1,0,3:0:0:0:
219,187,165226,1,10,3:0:0:0:
282,189,165312,1,0,3:0:0:0:
321,147,165397,1,0,3:0:0:0:
365,120,165483,1,0,3:0:0:0:
411,123,165569,1,2,3:1:0:0:
441,149,165654,1,0,3:0:0:0:
448,182,165740,1,0,3:0:0:0:
438,209,165826,1,0,3:0:0:0:
417,220,165912,2,1,L|346:229,1,57.5,10|0,3:0|3:0,0:0:0:0:
234,313,166083,1,2,3:1:0:0:
234,313,166169,1,2,3:2:0:0:
234,313,166254,5,10,3:0:0:0:
249,320,166340,1,0,3:0:0:0:
266,321,166426,1,0,3:0:0:0:
282,315,166512,1,0,3:0:0:0:
295,304,166597,1,0,3:0:0:0:
303,282,166683,1,0,3:0:0:0:
296,259,166769,1,0,3:0:0:0:
277,246,166854,1,0,3:0:0:0:
254,243,166940,1,12,3:0:0:0:
226,251,167026,1,0,3:0:0:0:
201,275,167112,1,0,3:0:0:0:
162,287,167197,1,0,3:0:0:0:
118,270,167283,1,10,3:0:0:0:
93,224,167369,1,0,3:0:0:0:
106,168,167454,2,1,L|174:155,1,57.5,0|0,3:0|3:0,0:0:0:0:
311,81,167626,5,12,3:0:0:0:
268,26,167712,1,0,3:0:0:0:
200,12,167797,1,0,3:0:0:0:
133,29,167883,1,0,3:0:0:0:
92,84,167969,1,10,3:2:0:0:
90,152,168054,1,0,3:0:0:0:
130,207,168140,1,0,3:0:0:0:
196,225,168226,1,0,3:0:0:0:
260,200,168312,1,2,3:1:0:0:
322,200,168397,1,0,3:0:0:0:
372,238,168483,1,0,3:0:0:0:
378,301,168569,1,0,3:0:0:0:
343,353,168654,1,10,3:2:0:0:
287,368,168740,1,2,3:1:0:0:
232,350,168826,1,2,3:2:0:0:
204,299,168912,1,2,3:1:0:0:
212,241,168997,6,1,L|277:233,3,57.5,12|0|0|0,3:1|3:0|3:0|3:0,0:0:0:0:
132,327,169340,2,1,L|67:319,3,57.5,0|0|0|0,3:0|3:0|3:0|3:0,0:0:0:0:
8,182,169683,2,1,L|16:255,3,57.5,12|0|0|0,3:0|3:0|3:0|3:0,0:0:0:0:
151,116,170026,2,1,L|143:189,3,57.5,0|0|0|0,3:0|3:0|3:0|3:0,0:0:0:0:
81,46,170369,6,1,L|16:54,1,57.5,10|0,3:0|3:0,0:0:0:0:
84,207,170540,1,0,3:0:0:0:
128,244,170626,1,0,3:0:0:0:
179,245,170712,1,8,3:0:0:0:
220,224,170797,1,0,3:0:0:0:
239,188,170883,1,0,3:0:0:0:
265,166,170969,1,0,3:0:0:0:
293,161,171054,1,12,3:0:0:0:
315,165,171140,1,0,3:0:0:0:
329,173,171226,1,0,3:0:0:0:
337,185,171312,1,0,3:0:0:0:
339,195,171397,2,1,L|326:254,3,57.5,8|0|0|0,3:0|3:0|3:0|3:0,0:0:0:0:
276,49,171740,5,4,3:0:0:0:
334,11,171826,1,0,3:0:0:0:
403,15,171912,1,0,3:0:0:0:
460,52,171997,1,0,3:0:0:0:
469,120,172083,1,10,3:0:0:0:
441,183,172169,1,0,3:0:0:0:
381,216,172254,1,0,3:0:0:0:
314,198,172340,1,0,3:0:0:0:
268,145,172426,1,2,3:2:0:0:
199,133,172512,1,0,3:0:0:0:
136,160,172597,1,0,3:0:0:0:
118,226,172683,1,0,3:0:0:0:
135,293,172769,1,10,3:0:0:0:
195,325,172854,1,0,3:0:0:0:
263,315,172940,1,0,3:0:0:0:
311,265,173026,1,0,3:0:0:0:
307,195,173112,6,1,L|235:203,3,57.5,2|0|0|0,3:2|3:0|3:0|3:0,0:0:0:0:
128,299,173454,2,1,L|56:291,3,57.5,10|0|0|0,3:0|3:0|3:0|3:0,0:0:0:0:
40,67,173797,5,8,2:3:0:0:
99,12,173883,1,8,2:3:0:0:
179,4,173969,1,0,3:0:0:0:
240,55,174054,1,0,3:0:0:0:
258,133,174140,1,8,2:3:0:0:
322,182,174226,1,8,2:3:0:0:
402,186,174312,1,8,2:3:0:0:
465,137,174397,1,8,2:3:0:0:
482,58,174483,5,4,3:0:0:0:
426,35,174569,1,0,3:0:0:0:
368,51,174654,1,10,3:0:0:0:
339,103,174740,1,0,3:0:0:0:
346,162,174826,1,2,3:2:0:0:
387,205,174912,1,0,3:0:0:0:
437,237,174997,1,10,3:0:0:0:
447,296,175083,1,0,3:0:0:0:
418,349,175169,1,2,3:2:0:0:
359,361,175254,1,0,3:0:0:0:
306,331,175340,1,10,3:0:0:0:
287,273,175426,1,0,3:0:0:0:
242,232,175512,1,2,3:2:0:0:
182,232,175597,1,0,3:0:0:0:
131,265,175683,1,10,3:0:0:0:
122,324,175769,1,0,3:0:0:0:
153,374,175854,5,2,3:2:0:0:
192,328,175940,1,0,3:0:0:0:
187,274,176026,1,10,3:0:0:0:
145,239,176112,1,0,3:0:0:0:
97,232,176197,1,2,3:2:0:0:
56,205,176283,1,0,3:0:0:0:
39,166,176369,1,10,3:0:0:0:
44,124,176454,1,0,3:0:0:0:
69,98,176540,5,2,3:2:0:0:
114,82,176626,1,0,3:0:0:0:
164,100,176712,1,10,3:0:0:0:
194,143,176797,1,0,3:0:0:0:
249,166,176883,1,2,3:2:0:0:
308,155,176969,1,0,3:0:0:0:
349,104,177054,1,10,3:0:0:0:
346,37,177140,1,2,3:1:0:0:
280,5,177226,6,1,B|266:34|248:63|248:63|344:45|344:45|352:39|352:39|412:28|412:28|452:36|479:70,1,300,6|2,3:2|3:2,0:0:0:0:
497,165,177740,1,10,3:0:0:0:
497,165,177826,1,0,3:0:0:0:
497,165,177912,1,2,3:2:0:0:
489,211,177997,1,0,3:0:0:0:
480,258,178083,2,1,L|470:328,1,60,10|0,3:0|3:0,0:0:0:0:
363,384,178254,2,1,L|353:314,1,60,2|0,3:2|3:0,0:0:0:0:
468,265,178426,2,1,L|458:335,1,60,10|0,3:0|3:0,0:0:0:0:
314,232,178597,5,2,3:2:0:0:
262,200,178683,1,0,3:0:0:0:
202,205,178769,1,10,3:0:0:0:
164,251,178854,1,0,3:0:0:0:
114,285,178940,1,2,3:2:0:0:
65,285,179026,1,0,3:0:0:0:
22,263,179112,1,10,3:0:0:0:
4,218,179197,1,0,3:0:0:0:
13,170,179283,1,2,3:0:0:0:
41,139,179369,1,0,3:0:0:0:
82,132,179454,1,10,3:0:0:0:
120,148,179540,1,0,3:0:0:0:
143,182,179626,5,8,3:0:0:0:
72,197,179712,1,8,2:3:0:0:
17,151,179797,1,8,2:3:0:0:
13,78,179883,1,8,2:3:0:0:
59,22,179969,5,4,3:0:0:0:
96,51,180054,1,0,3:0:0:0:
112,96,180140,1,10,3:0:0:0:
102,143,180226,1,0,3:0:0:0:
75,183,180312,1,2,3:2:0:0:
38,213,180397,1,0,3:0:0:0:
19,257,180483,1,10,3:0:0:0:
25,304,180569,1,0,3:0:0:0:
58,337,180654,5,2,3:2:0:0:
85,297,180740,1,0,3:0:0:0:
129,278,180826,1,10,3:0:0:0:
177,281,180912,1,0,3:0:0:0:
215,308,180997,1,2,3:2:0:0:
238,350,181083,1,0,3:0:0:0:
282,367,181169,1,10,3:0:0:0:
328,356,181254,1,0,3:0:0:0:
361,321,181340,5,2,3:2:0:0:
371,280,181426,1,0,3:0:0:0:
355,241,181512,1,10,3:0:0:0:
316,226,181597,1,0,3:0:0:0:
287,194,181683,1,2,3:2:0:0:
280,152,181769,1,0,3:0:0:0:
297,114,181854,1,10,3:0:0:0:
334,95,181940,1,0,3:0:0:0:
375,98,182026,5,2,3:1:0:0:
389,124,182112,1,2,3:1:0:0:
389,153,182197,1,10,3:0:0:0:
372,178,182283,1,2,3:1:0:0:
343,188,182369,2,1,L|264:178,3,50,8|8|8|8,3:0|2:3|2:3|2:3,0:0:0:0:
227,92,182712,6,1,B|159:90|118:144|118:144|102:81|37:53,1,250,12|0,3:0|0:0,0:0:0:0:
16,151,183740,2,1,L|22:214,2,50.0000000000001,0|0|0,3:0|3:0|3:0,0:0:0:0:
110,262,184083,6,1,B|82:299|24:307|24:307|110:381|192:317|176:305|220:247|307:266|307:266|331:322|405:322,1,525.000000000001,12|0,3:0|0:0,0:0:0:0:
486,232,185454,5,4,3:0:0:0:
509,168,185540,1,0,3:0:0:0:
488,103,185626,1,10,3:0:0:0:
426,73,185712,1,0,3:0:0:0:
359,81,185797,1,2,3:0:0:0:
309,127,185883,1,0,3:0:0:0:
280,188,185969,1,10,3:0:0:0:
218,215,186054,1,0,3:0:0:0:
150,205,186140,1,2,3:0:0:0:
111,149,186226,1,0,3:0:0:0:
110,81,186312,1,10,3:0:0:0:
149,26,186397,1,0,3:0:0:0:
215,15,186483,1,2,3:0:0:0:
278,37,186569,1,0,3:0:0:0:
321,88,186654,1,10,3:0:0:0:
387,100,186740,1,0,3:0:0:0:
446,66,186826,6,1,L|437:-7,3,67.5,2|0|10|0,3:0|3:0|3:0|3:0,0:0:0:0:
223,127,187169,1,2,3:0:0:0:
189,201,187254,1,0,3:0:0:0:
209,280,187340,1,10,3:0:0:0:
281,320,187426,1,0,3:0:0:0:
363,316,187512,1,2,3:0:0:0:
425,263,187597,1,0,3:0:0:0:
429,180,187683,1,10,3:0:0:0:
380,112,187769,1,0,3:0:0:0:
302,87,187854,1,2,3:0:0:0:
220,103,187940,1,0,3:0:0:0:
165,165,188026,1,8,3:0:0:0:
83,178,188112,1,8,3:0:0:0:
12,136,188197,6,1,L|3:51,3,67.5,4|0|10|0,3:2|3:0|3:0|3:0,0:0:0:0:
162,18,188540,2,1,L|153:103,1,67.5,2|0,3:0|3:0,0:0:0:0:
242,168,188712,2,1,L|233:83,1,67.5,10|0,3:0|3:0,0:0:0:0:
331,12,188883,5,2,3:0:0:0:
398,7,188969,1,0,3:0:0:0:
455,40,189054,1,10,3:0:0:0:
470,105,189140,1,0,3:0:0:0:
445,168,189226,1,2,3:0:0:0:
389,206,189312,1,0,3:0:0:0:
365,268,189397,1,10,3:0:0:0:
386,332,189483,1,0,3:0:0:0:
446,361,189569,5,2,3:0:0:0:
473,299,189654,1,0,3:0:0:0:
451,234,189740,1,10,3:0:0:0:
393,197,189826,1,0,3:0:0:0:
325,203,189912,1,2,3:0:0:0:
279,251,189997,1,0,3:0:0:0:
253,313,190083,1,10,3:0:0:0:
195,349,190169,1,0,3:0:0:0:
128,344,190254,1,2,3:0:0:0:
81,294,190340,1,0,3:0:0:0:
83,226,190426,2,1,L|95:156,1,67.5,8|8,2:3|2:3,0:0:0:0:
212,105,190597,1,0,3:0:0:0:
212,105,190683,1,0,3:0:0:0:
212,105,190769,2,1,L|224:175,1,67.5,8|8,2:3|2:3,0:0:0:0:
108,31,190940,6,1,L|35:39,3,67.5,4|0|10|0,3:0|3:0|3:0|3:0,0:0:0:0:
159,178,191283,2,1,L|226:185,1,67.5,2|0,3:0|3:0,0:0:0:0:
311,24,191454,2,1,L|243:31,1,67.5,10|0,3:0|3:0,0:0:0:0:
279,135,191626,1,2,3:0:0:0:
332,143,191712,1,0,3:0:0:0:
384,151,191797,1,10,3:0:0:0:
437,160,191883,1,0,3:0:0:0:
489,172,191969,2,1,L|505:244,3,67.5,2|0|10|0,3:0|3:0|3:0|3:0,0:0:0:0:
364,373,192312,5,12,3:0:0:0:
294,350,192397,1,0,3:0:0:0:
252,288,192483,1,0,3:0:0:0:
261,214,192569,1,0,3:0:0:0:
316,165,192654,1,0,3:0:0:0:
390,167,192740,1,0,3:0:0:0:
447,214,192826,5,12,3:0:0:0:
389,261,192912,1,0,3:0:0:0:
315,262,192997,1,0,3:0:0:0:
252,221,193083,1,0,3:0:0:0:
234,148,193169,1,0,3:0:0:0:
261,79,193254,1,0,3:0:0:0:
330,51,193340,2,1,L|346:121,3,67.5,12|0|0|0,3:0|3:0|3:0|3:0,0:0:0:0:
83,306,193683,5,4,3:2:0:0:
26,245,193769,1,0,3:0:0:0:
37,164,193854,1,10,3:0:0:0:
106,119,193940,1,0,3:0:0:0:
184,143,194026,1,2,3:0:0:0:
244,199,194112,1,0,3:0:0:0:
325,188,194197,1,10,3:0:0:0:
371,119,194283,1,0,3:0:0:0:
346,39,194369,5,2,3:0:0:0:
271,6,194454,1,0,3:0:0:0:
189,20,194540,1,10,3:0:0:0:
141,87,194626,1,0,3:0:0:0:
147,169,194712,1,2,3:0:0:0:
203,228,194797,1,8,3:0:0:0:
285,233,194883,1,8,3:0:0:0:
353,186,194969,1,8,3:0:0:0:
370,106,195054,5,8,3:0:0:0:
285,131,195140,1,8,2:3:0:0:
253,213,195226,1,8,2:3:0:0:
286,294,195312,1,8,2:3:0:0:
364,330,195397,1,8,3:0:0:0:
449,310,195483,1,8,2:3:0:0:
488,231,195569,1,8,2:3:0:0:
464,147,195654,1,8,2:3:0:0:
390,98,195740,1,8,3:0:0:0:
302,100,195826,1,8,2:3:0:0:
233,154,195912,1,8,2:3:0:0:
194,231,195997,1,8,2:3:0:0:
108,251,196083,1,8,3:0:0:0:
29,210,196169,1,8,2:3:0:0:
8,125,196254,2,1,L|97:115,1,67.5,8|8,2:3|2:3,0:0:0:0:
237,162,196426,5,4,3:0:0:0:
280,214,196512,1,0,3:0:0:0:
344,230,196597,1,10,3:0:0:0:
406,204,196683,1,0,3:0:0:0:
438,144,196769,1,2,3:2:0:0:
423,78,196854,1,0,3:0:0:0:
368,37,196940,1,10,3:0:0:0:
300,34,197026,1,0,3:0:0:0:
242,70,197112,1,2,3:2:0:0:
218,132,197197,1,0,3:0:0:0:
173,182,197283,1,10,3:0:0:0:
106,195,197369,1,0,3:0:0:0:
45,166,197454,1,2,3:2:0:0:
23,101,197540,1,0,3:0:0:0:
38,35,197626,1,10,3:0:0:0:
100,7,197712,1,0,3:0:0:0:
165,19,197797,6,1,L|151:113,3,67.5,2|0|10|0,3:2|3:0|3:0|3:0,0:0:0:0:
42,235,198140,1,2,3:2:0:0:
82,306,198226,1,0,3:0:0:0:
165,319,198312,1,10,3:0:0:0:
241,290,198397,1,0,3:0:0:0:
276,215,198483,1,2,3:2:0:0:
322,146,198569,1,0,3:0:0:0:
402,131,198654,1,10,3:0:0:0:
479,160,198740,1,0,3:0:0:0:
512,237,198826,1,2,3:2:0:0:
497,318,198912,1,0,3:0:0:0:
429,363,198997,1,10,3:0:0:0:
346,360,199083,1,2,3:2:0:0:
290,299,199169,6,1,L|300:213,3,67.5,4|0|10|0,3:2|3:0|3:0|3:0,0:0:0:0:
124,146,199512,2,1,L|134:232,1,67.5,2|0,3:2|3:0,0:0:0:0:
244,124,199683,2,1,L|254:38,1,67.5,10|0,3:0|3:0,0:0:0:0:
93,9,199854,5,2,3:2:0:0:
34,55,199940,1,0,3:0:0:0:
20,127,200026,1,10,3:0:0:0:
47,196,200112,1,0,3:0:0:0:
115,224,200197,1,2,3:2:0:0:
188,213,200283,1,0,3:0:0:0:
238,158,200369,1,10,3:0:0:0:
247,85,200454,1,0,3:0:0:0:
211,19,200540,5,2,3:1:0:0:
163,67,200626,1,0,3:0:0:0:
160,134,200712,1,10,3:0:0:0:
199,187,200797,1,2,3:2:0:0:
262,209,200883,1,0,3:0:0:0:
326,189,200969,1,2,3:1:0:0:
368,137,201054,1,10,3:2:0:0:
435,131,201140,1,0,3:0:0:0:
494,164,201226,1,2,3:1:0:0:
507,230,201312,1,0,3:0:0:0:
481,291,201397,1,10,3:2:0:0:
416,311,201483,1,2,3:1:0:0:
349,296,201569,1,0,3:0:0:0:
305,245,201654,1,2,3:1:0:0:
238,234,201740,1,10,3:0:0:0:
177,264,201826,1,0,3:0:0:0:
153,327,201912,6,1,L|227:337,3,67.5,4|0|10|0,3:0|3:0|3:0|3:0,0:0:0:0:
50,236,202254,2,1,L|37:309,1,67.5,2|0,3:2|3:0,0:0:0:0:
173,188,202426,2,1,L|160:115,1,67.5,10|0,3:0|3:0,0:0:0:0:
46,56,202597,1,2,3:2:0:0:
99,48,202683,1,0,3:0:0:0:
152,40,202769,1,10,3:0:0:0:
205,32,202854,1,0,3:0:0:0:
258,22,202940,2,1,L|328:38,3,67.5,2|0|10|2,3:2|3:0|3:0|3:2,0:0:0:0:
462,127,203283,5,12,3:0:0:0:
432,195,203369,1,0,3:0:0:0:
364,224,203454,1,0,3:0:0:0:
291,206,203540,1,0,3:0:0:0:
253,141,203626,1,0,3:0:0:0:
270,68,203712,1,0,3:0:0:0:
325,19,203797,5,12,3:0:0:0:
377,72,203883,1,0,3:0:0:0:
381,146,203969,1,0,3:0:0:0:
343,209,204054,1,0,3:0:0:0:
271,230,204140,1,0,3:0:0:0:
200,205,204226,1,0,3:0:0:0:
164,139,204312,2,1,L|176:65,3,67.5,12|0|0|0,3:0|3:0|3:0|3:0,0:0:0:0:
30,150,204654,5,8,2:3:0:0:
0,233,204740,1,8,2:3:0:0:
38,312,204826,1,8,2:3:0:0:
123,332,204912,1,8,2:3:0:0:
200,292,204997,1,8,3:0:0:0:
216,205,205083,1,8,2:3:0:0:
266,133,205169,1,8,2:3:0:0:
352,121,205254,1,8,2:3:0:0:
429,162,205340,1,8,3:0:0:0:
455,245,205426,1,8,2:3:0:0:
430,329,205512,1,8,2:3:0:0:
354,372,205597,1,8,2:3:0:0:
266,364,205683,1,8,3:0:0:0:
201,304,205769,1,8,2:3:0:0:
199,216,205854,1,8,2:3:0:0:
243,139,205940,1,8,2:3:0:0:
327,114,206026,5,2,3:0:0:0:
322,195,206112,1,8,2:3:0:0:
257,244,206197,1,8,2:3:0:0:
174,242,206283,1,8,2:3:0:0:
110,191,206369,1,8,2:3:0:0:
95,111,206454,1,8,2:3:0:0:
126,36,206540,1,0,3:0:0:0:
202,4,206626,1,0,3:0:0:0:
284,12,206712,1,8,2:3:0:0:
341,70,206797,1,8,2:3:0:0:
345,152,206883,1,0,3:0:0:0:
303,223,206969,1,0,3:0:0:0:
316,303,207054,1,8,2:3:0:0:
387,344,207140,1,8,2:3:0:0:
468,330,207226,1,0,3:0:0:0:
510,258,207312,1,0,3:0:0:0:
488,179,207397,5,12,3:0:0:0:
256,192,207483,12,1,209626,0:0:0:0:
95,30,209797,5,8,3:0:0:0:
218,252,209969,1,8,3:0:0:0:
411,123,210140,2,1,B|245:95|245:95|187:127|187:127|16:100,1,400,4|0,3:2|0:0,0:0:0:0:
