osu file format v14

[General]
AudioFilename: audio.mp3
AudioLeadIn: 0
PreviewTime: 71785
Countdown: 1
SampleSet: Normal
StackLeniency: 0.7
Mode: 1
LetterboxInBreaks: 0
WidescreenStoryboard: 0

[Editor]
DistanceSpacing: 1.2
BeatDivisor: 4
GridSize: 32
TimelineZoom: 3.899999

[Metadata]
Title:Battle of Arcane Might
TitleUnicode:Battle of Arcane Might
Artist:Twilight Force
ArtistUnicode:Twilight Force
Creator:TimmyAkmed
Version:Twilight Oni
Source:
Tags:nofool metal
BeatmapID:1526487
BeatmapSetID:723140

[Difficulty]
HPDrainRate:4
CircleSize:5
OverallDifficulty:6
ApproachRate:5
SliderMultiplier:1.4
SliderTickRate:1

[Events]
//Background and Video events
0,0,"ArcaneMightBG.jpg",0,-100
//Break Periods
//Storyboard Layer 0 (Background)
//Storyboard Layer 1 (Fail)
//Storyboard Layer 2 (Pass)
//Storyboard Layer 3 (Foreground)
//Storyboard Sound Samples

[TimingPoints]
3173,346.820809248555,4,1,0,80,1,0
3173,-125,4,1,0,80,0,0
14227,-100,4,1,0,80,0,0
18736,-111.111111111111,4,1,0,80,0,0
19430,-108.695652173913,4,1,0,80,0,0
19516,-106.382978723404,4,1,0,80,0,0
19603,-104.166666666667,4,1,0,80,0,0
19690,-102.040816326531,4,1,0,80,0,0
19777,-100,4,1,0,80,0,0
22898,-111.111111111111,4,1,0,80,0,0
27045,-109.89010989011,4,1,0,80,0,0
27161,-108.695652173913,4,1,0,80,0,0
27277,-107.52688172043,4,1,0,80,0,0
27392,-106.382978723404,4,1,0,80,0,0
27508,-105.263157894737,4,1,0,80,0,0
27623,-104.166666666667,4,1,0,80,0,0
27739,-103.092783505155,4,1,0,80,0,0
27855,-102.040816326531,4,1,0,80,0,0
27970,-101.010101010101,4,1,0,80,0,0
28086,-100,4,1,0,80,0,0
71800,-111.111111111111,4,1,0,80,0,0
72146,-104.166666666667,4,1,0,80,0,0
72493,-94.3396226415094,4,1,0,80,0,0
72537,-94.3396226415094,4,1,0,80,0,1
82941,-94.3396226415094,4,1,0,80,0,0
83635,-94.3396226415094,4,1,0,80,0,1
94733,-94.3396226415094,4,1,0,80,0,0
94863,-95.2380952380952,4,1,0,80,0,0
95037,-96.1538461538461,4,1,0,80,0,0
95210,-97.0873786407767,4,1,0,80,0,0
95383,-98.0392156862745,4,1,0,80,0,0
95557,-99.009900990099,4,1,0,80,0,0
95730,-100,4,1,0,80,0,0
117060,-94.3396226415094,4,1,0,80,0,0
125253,-93.4579439252336,4,1,0,80,0,0
125947,-92.5925925925926,4,1,0,80,0,0
130933,-93.4579439252336,4,1,0,80,0,0
131106,-94.3396226415094,4,1,0,80,0,0
131279,-95.2380952380952,4,1,0,80,0,0
131453,-96.1538461538461,4,1,0,80,0,0
131626,-97.0873786407767,4,1,0,80,0,0
131800,-98.0392156862745,4,1,0,80,0,0
131959,-99.009900990099,4,1,0,80,0,0
132132,-100,4,1,0,80,0,0
136308,-100,4,1,0,80,0,1
136395,-100,4,1,0,80,0,0
137002,-100,4,1,0,80,0,1
137089,-100,4,1,0,80,0,0
137696,-100,4,1,0,80,0,1
137783,-100,4,1,0,80,0,0
139083,-100,4,1,0,80,0,1
139170,-100,4,1,0,80,0,0
139777,-100,4,1,0,80,0,1
139864,-100,4,1,0,80,0,0
140470,-100,4,1,0,80,0,1
140557,-100,4,1,0,80,0,0
149488,-111.111111111111,4,1,0,80,0,0
149834,-104.166666666667,4,1,0,80,0,0
150181,-94.3396226415094,4,1,0,80,0,0
150225,-94.3396226415094,4,1,0,80,0,1
160629,-94.3396226415094,4,1,0,80,0,0
161323,-94.3396226415094,4,1,0,80,0,1
172421,-94.3396226415094,4,1,0,80,0,0
220976,333.333333333333,4,1,0,80,1,0
220976,-98.0392156862745,4,1,0,80,0,0
232767,-100,4,1,0,80,0,0
232934,-102.040816326531,4,1,0,80,0,0
233101,-104.166666666667,4,1,0,80,0,0
233267,-106.382978723404,4,1,0,80,0,0
233351,-107.52688172043,4,1,0,80,0,0
233434,-108.695652173913,4,1,0,80,0,0
233517,-109.89010989011,4,1,0,80,0,0
233601,-111.111111111111,4,1,0,80,0,0
233642,333.333333333333,4,1,0,80,1,0
233642,-111.111111111111,4,1,0,80,0,0
237919,-107.52688172043,4,1,0,80,0,0
238030,-104.166666666667,4,1,0,80,0,0
238142,-101.010101010101,4,1,0,80,0,0
238253,-98.0392156862745,4,1,0,80,0,0
238308,333.333333333333,4,1,0,80,1,0
238308,-98.0392156862745,4,1,0,80,0,0
253670,346.820809248555,4,1,0,80,1,0
253670,-94.3396226415094,4,1,0,80,0,1
264074,-94.3396226415094,4,1,0,80,0,0
264768,-94.3396226415094,4,1,0,80,0,1
274479,-94.3396226415094,4,1,0,80,0,0
275129,-104.166666666667,4,1,0,80,0,0
275476,-98.0392156862745,4,1,0,80,0,0
275823,-89.2857142857143,4,1,0,80,0,0
275866,-89.2857142857143,4,1,0,80,0,1
298063,-89.2857142857143,4,1,0,80,0,0

[HitObjects]
256,192,3173,5,4,0:0:0:0:
256,192,3866,1,0,0:0:0:0:
256,192,4560,1,8,0:0:0:0:
256,192,5253,1,0,0:0:0:0:
256,192,5600,1,0,0:0:0:0:
256,192,5947,1,4,0:0:0:0:
256,192,6641,1,0,0:0:0:0:
256,192,7334,1,8,0:0:0:0:
256,192,8028,1,0,0:0:0:0:
256,192,8375,1,8,0:0:0:0:
256,192,8490,1,8,0:0:0:0:
256,192,8606,1,8,0:0:0:0:
256,192,8722,1,4,0:0:0:0:
256,192,9415,1,0,0:0:0:0:
256,192,9993,1,0,0:0:0:0:
256,192,10109,1,12,0:0:0:0:
256,192,10803,1,0,0:0:0:0:
256,192,11034,1,0,0:0:0:0:
256,192,11265,1,0,0:0:0:0:
256,192,11496,1,4,0:0:0:0:
256,192,12190,1,0,0:0:0:0:
256,192,12883,12,0,14097,0:0:0:0:
256,192,14271,5,0,0:0:0:0:
256,192,14357,1,8,0:0:0:0:
256,192,14444,1,0,0:0:0:0:
256,192,14531,1,0,0:0:0:0:
256,192,14618,1,8,0:0:0:0:
256,192,14704,1,0,0:0:0:0:
256,192,14791,1,0,0:0:0:0:
256,192,14878,1,8,0:0:0:0:
256,192,14964,1,8,0:0:0:0:
256,192,15051,1,0,0:0:0:0:
256,192,15138,1,0,0:0:0:0:
256,192,15225,1,8,0:0:0:0:
256,192,15311,1,0,0:0:0:0:
256,192,15398,1,8,0:0:0:0:
256,192,15485,1,0,0:0:0:0:
256,192,15571,1,0,0:0:0:0:
256,192,15658,1,8,0:0:0:0:
256,192,15745,1,0,0:0:0:0:
256,192,15831,1,0,0:0:0:0:
256,192,15918,1,0,0:0:0:0:
256,192,16005,1,8,0:0:0:0:
256,192,16092,1,8,0:0:0:0:
256,192,16178,1,0,0:0:0:0:
256,192,16265,1,0,0:0:0:0:
256,192,16352,1,8,0:0:0:0:
256,192,16438,1,0,0:0:0:0:
256,192,16525,1,8,0:0:0:0:
256,192,16612,1,8,0:0:0:0:
256,192,16699,1,0,0:0:0:0:
256,192,16785,1,0,0:0:0:0:
256,192,16872,1,0,0:0:0:0:
256,192,16959,1,8,0:0:0:0:
256,192,17045,1,0,0:0:0:0:
256,192,17132,1,8,0:0:0:0:
256,192,17219,1,0,0:0:0:0:
256,192,17305,1,0,0:0:0:0:
256,192,17392,1,8,0:0:0:0:
256,192,17479,1,0,0:0:0:0:
256,192,17566,1,0,0:0:0:0:
256,192,17652,1,0,0:0:0:0:
256,192,17739,1,8,0:0:0:0:
256,192,17826,1,8,0:0:0:0:
256,192,17912,1,8,0:0:0:0:
256,192,17999,1,8,0:0:0:0:
256,192,18086,1,0,0:0:0:0:
256,192,18173,1,0,0:0:0:0:
256,192,18259,1,0,0:0:0:0:
256,192,18346,1,0,0:0:0:0:
256,192,18433,1,8,0:0:0:0:
256,192,18779,1,8,0:0:0:0:
256,192,18866,1,8,0:0:0:0:
256,192,18953,1,0,0:0:0:0:
256,192,19040,1,0,0:0:0:0:
256,192,19126,1,8,0:0:0:0:
256,192,19473,1,8,0:0:0:0:
256,192,19560,1,8,0:0:0:0:
256,192,19646,1,8,0:0:0:0:
256,192,19733,1,8,0:0:0:0:
256,192,19820,1,0,0:0:0:0:
256,192,19907,1,8,0:0:0:0:
256,192,19993,1,0,0:0:0:0:
256,192,20080,1,0,0:0:0:0:
256,192,20167,1,8,0:0:0:0:
256,192,20253,1,8,0:0:0:0:
256,192,20340,1,0,0:0:0:0:
256,192,20427,1,8,0:0:0:0:
256,192,20514,1,0,0:0:0:0:
256,192,20600,1,0,0:0:0:0:
256,192,20687,1,8,0:0:0:0:
256,192,20774,1,0,0:0:0:0:
256,192,20860,1,8,0:0:0:0:
256,192,20947,1,8,0:0:0:0:
256,192,21034,1,8,0:0:0:0:
256,192,21120,1,0,0:0:0:0:
256,192,21207,1,0,0:0:0:0:
256,192,21294,1,8,0:0:0:0:
256,192,21381,1,0,0:0:0:0:
256,192,21467,1,0,0:0:0:0:
256,192,21554,1,8,0:0:0:0:
256,192,21641,1,8,0:0:0:0:
256,192,21727,1,0,0:0:0:0:
256,192,21814,1,8,0:0:0:0:
256,192,21901,1,0,0:0:0:0:
256,192,21988,1,8,0:0:0:0:
256,192,22074,1,0,0:0:0:0:
256,192,22161,1,0,0:0:0:0:
256,192,22248,1,8,0:0:0:0:
256,192,22334,1,0,0:0:0:0:
256,192,22421,1,0,0:0:0:0:
256,192,22508,1,0,0:0:0:0:
256,192,22594,1,8,0:0:0:0:
256,192,22941,1,8,0:0:0:0:
256,192,23028,1,8,0:0:0:0:
256,192,23115,1,0,0:0:0:0:
256,192,23201,1,0,0:0:0:0:
256,192,23288,1,8,0:0:0:0:
256,192,23635,1,0,0:0:0:0:
256,192,23982,1,8,0:0:0:0:
256,192,24068,1,8,0:0:0:0:
256,192,24155,1,8,0:0:0:0:
256,192,24242,1,8,0:0:0:0:
256,192,24329,1,8,0:0:0:0:
256,192,24415,1,8,0:0:0:0:
256,192,24502,1,8,0:0:0:0:
256,192,24589,1,8,0:0:0:0:
256,192,24675,1,0,0:0:0:0:
256,192,24936,1,0,0:0:0:0:
256,192,25022,1,0,0:0:0:0:
256,192,25196,1,0,0:0:0:0:
256,192,25369,12,0,26236,0:0:0:0:
256,192,26409,5,8,0:0:0:0:
256,192,26525,1,8,0:0:0:0:
256,192,26641,1,8,0:0:0:0:
256,192,26756,1,12,0:0:0:0:
256,192,27103,1,8,0:0:0:0:
256,192,27219,1,0,0:0:0:0:
256,192,27334,1,0,0:0:0:0:
256,192,27450,1,8,0:0:0:0:
256,192,27566,1,8,0:0:0:0:
256,192,27681,1,0,0:0:0:0:
256,192,27797,1,8,0:0:0:0:
256,192,27912,1,8,0:0:0:0:
256,192,28028,1,8,0:0:0:0:
256,192,28144,1,0,0:0:0:0:
256,192,28317,1,0,0:0:0:0:
256,192,28404,1,0,0:0:0:0:
256,192,28490,1,8,0:0:0:0:
256,192,28664,1,0,0:0:0:0:
256,192,28837,1,0,0:0:0:0:
256,192,28924,1,8,0:0:0:0:
256,192,29011,1,0,0:0:0:0:
256,192,29097,1,0,0:0:0:0:
256,192,29184,1,8,0:0:0:0:
256,192,29357,1,0,0:0:0:0:
256,192,29444,1,0,0:0:0:0:
256,192,29531,1,0,0:0:0:0:
256,192,29704,1,0,0:0:0:0:
256,192,29791,1,0,0:0:0:0:
256,192,29878,1,8,0:0:0:0:
256,192,30051,1,0,0:0:0:0:
256,192,30225,1,0,0:0:0:0:
256,192,30311,1,8,0:0:0:0:
256,192,30398,1,8,0:0:0:0:
256,192,30485,1,0,0:0:0:0:
256,192,30571,1,8,0:0:0:0:
256,192,30745,1,0,0:0:0:0:
256,192,30918,1,8,0:0:0:0:
256,192,31005,1,8,0:0:0:0:
256,192,31092,1,8,0:0:0:0:
256,192,31178,1,8,0:0:0:0:
256,192,31265,1,8,0:0:0:0:
256,192,31352,1,8,0:0:0:0:
256,192,31438,1,0,0:0:0:0:
256,192,31525,1,0,0:0:0:0:
256,192,31612,1,8,0:0:0:0:
256,192,31699,1,8,0:0:0:0:
256,192,31785,1,0,0:0:0:0:
256,192,31872,1,0,0:0:0:0:
256,192,31959,1,8,0:0:0:0:
256,192,32045,1,8,0:0:0:0:
256,192,32132,1,8,0:0:0:0:
256,192,32219,1,8,0:0:0:0:
256,192,32305,1,0,0:0:0:0:
256,192,32363,1,0,0:0:0:0:
256,192,32421,1,0,0:0:0:0:
256,192,32479,1,8,0:0:0:0:
256,192,32566,1,0,0:0:0:0:
256,192,32652,1,8,0:0:0:0:
256,192,32710,1,8,0:0:0:0:
256,192,32768,1,8,0:0:0:0:
256,192,32826,1,0,0:0:0:0:
256,192,32912,1,0,0:0:0:0:
256,192,32999,1,8,0:0:0:0:
256,192,33086,1,8,0:0:0:0:
256,192,33173,1,8,0:0:0:0:
256,192,33259,1,0,0:0:0:0:
256,192,33346,1,8,0:0:0:0:
256,192,33433,1,8,0:0:0:0:
256,192,33519,1,0,0:0:0:0:
256,192,33606,1,0,0:0:0:0:
256,192,33693,1,0,0:0:0:0:
256,192,33866,1,0,0:0:0:0:
256,192,33953,1,0,0:0:0:0:
256,192,34040,1,8,0:0:0:0:
256,192,34213,1,0,0:0:0:0:
256,192,34300,1,8,0:0:0:0:
256,192,34386,1,0,0:0:0:0:
256,192,34473,1,0,0:0:0:0:
256,192,34646,1,0,0:0:0:0:
256,192,34733,1,8,0:0:0:0:
256,192,34907,1,0,0:0:0:0:
256,192,35080,1,8,0:0:0:0:
256,192,35167,1,8,0:0:0:0:
256,192,35253,1,0,0:0:0:0:
256,192,35340,1,0,0:0:0:0:
256,192,35427,1,8,0:0:0:0:
256,192,35600,1,0,0:0:0:0:
256,192,35687,1,8,0:0:0:0:
256,192,35774,1,8,0:0:0:0:
256,192,35860,1,0,0:0:0:0:
256,192,36034,1,0,0:0:0:0:
256,192,36120,1,8,0:0:0:0:
256,192,36294,1,0,0:0:0:0:
256,192,36467,1,8,0:0:0:0:
256,192,36554,1,8,0:0:0:0:
256,192,36641,1,8,0:0:0:0:
256,192,36727,1,8,0:0:0:0:
256,192,36814,1,8,0:0:0:0:
256,192,36901,1,8,0:0:0:0:
256,192,36988,1,8,0:0:0:0:
256,192,37074,1,8,0:0:0:0:
256,192,37161,1,8,0:0:0:0:
256,192,37248,1,8,0:0:0:0:
256,192,37334,1,0,0:0:0:0:
256,192,37421,1,0,0:0:0:0:
256,192,37508,1,8,0:0:0:0:
256,192,37594,1,8,0:0:0:0:
256,192,37681,1,0,0:0:0:0:
256,192,37768,1,0,0:0:0:0:
256,192,37855,1,8,0:0:0:0:
256,192,37912,1,8,0:0:0:0:
256,192,37970,1,8,0:0:0:0:
256,192,38028,1,0,0:0:0:0:
256,192,38115,1,0,0:0:0:0:
256,192,38201,1,8,0:0:0:0:
256,192,38259,1,8,0:0:0:0:
256,192,38317,1,8,0:0:0:0:
256,192,38375,1,0,0:0:0:0:
256,192,38462,1,8,0:0:0:0:
256,192,38548,1,0,0:0:0:0:
256,192,38722,1,0,0:0:0:0:
256,192,38808,1,0,0:0:0:0:
256,192,38895,1,8,0:0:0:0:
256,192,39242,1,0,0:0:0:0:
256,192,39329,1,0,0:0:0:0:
256,192,39415,1,0,0:0:0:0:
256,192,39502,1,8,0:0:0:0:
256,192,39589,1,0,0:0:0:0:
256,192,39675,1,0,0:0:0:0:
256,192,39762,1,8,0:0:0:0:
256,192,39849,1,8,0:0:0:0:
256,192,39936,1,0,0:0:0:0:
256,192,40022,1,0,0:0:0:0:
256,192,40109,1,0,0:0:0:0:
256,192,40196,1,8,0:0:0:0:
256,192,40282,1,0,0:0:0:0:
256,192,40369,1,0,0:0:0:0:
256,192,40456,1,8,0:0:0:0:
256,192,40542,1,8,0:0:0:0:
256,192,40629,1,8,0:0:0:0:
256,192,40716,1,0,0:0:0:0:
256,192,40803,1,0,0:0:0:0:
256,192,40889,1,0,0:0:0:0:
256,192,40976,1,8,0:0:0:0:
256,192,41063,1,0,0:0:0:0:
256,192,41149,1,0,0:0:0:0:
256,192,41236,1,0,0:0:0:0:
256,192,41323,1,8,0:0:0:0:
256,192,41409,1,0,0:0:0:0:
256,192,41496,1,0,0:0:0:0:
256,192,41583,1,0,0:0:0:0:
256,192,41670,1,8,0:0:0:0:
256,192,41756,1,8,0:0:0:0:
256,192,41843,1,8,0:0:0:0:
256,192,41930,1,8,0:0:0:0:
256,192,42016,1,0,0:0:0:0:
256,192,42103,1,0,0:0:0:0:
256,192,42190,1,0,0:0:0:0:
256,192,42277,1,8,0:0:0:0:
256,192,42363,1,0,0:0:0:0:
256,192,42450,1,0,0:0:0:0:
256,192,42537,1,8,0:0:0:0:
256,192,42623,1,8,0:0:0:0:
256,192,42710,1,0,0:0:0:0:
256,192,42797,1,0,0:0:0:0:
256,192,42883,1,0,0:0:0:0:
256,192,42970,1,0,0:0:0:0:
256,192,43057,1,8,0:0:0:0:
256,192,43144,1,0,0:0:0:0:
256,192,43230,1,8,0:0:0:0:
256,192,43317,1,8,0:0:0:0:
256,192,43404,1,8,0:0:0:0:
256,192,43490,1,0,0:0:0:0:
256,192,43577,1,0,0:0:0:0:
256,192,43664,1,0,0:0:0:0:
256,192,43751,1,8,0:0:0:0:
256,192,43837,1,0,0:0:0:0:
256,192,43924,1,0,0:0:0:0:
256,192,44011,1,0,0:0:0:0:
256,192,44097,1,8,0:0:0:0:
256,192,44184,1,8,0:0:0:0:
256,192,44271,1,0,0:0:0:0:
256,192,44357,1,0,0:0:0:0:
256,192,44444,1,8,0:0:0:0:
256,192,44531,1,8,0:0:0:0:
256,192,44618,1,0,0:0:0:0:
256,192,44704,1,0,0:0:0:0:
256,192,44791,1,12,0:0:0:0:
256,192,45051,1,0,0:0:0:0:
256,192,45138,1,8,0:0:0:0:
256,192,45311,1,0,0:0:0:0:
256,192,45398,1,0,0:0:0:0:
256,192,45485,1,0,0:0:0:0:
256,192,45571,1,8,0:0:0:0:
256,192,45658,1,0,0:0:0:0:
256,192,45745,1,0,0:0:0:0:
256,192,45831,1,8,0:0:0:0:
256,192,45918,1,0,0:0:0:0:
256,192,46005,1,8,0:0:0:0:
256,192,46092,1,8,0:0:0:0:
256,192,46178,1,4,0:0:0:0:
256,192,46438,1,0,0:0:0:0:
256,192,46525,1,8,0:0:0:0:
256,192,46699,1,0,0:0:0:0:
256,192,46872,1,12,0:0:0:0:
256,192,47132,1,0,0:0:0:0:
256,192,47219,1,8,0:0:0:0:
256,192,47392,1,8,0:0:0:0:
256,192,47566,1,4,0:0:0:0:
256,192,47739,1,8,0:0:0:0:
256,192,47826,1,0,0:0:0:0:
256,192,47912,1,8,0:0:0:0:
256,192,47999,1,8,0:0:0:0:
256,192,48086,1,0,0:0:0:0:
256,192,48173,1,0,0:0:0:0:
256,192,48259,1,8,0:0:0:0:
256,192,48346,1,0,0:0:0:0:
256,192,48433,1,0,0:0:0:0:
256,192,48519,1,8,0:0:0:0:
256,192,48606,1,8,0:0:0:0:
256,192,48693,1,0,0:0:0:0:
256,192,48779,1,8,0:0:0:0:
256,192,48866,1,0,0:0:0:0:
256,192,48953,1,8,0:0:0:0:
256,192,49040,1,8,0:0:0:0:
256,192,49126,1,0,0:0:0:0:
256,192,49213,1,8,0:0:0:0:
256,192,49300,1,8,0:0:0:0:
256,192,49386,1,0,0:0:0:0:
256,192,49473,1,8,0:0:0:0:
256,192,49560,1,0,0:0:0:0:
256,192,49646,1,8,0:0:0:0:
256,192,49820,1,0,0:0:0:0:
256,192,49907,1,0,0:0:0:0:
256,192,49993,1,8,0:0:0:0:
256,192,50080,1,8,0:0:0:0:
256,192,50167,1,0,0:0:0:0:
256,192,50340,12,8,51554,0:0:0:0:
256,192,51727,5,8,0:0:0:0:
256,192,51814,1,8,0:0:0:0:
256,192,51901,1,0,0:0:0:0:
256,192,51988,1,0,0:0:0:0:
256,192,52074,1,8,0:0:0:0:
256,192,52161,1,8,0:0:0:0:
256,192,52248,1,0,0:0:0:0:
256,192,52334,1,8,0:0:0:0:
256,192,52421,1,0,0:0:0:0:
256,192,52508,1,0,0:0:0:0:
256,192,52594,1,0,0:0:0:0:
256,192,52681,1,8,0:0:0:0:
256,192,52768,1,0,0:0:0:0:
256,192,52855,1,0,0:0:0:0:
256,192,52941,1,8,0:0:0:0:
256,192,53028,1,8,0:0:0:0:
256,192,53115,1,4,0:0:0:0:
256,192,53375,1,0,0:0:0:0:
256,192,53462,1,8,0:0:0:0:
256,192,53635,1,0,0:0:0:0:
256,192,53808,1,8,0:0:0:0:
256,192,53895,1,0,0:0:0:0:
256,192,54068,1,0,0:0:0:0:
256,192,54155,1,8,0:0:0:0:
256,192,54329,1,8,0:0:0:0:
256,192,54415,1,8,0:0:0:0:
256,192,54502,1,4,0:0:0:0:
256,192,54762,1,0,0:0:0:0:
256,192,54849,1,8,0:0:0:0:
256,192,55022,1,0,0:0:0:0:
256,192,55196,1,0,0:0:0:0:
256,192,55282,1,8,0:0:0:0:
256,192,55369,1,0,0:0:0:0:
256,192,55456,1,0,0:0:0:0:
256,192,55542,1,8,0:0:0:0:
256,192,55716,1,8,0:0:0:0:
256,192,55803,1,8,0:0:0:0:
256,192,55889,1,4,0:0:0:0:
256,192,56149,1,0,0:0:0:0:
256,192,56236,1,8,0:0:0:0:
256,192,56409,1,4,0:0:0:0:
256,192,56583,1,8,0:0:0:0:
256,192,56756,1,0,0:0:0:0:
256,192,56843,1,0,0:0:0:0:
256,192,56930,1,8,0:0:0:0:
256,192,57103,1,8,0:0:0:0:
256,192,57277,1,4,0:0:0:0:
256,192,57537,1,0,0:0:0:0:
256,192,57623,1,8,0:0:0:0:
256,192,57797,1,0,0:0:0:0:
256,192,57970,1,0,0:0:0:0:
256,192,58057,1,0,0:0:0:0:
256,192,58144,1,8,0:0:0:0:
256,192,58230,1,8,0:0:0:0:
256,192,58317,1,8,0:0:0:0:
256,192,58404,1,0,0:0:0:0:
256,192,58490,1,8,0:0:0:0:
256,192,58577,1,0,0:0:0:0:
256,192,58664,1,8,0:0:0:0:
256,192,58751,1,0,0:0:0:0:
256,192,58837,1,0,0:0:0:0:
256,192,58924,1,0,0:0:0:0:
256,192,59011,1,0,0:0:0:0:
256,192,59097,1,0,0:0:0:0:
256,192,59184,1,0,0:0:0:0:
256,192,59271,1,0,0:0:0:0:
256,192,59357,1,8,0:0:0:0:
256,192,59444,1,0,0:0:0:0:
256,192,59531,1,0,0:0:0:0:
256,192,59618,1,0,0:0:0:0:
256,192,59704,1,0,0:0:0:0:
256,192,59791,1,0,0:0:0:0:
256,192,59878,1,0,0:0:0:0:
256,192,59964,1,0,0:0:0:0:
256,192,60051,1,8,0:0:0:0:
256,192,60311,1,0,0:0:0:0:
256,192,60398,1,8,0:0:0:0:
256,192,60571,1,0,0:0:0:0:
256,192,60745,1,0,0:0:0:0:
256,192,61005,1,0,0:0:0:0:
256,192,61092,1,8,0:0:0:0:
256,192,61265,1,0,0:0:0:0:
256,192,61438,1,8,0:0:0:0:
256,192,61525,1,0,0:0:0:0:
256,192,61612,1,0,0:0:0:0:
256,192,61699,1,0,0:0:0:0:
256,192,61785,1,0,0:0:0:0:
256,192,61872,1,0,0:0:0:0:
256,192,61959,1,0,0:0:0:0:
256,192,62045,1,0,0:0:0:0:
256,192,62132,1,8,0:0:0:0:
256,192,62219,1,0,0:0:0:0:
256,192,62305,1,0,0:0:0:0:
256,192,62392,1,0,0:0:0:0:
256,192,62479,1,0,0:0:0:0:
256,192,62566,1,0,0:0:0:0:
256,192,62652,1,0,0:0:0:0:
256,192,62739,1,0,0:0:0:0:
256,192,62826,1,8,0:0:0:0:
256,192,63086,1,0,0:0:0:0:
256,192,63173,1,8,0:0:0:0:
256,192,63346,1,0,0:0:0:0:
256,192,63519,1,0,0:0:0:0:
256,192,63779,1,0,0:0:0:0:
256,192,63866,1,8,0:0:0:0:
256,192,64040,1,0,0:0:0:0:
256,192,64213,1,8,0:0:0:0:
256,192,64300,1,0,0:0:0:0:
256,192,64386,1,0,0:0:0:0:
256,192,64473,1,0,0:0:0:0:
256,192,64560,1,0,0:0:0:0:
256,192,64646,1,0,0:0:0:0:
256,192,64733,1,0,0:0:0:0:
256,192,64820,1,0,0:0:0:0:
256,192,64907,1,8,0:0:0:0:
256,192,64993,1,0,0:0:0:0:
256,192,65080,1,0,0:0:0:0:
256,192,65167,1,0,0:0:0:0:
256,192,65253,1,0,0:0:0:0:
256,192,65340,1,0,0:0:0:0:
256,192,65427,1,0,0:0:0:0:
256,192,65514,1,0,0:0:0:0:
256,192,65600,1,8,0:0:0:0:
256,192,65687,1,0,0:0:0:0:
256,192,65774,1,0,0:0:0:0:
256,192,65860,1,0,0:0:0:0:
256,192,65947,1,0,0:0:0:0:
256,192,66034,1,0,0:0:0:0:
256,192,66120,1,0,0:0:0:0:
256,192,66207,1,0,0:0:0:0:
256,192,66294,1,8,0:0:0:0:
256,192,66381,1,0,0:0:0:0:
256,192,66467,1,0,0:0:0:0:
256,192,66554,1,0,0:0:0:0:
256,192,66641,1,0,0:0:0:0:
256,192,66727,1,0,0:0:0:0:
256,192,66814,1,0,0:0:0:0:
256,192,66901,1,0,0:0:0:0:
256,192,66988,1,8,0:0:0:0:
256,192,67074,1,8,0:0:0:0:
256,192,67161,1,8,0:0:0:0:
256,192,67248,1,0,0:0:0:0:
256,192,67334,1,8,0:0:0:0:
256,192,67421,1,0,0:0:0:0:
256,192,67508,1,8,0:0:0:0:
256,192,67594,1,8,0:0:0:0:
256,192,67681,1,0,0:0:0:0:
256,192,67768,1,0,0:0:0:0:
256,192,67855,1,0,0:0:0:0:
256,192,67941,1,8,0:0:0:0:
256,192,68028,1,0,0:0:0:0:
256,192,68115,1,8,0:0:0:0:
256,192,68201,1,0,0:0:0:0:
256,192,68288,1,0,0:0:0:0:
256,192,68375,1,8,0:0:0:0:
256,192,68462,1,8,0:0:0:0:
256,192,68548,1,0,0:0:0:0:
256,192,68635,1,8,0:0:0:0:
256,192,68722,1,0,0:0:0:0:
256,192,68808,1,8,0:0:0:0:
256,192,68895,1,8,0:0:0:0:
256,192,68982,1,8,0:0:0:0:
256,192,69068,1,0,0:0:0:0:
256,192,69155,1,8,0:0:0:0:
256,192,69242,1,0,0:0:0:0:
256,192,69329,1,0,0:0:0:0:
256,192,69415,1,8,0:0:0:0:
256,192,69502,1,0,0:0:0:0:
256,192,69589,1,8,0:0:0:0:
256,192,69675,1,8,0:0:0:0:
256,192,69762,1,0,0:0:0:0:
256,192,69849,1,0,0:0:0:0:
256,192,69936,1,8,0:0:0:0:
256,192,70022,1,0,0:0:0:0:
256,192,70109,1,0,0:0:0:0:
256,192,70196,1,8,0:0:0:0:
256,192,70282,1,8,0:0:0:0:
256,192,70369,1,8,0:0:0:0:
256,192,70456,1,0,0:0:0:0:
256,192,70542,1,0,0:0:0:0:
256,192,70629,1,8,0:0:0:0:
256,192,70716,1,0,0:0:0:0:
256,192,70803,1,8,0:0:0:0:
256,192,70889,1,8,0:0:0:0:
256,192,70976,1,0,0:0:0:0:
256,192,71063,1,0,0:0:0:0:
256,192,71149,1,8,0:0:0:0:
256,192,71843,1,8,0:0:0:0:
256,192,72190,1,8,0:0:0:0:
256,192,72537,1,0,0:0:0:0:
256,192,72623,1,0,0:0:0:0:
256,192,72710,1,8,0:0:0:0:
256,192,72797,1,0,0:0:0:0:
256,192,72883,1,0,0:0:0:0:
256,192,72970,1,0,0:0:0:0:
256,192,73057,1,8,0:0:0:0:
256,192,73144,1,8,0:0:0:0:
256,192,73230,1,0,0:0:0:0:
256,192,73317,1,0,0:0:0:0:
256,192,73404,1,8,0:0:0:0:
256,192,73490,1,0,0:0:0:0:
256,192,73577,1,8,0:0:0:0:
256,192,73664,1,0,0:0:0:0:
256,192,73751,1,8,0:0:0:0:
256,192,73837,1,8,0:0:0:0:
256,192,73924,1,0,0:0:0:0:
256,192,74011,1,0,0:0:0:0:
256,192,74097,1,8,0:0:0:0:
256,192,74184,1,0,0:0:0:0:
256,192,74271,1,0,0:0:0:0:
256,192,74357,1,0,0:0:0:0:
256,192,74444,1,8,0:0:0:0:
256,192,74531,1,0,0:0:0:0:
256,192,74618,1,8,0:0:0:0:
256,192,74704,1,8,0:0:0:0:
256,192,74791,1,8,0:0:0:0:
256,192,74878,1,0,0:0:0:0:
256,192,74964,1,8,0:0:0:0:
256,192,75051,1,8,0:0:0:0:
256,192,75138,1,8,0:0:0:0:
256,192,75225,1,0,0:0:0:0:
256,192,75311,1,8,0:0:0:0:
256,192,75398,1,8,0:0:0:0:
256,192,75485,1,0,0:0:0:0:
256,192,75571,1,0,0:0:0:0:
256,192,75658,1,8,0:0:0:0:
256,192,75745,1,0,0:0:0:0:
256,192,75831,1,8,0:0:0:0:
256,192,75918,1,8,0:0:0:0:
256,192,76005,1,8,0:0:0:0:
256,192,76092,1,0,0:0:0:0:
256,192,76178,1,0,0:0:0:0:
256,192,76265,1,0,0:0:0:0:
256,192,76352,1,8,0:0:0:0:
256,192,76438,1,0,0:0:0:0:
256,192,76525,1,8,0:0:0:0:
256,192,76612,1,8,0:0:0:0:
256,192,76699,1,8,0:0:0:0:
256,192,76785,1,8,0:0:0:0:
256,192,76872,1,8,0:0:0:0:
256,192,76959,1,8,0:0:0:0:
256,192,77045,1,0,0:0:0:0:
256,192,77132,1,0,0:0:0:0:
256,192,77219,1,8,0:0:0:0:
256,192,77305,1,8,0:0:0:0:
256,192,77392,1,0,0:0:0:0:
256,192,77479,1,0,0:0:0:0:
256,192,77566,1,8,0:0:0:0:
256,192,77652,1,0,0:0:0:0:
256,192,77739,1,8,0:0:0:0:
256,192,77826,1,8,0:0:0:0:
256,192,77912,1,0,0:0:0:0:
256,192,77999,1,0,0:0:0:0:
256,192,78086,1,8,0:0:0:0:
256,192,78173,1,0,0:0:0:0:
256,192,78259,1,0,0:0:0:0:
256,192,78346,1,0,0:0:0:0:
256,192,78433,1,0,0:0:0:0:
256,192,78519,1,0,0:0:0:0:
256,192,78606,1,8,0:0:0:0:
256,192,78693,1,0,0:0:0:0:
256,192,78779,1,0,0:0:0:0:
256,192,78866,1,0,0:0:0:0:
256,192,78953,1,0,0:0:0:0:
256,192,79040,1,0,0:0:0:0:
256,192,79126,1,8,0:0:0:0:
256,192,79213,1,0,0:0:0:0:
256,192,79300,1,0,0:0:0:0:
256,192,79386,1,0,0:0:0:0:
256,192,79473,1,8,0:0:0:0:
256,192,79560,1,0,0:0:0:0:
256,192,79646,1,0,0:0:0:0:
256,192,79733,1,8,0:0:0:0:
256,192,79820,1,0,0:0:0:0:
256,192,79907,1,8,0:0:0:0:
256,192,79993,1,0,0:0:0:0:
256,192,80080,1,0,0:0:0:0:
256,192,80167,1,8,0:0:0:0:
256,192,80253,1,8,0:0:0:0:
256,192,80340,1,0,0:0:0:0:
256,192,80427,1,0,0:0:0:0:
256,192,80514,1,8,0:0:0:0:
256,192,80600,1,0,0:0:0:0:
256,192,80687,1,8,0:0:0:0:
256,192,80774,1,8,0:0:0:0:
256,192,80860,1,0,0:0:0:0:
256,192,80947,1,0,0:0:0:0:
256,192,81034,1,8,0:0:0:0:
256,192,81120,1,0,0:0:0:0:
256,192,81207,1,0,0:0:0:0:
256,192,81294,1,0,0:0:0:0:
256,192,81381,1,8,0:0:0:0:
256,192,81467,1,0,0:0:0:0:
256,192,81554,1,0,0:0:0:0:
256,192,81641,1,0,0:0:0:0:
256,192,81727,1,8,0:0:0:0:
256,192,81814,1,0,0:0:0:0:
256,192,81901,1,0,0:0:0:0:
256,192,81988,1,0,0:0:0:0:
256,192,82074,1,8,0:0:0:0:
256,192,82161,1,0,0:0:0:0:
256,192,82248,1,0,0:0:0:0:
256,192,82334,1,8,0:0:0:0:
256,192,82421,1,8,0:0:0:0:
256,192,82508,1,8,0:0:0:0:
256,192,82594,1,0,0:0:0:0:
256,192,82681,1,8,0:0:0:0:
256,192,82768,1,0,0:0:0:0:
256,192,82855,1,0,0:0:0:0:
256,192,82941,1,8,0:0:0:0:
256,192,83288,1,8,0:0:0:0:
256,192,83635,1,0,0:0:0:0:
256,192,83722,1,0,0:0:0:0:
256,192,83808,1,8,0:0:0:0:
256,192,83895,1,0,0:0:0:0:
256,192,83982,1,0,0:0:0:0:
256,192,84068,1,0,0:0:0:0:
256,192,84155,1,8,0:0:0:0:
256,192,84242,1,8,0:0:0:0:
256,192,84329,1,0,0:0:0:0:
256,192,84415,1,0,0:0:0:0:
256,192,84502,1,8,0:0:0:0:
256,192,84589,1,0,0:0:0:0:
256,192,84675,1,8,0:0:0:0:
256,192,84762,1,8,0:0:0:0:
256,192,84849,1,8,0:0:0:0:
256,192,84936,1,0,0:0:0:0:
256,192,85022,1,8,0:0:0:0:
256,192,85109,1,0,0:0:0:0:
256,192,85196,1,8,0:0:0:0:
256,192,85282,1,8,0:0:0:0:
256,192,85369,1,8,0:0:0:0:
256,192,85456,1,0,0:0:0:0:
256,192,85542,1,8,0:0:0:0:
256,192,85629,1,8,0:0:0:0:
256,192,85716,1,0,0:0:0:0:
256,192,85803,1,0,0:0:0:0:
256,192,85889,1,8,0:0:0:0:
256,192,85976,1,0,0:0:0:0:
256,192,86063,1,0,0:0:0:0:
256,192,86149,1,8,0:0:0:0:
256,192,86236,1,8,0:0:0:0:
256,192,86323,1,0,0:0:0:0:
256,192,86409,1,8,0:0:0:0:
256,192,86496,1,8,0:0:0:0:
256,192,86583,1,0,0:0:0:0:
256,192,86670,1,0,0:0:0:0:
256,192,86756,1,8,0:0:0:0:
256,192,86843,1,0,0:0:0:0:
256,192,86930,1,8,0:0:0:0:
256,192,87016,1,8,0:0:0:0:
256,192,87103,1,8,0:0:0:0:
256,192,87190,1,0,0:0:0:0:
256,192,87277,1,0,0:0:0:0:
256,192,87363,1,0,0:0:0:0:
256,192,87450,1,8,0:0:0:0:
256,192,87537,1,0,0:0:0:0:
256,192,87623,1,8,0:0:0:0:
256,192,87710,1,8,0:0:0:0:
256,192,87797,1,8,0:0:0:0:
256,192,87883,1,8,0:0:0:0:
256,192,87970,1,8,0:0:0:0:
256,192,88057,1,8,0:0:0:0:
256,192,88144,1,0,0:0:0:0:
256,192,88230,1,0,0:0:0:0:
256,192,88317,1,8,0:0:0:0:
256,192,88404,1,8,0:0:0:0:
256,192,88490,1,0,0:0:0:0:
256,192,88577,1,0,0:0:0:0:
256,192,88664,1,8,0:0:0:0:
256,192,88751,1,0,0:0:0:0:
256,192,88837,1,8,0:0:0:0:
256,192,88924,1,8,0:0:0:0:
256,192,89011,1,0,0:0:0:0:
256,192,89097,1,0,0:0:0:0:
256,192,89184,1,8,0:0:0:0:
256,192,89271,1,0,0:0:0:0:
256,192,89357,1,0,0:0:0:0:
256,192,89444,1,0,0:0:0:0:
256,192,89531,1,0,0:0:0:0:
256,192,89618,1,0,0:0:0:0:
256,192,89704,1,0,0:0:0:0:
256,192,89791,1,0,0:0:0:0:
256,192,89878,1,8,0:0:0:0:
256,192,89964,1,0,0:0:0:0:
256,192,90051,1,0,0:0:0:0:
256,192,90138,1,0,0:0:0:0:
256,192,90225,1,0,0:0:0:0:
256,192,90311,1,0,0:0:0:0:
256,192,90398,1,0,0:0:0:0:
256,192,90485,1,0,0:0:0:0:
256,192,90571,1,8,0:0:0:0:
256,192,90658,1,0,0:0:0:0:
256,192,90745,1,0,0:0:0:0:
256,192,90831,1,0,0:0:0:0:
256,192,90918,1,0,0:0:0:0:
256,192,91005,1,0,0:0:0:0:
256,192,91092,1,0,0:0:0:0:
256,192,91178,1,0,0:0:0:0:
256,192,91265,1,8,0:0:0:0:
256,192,91352,1,0,0:0:0:0:
256,192,91438,1,0,0:0:0:0:
256,192,91525,1,0,0:0:0:0:
256,192,91612,1,8,0:0:0:0:
256,192,91699,1,0,0:0:0:0:
256,192,91785,1,8,0:0:0:0:
256,192,91872,1,8,0:0:0:0:
256,192,91959,1,0,0:0:0:0:
256,192,92045,1,0,0:0:0:0:
256,192,92132,1,8,0:0:0:0:
256,192,92219,1,0,0:0:0:0:
256,192,92305,1,0,0:0:0:0:
256,192,92392,1,0,0:0:0:0:
256,192,92479,1,8,0:0:0:0:
256,192,92566,1,0,0:0:0:0:
256,192,92652,1,0,0:0:0:0:
256,192,92739,1,0,0:0:0:0:
256,192,92826,1,8,0:0:0:0:
256,192,92912,1,0,0:0:0:0:
256,192,92999,1,0,0:0:0:0:
256,192,93086,1,0,0:0:0:0:
256,192,93173,1,8,0:0:0:0:
256,192,93259,1,0,0:0:0:0:
256,192,93346,1,0,0:0:0:0:
256,192,93433,1,0,0:0:0:0:
256,192,93519,1,8,0:0:0:0:
256,192,93606,1,0,0:0:0:0:
256,192,93693,1,0,0:0:0:0:
256,192,93779,1,0,0:0:0:0:
256,192,93866,1,8,0:0:0:0:
256,192,93953,1,0,0:0:0:0:
256,192,94040,1,0,0:0:0:0:
256,192,94126,1,0,0:0:0:0:
256,192,94213,1,8,0:0:0:0:
256,192,94300,1,8,0:0:0:0:
256,192,94386,1,8,0:0:0:0:
256,192,94473,1,0,0:0:0:0:
256,192,94560,1,8,0:0:0:0:
256,192,94646,1,8,0:0:0:0:
192,128,94733,1,0,0:0:0:0:
320,128,94907,1,0,0:0:0:0:
384,256,94993,1,0,0:0:0:0:
320,128,95080,1,8,0:0:0:0:
384,256,95253,1,0,0:0:0:0:
384,256,95340,1,0,0:0:0:0:
384,256,95427,1,8,0:0:0:0:
384,256,95514,1,8,0:0:0:0:
384,256,95600,1,0,0:0:0:0:
384,256,95687,1,0,0:0:0:0:
384,256,95774,1,8,0:0:0:0:
384,256,95947,1,0,0:0:0:0:
384,256,96120,1,8,0:0:0:0:
384,256,96207,1,0,0:0:0:0:
384,256,96294,1,8,0:0:0:0:
384,256,96381,1,8,0:0:0:0:
384,256,96467,1,0,0:0:0:0:
384,256,96641,1,0,0:0:0:0:
192,128,96727,1,8,0:0:0:0:
384,256,96814,1,0,0:0:0:0:
384,256,96901,1,0,0:0:0:0:
384,256,96988,1,8,0:0:0:0:
384,256,97074,1,0,0:0:0:0:
384,256,97161,1,8,0:0:0:0:
384,256,97334,1,0,0:0:0:0:
384,256,97421,1,8,0:0:0:0:
384,256,97508,1,8,0:0:0:0:
384,256,97681,1,0,0:0:0:0:
384,256,97768,1,0,0:0:0:0:
384,256,97855,1,8,0:0:0:0:
384,256,97941,1,0,0:0:0:0:
384,256,98028,1,8,0:0:0:0:
384,256,98115,1,8,0:0:0:0:
384,256,98201,1,0,0:0:0:0:
96,160,98375,1,0,0:0:0:0:
96,160,98462,1,0,0:0:0:0:
96,160,98548,1,0,0:0:0:0:
96,160,98722,1,0,0:0:0:0:
96,160,98808,1,0,0:0:0:0:
96,160,98895,1,8,0:0:0:0:
288,96,99011,1,0,0:0:0:0:
288,96,99126,1,8,0:0:0:0:
288,96,99242,1,8,0:0:0:0:
288,96,99357,1,0,0:0:0:0:
288,96,99473,1,0,0:0:0:0:
288,96,99589,1,8,0:0:0:0:
288,64,99675,1,8,0:0:0:0:
288,64,99762,1,8,0:0:0:0:
128,128,99849,1,8,0:0:0:0:
160,128,99936,1,0,0:0:0:0:
160,128,100022,1,0,0:0:0:0:
160,128,100109,1,0,0:0:0:0:
160,128,100196,1,0,0:0:0:0:
160,128,100282,1,8,0:0:0:0:
224,160,100456,1,0,0:0:0:0:
224,160,100542,1,0,0:0:0:0:
224,160,100629,1,8,0:0:0:0:
224,160,100803,1,8,0:0:0:0:
224,160,100889,1,8,0:0:0:0:
224,160,100976,1,0,0:0:0:0:
224,160,101063,1,0,0:0:0:0:
224,160,101149,1,8,0:0:0:0:
224,160,101323,1,8,0:0:0:0:
192,128,101496,1,0,0:0:0:0:
192,128,101583,1,0,0:0:0:0:
192,128,101670,1,8,0:0:0:0:
192,128,101756,1,8,0:0:0:0:
192,128,101843,1,0,0:0:0:0:
192,128,101930,1,0,0:0:0:0:
192,128,102016,1,8,0:0:0:0:
192,128,102190,1,0,0:0:0:0:
192,128,102277,1,0,0:0:0:0:
192,128,102363,1,8,0:0:0:0:
192,128,102537,1,8,0:0:0:0:
192,128,102623,1,8,0:0:0:0:
192,128,102710,1,0,0:0:0:0:
192,128,102797,1,0,0:0:0:0:
192,128,102883,1,0,0:0:0:0:
192,128,102970,1,0,0:0:0:0:
192,128,103057,1,8,0:0:0:0:
192,128,103144,1,8,0:0:0:0:
192,128,103230,1,0,0:0:0:0:
192,128,103317,1,0,0:0:0:0:
192,128,103404,1,8,0:0:0:0:
192,128,103490,1,0,0:0:0:0:
192,128,103577,1,0,0:0:0:0:
192,128,103664,1,8,0:0:0:0:
192,128,103751,1,0,0:0:0:0:
192,128,103837,1,0,0:0:0:0:
192,128,103924,1,8,0:0:0:0:
192,128,104011,1,0,0:0:0:0:
192,128,104097,1,8,0:0:0:0:
192,128,104184,1,8,0:0:0:0:
192,128,104271,1,0,0:0:0:0:
192,128,104357,1,0,0:0:0:0:
192,128,104444,1,8,0:0:0:0:
192,128,104531,1,0,0:0:0:0:
192,128,104618,1,8,0:0:0:0:
192,128,104704,1,8,0:0:0:0:
224,64,104791,1,0,0:0:0:0:
192,128,104878,1,8,0:0:0:0:
192,128,104964,1,0,0:0:0:0:
160,128,105051,1,0,0:0:0:0:
128,128,105138,1,8,0:0:0:0:
224,128,105225,1,0,0:0:0:0:
224,128,105311,1,8,0:0:0:0:
224,128,105398,1,8,0:0:0:0:
224,128,105485,1,0,0:0:0:0:
160,128,105571,1,0,0:0:0:0:
160,128,105658,1,8,0:0:0:0:
160,128,105831,1,4,0:0:0:0:
160,160,106005,1,0,0:0:0:0:
160,160,106092,1,0,0:0:0:0:
160,160,106178,1,8,0:0:0:0:
160,160,106352,1,8,0:0:0:0:
160,160,106438,1,8,0:0:0:0:
160,160,106525,1,0,0:0:0:0:
160,160,106612,1,8,0:0:0:0:
160,160,106699,1,0,0:0:0:0:
160,160,106785,1,0,0:0:0:0:
160,160,106872,1,8,0:0:0:0:
160,160,107045,1,0,0:0:0:0:
160,160,107132,1,0,0:0:0:0:
160,160,107219,1,8,0:0:0:0:
160,160,107392,1,8,0:0:0:0:
160,128,107479,1,8,0:0:0:0:
160,128,107566,1,0,0:0:0:0:
160,128,107652,1,0,0:0:0:0:
160,128,107739,1,8,0:0:0:0:
128,160,107912,1,0,0:0:0:0:
128,160,107999,1,0,0:0:0:0:
128,160,108086,1,8,0:0:0:0:
128,128,108173,1,0,0:0:0:0:
128,128,108259,1,8,0:0:0:0:
128,128,108433,1,8,0:0:0:0:
128,128,108519,1,8,0:0:0:0:
128,128,108606,1,0,0:0:0:0:
128,128,108779,1,0,0:0:0:0:
128,128,108866,1,0,0:0:0:0:
128,128,108953,1,8,0:0:0:0:
128,128,109126,1,0,0:0:0:0:
128,128,109213,1,0,0:0:0:0:
128,128,109300,1,8,0:0:0:0:
128,128,109386,1,0,0:0:0:0:
160,128,109473,1,8,0:0:0:0:
160,128,109560,1,8,0:0:0:0:
160,128,109646,1,0,0:0:0:0:
160,128,109820,1,8,0:0:0:0:
160,128,109993,1,4,0:0:0:0:
160,128,110167,1,0,0:0:0:0:
160,128,110253,1,0,0:0:0:0:
160,128,110340,1,8,0:0:0:0:
224,160,110514,1,0,0:0:0:0:
224,160,110600,1,0,0:0:0:0:
224,160,110687,1,8,0:0:0:0:
224,160,110774,1,0,0:0:0:0:
224,160,110860,1,0,0:0:0:0:
224,160,110947,1,0,0:0:0:0:
224,160,111034,1,0,0:0:0:0:
224,160,111120,1,0,0:0:0:0:
224,160,111207,1,0,0:0:0:0:
224,160,111294,1,0,0:0:0:0:
224,160,111381,1,8,0:0:0:0:
224,128,111554,1,0,0:0:0:0:
384,256,111641,1,0,0:0:0:0:
384,256,111727,1,8,0:0:0:0:
384,224,111901,1,0,0:0:0:0:
384,224,111988,1,0,0:0:0:0:
384,224,112074,1,0,0:0:0:0:
384,224,112161,1,0,0:0:0:0:
384,224,112248,1,8,0:0:0:0:
352,224,112421,1,8,0:0:0:0:
320,192,112594,1,0,0:0:0:0:
320,192,112681,1,0,0:0:0:0:
320,192,112768,1,8,0:0:0:0:
320,192,112941,1,8,0:0:0:0:
320,192,113028,1,8,0:0:0:0:
320,192,113115,1,0,0:0:0:0:
320,192,113288,1,0,0:0:0:0:
320,192,113375,1,0,0:0:0:0:
320,192,113462,1,8,0:0:0:0:
320,192,113548,1,8,0:0:0:0:
320,192,113635,1,0,0:0:0:0:
320,192,113722,1,0,0:0:0:0:
320,192,113808,1,8,0:0:0:0:
320,192,113982,1,0,0:0:0:0:
320,192,114155,1,8,0:0:0:0:
192,128,114242,1,0,0:0:0:0:
192,128,114329,1,0,0:0:0:0:
192,128,114415,1,0,0:0:0:0:
192,128,114502,1,8,0:0:0:0:
192,128,114589,1,0,0:0:0:0:
192,128,114675,1,0,0:0:0:0:
192,128,114762,1,0,0:0:0:0:
192,128,114849,1,8,0:0:0:0:
192,128,114936,1,0,0:0:0:0:
192,128,115022,1,0,0:0:0:0:
192,128,115109,1,0,0:0:0:0:
192,128,115196,1,8,0:0:0:0:
192,128,115282,1,0,0:0:0:0:
192,128,115369,1,0,0:0:0:0:
192,128,115456,1,0,0:0:0:0:
192,128,115542,1,8,0:0:0:0:
320,256,115629,1,0,0:0:0:0:
320,256,115716,1,0,0:0:0:0:
320,256,115803,1,0,0:0:0:0:
320,256,115889,1,8,0:0:0:0:
320,256,116063,1,0,0:0:0:0:
320,256,116149,1,0,0:0:0:0:
320,256,116236,1,0,0:0:0:0:
320,256,116409,1,0,0:0:0:0:
256,192,116583,12,0,116930,0:0:0:0:
192,128,117103,5,0,0:0:0:0:
192,128,117190,1,0,0:0:0:0:
192,128,117277,1,8,0:0:0:0:
224,96,117363,1,0,0:0:0:0:
192,128,117450,1,8,0:0:0:0:
192,128,117537,1,8,0:0:0:0:
192,128,117623,1,0,0:0:0:0:
192,128,117710,1,8,0:0:0:0:
192,128,117797,1,0,0:0:0:0:
192,128,117883,1,0,0:0:0:0:
192,128,117970,1,8,0:0:0:0:
160,128,118057,1,0,0:0:0:0:
160,128,118144,1,0,0:0:0:0:
160,128,118230,1,0,0:0:0:0:
160,128,118317,1,8,0:0:0:0:
256,96,118404,1,0,0:0:0:0:
256,96,118490,1,0,0:0:0:0:
256,96,118577,1,0,0:0:0:0:
256,96,118664,1,8,0:0:0:0:
160,128,118751,1,0,0:0:0:0:
160,128,118837,1,8,0:0:0:0:
160,128,118924,1,8,0:0:0:0:
160,128,119011,1,0,0:0:0:0:
160,128,119097,1,8,0:0:0:0:
160,128,119184,1,0,0:0:0:0:
160,128,119271,1,0,0:0:0:0:
160,128,119357,1,8,0:0:0:0:
160,128,119444,1,8,0:0:0:0:
160,128,119531,1,0,0:0:0:0:
160,128,119618,1,0,0:0:0:0:
160,128,119704,1,8,0:0:0:0:
224,128,119762,1,8,0:0:0:0:
224,128,119820,1,8,0:0:0:0:
224,128,119878,1,0,0:0:0:0:
224,96,119964,1,0,0:0:0:0:
160,128,120051,1,8,0:0:0:0:
160,128,120109,1,0,0:0:0:0:
160,128,120167,1,0,0:0:0:0:
160,128,120225,1,8,0:0:0:0:
192,128,120311,1,0,0:0:0:0:
128,160,120398,1,0,0:0:0:0:
128,160,120485,1,0,0:0:0:0:
128,160,120571,1,8,0:0:0:0:
128,128,120658,1,8,0:0:0:0:
224,128,120745,1,0,0:0:0:0:
224,128,120831,1,8,0:0:0:0:
224,128,120918,1,8,0:0:0:0:
224,128,121005,1,0,0:0:0:0:
192,128,121092,1,8,0:0:0:0:
192,128,121149,1,0,0:0:0:0:
192,128,121207,1,0,0:0:0:0:
192,128,121265,1,8,0:0:0:0:
224,96,121352,1,8,0:0:0:0:
224,96,121438,1,0,0:0:0:0:
160,128,121496,1,0,0:0:0:0:
224,96,121554,1,0,0:0:0:0:
224,96,121612,1,8,0:0:0:0:
128,128,121699,1,0,0:0:0:0:
128,128,121785,1,8,0:0:0:0:
128,128,121872,1,8,0:0:0:0:
128,128,121959,1,0,0:0:0:0:
128,128,122045,1,0,0:0:0:0:
128,128,122132,1,8,0:0:0:0:
128,128,122219,1,8,0:0:0:0:
128,128,122305,1,0,0:0:0:0:
128,128,122392,1,0,0:0:0:0:
128,128,122479,1,8,0:0:0:0:
256,160,122566,1,0,0:0:0:0:
256,160,122652,1,0,0:0:0:0:
448,320,122739,1,0,0:0:0:0:
448,320,122826,1,8,0:0:0:0:
448,320,122912,1,0,0:0:0:0:
256,192,122999,1,0,0:0:0:0:
256,192,123086,1,0,0:0:0:0:
256,192,123173,1,8,0:0:0:0:
256,192,123259,1,8,0:0:0:0:
256,192,123346,1,8,0:0:0:0:
256,192,123433,1,8,0:0:0:0:
256,192,123519,1,0,0:0:0:0:
256,192,123606,1,0,0:0:0:0:
256,192,123693,1,0,0:0:0:0:
256,192,123779,1,0,0:0:0:0:
256,192,123866,1,8,0:0:0:0:
224,192,123953,1,8,0:0:0:0:
224,192,124040,1,8,0:0:0:0:
224,192,124126,1,8,0:0:0:0:
224,192,124213,1,0,0:0:0:0:
224,192,124300,1,0,0:0:0:0:
224,192,124386,1,8,0:0:0:0:
224,192,124473,1,0,0:0:0:0:
224,192,124560,1,8,0:0:0:0:
224,192,124646,1,8,0:0:0:0:
224,192,124733,1,0,0:0:0:0:
224,192,124820,1,8,0:0:0:0:
224,192,124907,1,0,0:0:0:0:
224,192,124993,1,0,0:0:0:0:
224,192,125080,1,8,0:0:0:0:
224,192,125167,1,8,0:0:0:0:
224,192,125253,1,0,0:0:0:0:
224,192,125340,1,0,0:0:0:0:
224,192,125427,1,8,0:0:0:0:
224,192,125514,1,0,0:0:0:0:
160,128,125600,1,0,0:0:0:0:
160,128,125687,1,8,0:0:0:0:
160,128,125774,1,0,0:0:0:0:
160,128,125860,1,0,0:0:0:0:
160,128,125947,1,8,0:0:0:0:
160,128,126034,1,8,0:0:0:0:
160,128,126120,1,8,0:0:0:0:
160,128,126207,1,8,0:0:0:0:
160,128,126294,1,0,0:0:0:0:
160,128,126381,1,0,0:0:0:0:
160,128,126467,1,0,0:0:0:0:
160,128,126554,1,0,0:0:0:0:
160,128,126641,1,8,0:0:0:0:
160,128,126727,1,0,0:0:0:0:
192,128,126814,1,0,0:0:0:0:
192,96,126901,1,8,0:0:0:0:
192,96,126988,1,0,0:0:0:0:
192,96,127074,1,8,0:0:0:0:
192,96,127161,1,0,0:0:0:0:
192,96,127248,1,0,0:0:0:0:
192,96,127334,1,8,0:0:0:0:
128,160,127421,1,0,0:0:0:0:
160,160,127508,1,0,0:0:0:0:
160,160,127594,1,0,0:0:0:0:
160,160,127681,1,0,0:0:0:0:
352,128,127768,1,0,0:0:0:0:
192,160,127855,1,8,0:0:0:0:
192,160,127941,1,0,0:0:0:0:
192,160,128028,1,8,0:0:0:0:
320,192,128086,1,8,0:0:0:0:
320,192,128144,1,8,0:0:0:0:
320,192,128201,1,0,0:0:0:0:
352,96,128288,1,0,0:0:0:0:
320,192,128375,1,8,0:0:0:0:
192,160,128433,1,0,0:0:0:0:
128,128,128490,1,0,0:0:0:0:
320,192,128548,1,8,0:0:0:0:
320,192,128635,1,0,0:0:0:0:
320,192,128722,1,8,0:0:0:0:
320,192,128808,1,0,0:0:0:0:
320,192,128895,1,0,0:0:0:0:
320,192,128982,1,8,0:0:0:0:
320,192,129068,1,0,0:0:0:0:
320,192,129155,1,8,0:0:0:0:
320,192,129242,1,0,0:0:0:0:
192,160,129329,1,0,0:0:0:0:
320,192,129415,1,8,0:0:0:0:
320,192,129473,1,8,0:0:0:0:
256,96,129531,1,8,0:0:0:0:
320,192,129589,1,0,0:0:0:0:
320,192,129675,1,0,0:0:0:0:
192,160,129762,1,0,0:0:0:0:
192,160,129820,1,0,0:0:0:0:
160,128,129878,1,0,0:0:0:0:
320,192,129936,1,8,0:0:0:0:
192,160,130022,1,0,0:0:0:0:
256,160,130109,1,8,0:0:0:0:
160,128,130196,1,8,0:0:0:0:
256,160,130282,1,0,0:0:0:0:
192,160,130369,1,0,0:0:0:0:
192,160,130456,1,8,0:0:0:0:
320,192,130514,1,0,0:0:0:0:
256,64,130571,1,0,0:0:0:0:
256,64,130629,1,8,0:0:0:0:
256,96,130716,1,0,0:0:0:0:
320,192,130803,1,8,0:0:0:0:
416,320,130976,1,0,0:0:0:0:
416,320,131149,1,8,0:0:0:0:
416,320,131323,1,0,0:0:0:0:
416,320,131409,1,0,0:0:0:0:
416,320,131496,1,8,0:0:0:0:
416,320,131670,1,8,0:0:0:0:
416,320,131756,1,8,0:0:0:0:
416,320,131843,1,0,0:0:0:0:
416,320,131930,1,0,0:0:0:0:
416,320,132016,1,8,0:0:0:0:
416,320,132103,1,8,0:0:0:0:
416,320,132190,1,0,0:0:0:0:
224,224,132363,1,0,0:0:0:0:
224,224,132450,1,0,0:0:0:0:
224,224,132537,1,8,0:0:0:0:
224,224,132710,1,0,0:0:0:0:
352,288,132883,1,0,0:0:0:0:
256,192,133057,1,0,0:0:0:0:
256,192,133144,1,0,0:0:0:0:
256,192,133230,1,8,0:0:0:0:
224,192,133317,1,0,0:0:0:0:
224,192,133404,1,8,0:0:0:0:
224,192,133490,1,8,0:0:0:0:
224,192,133577,1,0,0:0:0:0:
224,192,133751,1,0,0:0:0:0:
224,192,133837,1,0,0:0:0:0:
224,192,133924,1,8,0:0:0:0:
224,192,134097,1,8,0:0:0:0:
224,192,134271,1,0,0:0:0:0:
224,192,134444,1,0,0:0:0:0:
224,192,134531,1,0,0:0:0:0:
224,192,134618,1,8,0:0:0:0:
224,192,134704,1,8,0:0:0:0:
224,192,134791,1,0,0:0:0:0:
224,192,134964,1,0,0:0:0:0:
224,192,135138,1,0,0:0:0:0:
224,192,135225,1,0,0:0:0:0:
224,192,135311,1,8,0:0:0:0:
224,192,135485,1,8,0:0:0:0:
224,192,135571,1,0,0:0:0:0:
224,192,135658,1,8,0:0:0:0:
224,192,135745,1,8,0:0:0:0:
224,192,135831,1,0,0:0:0:0:
224,192,135918,1,0,0:0:0:0:
224,192,136005,1,8,0:0:0:0:
224,192,136092,1,0,0:0:0:0:
224,192,136178,1,8,0:0:0:0:
224,192,136352,1,4,0:0:0:0:
224,192,136525,1,8,0:0:0:0:
224,192,136699,1,8,0:0:0:0:
224,192,136785,1,8,0:0:0:0:
224,192,136872,1,8,0:0:0:0:
224,192,137045,1,4,0:0:0:0:
224,192,137219,1,8,0:0:0:0:
224,192,137305,1,8,0:0:0:0:
224,192,137392,1,8,0:0:0:0:
224,192,137566,1,8,0:0:0:0:
224,192,137739,1,4,0:0:0:0:
224,192,137912,1,8,0:0:0:0:
224,192,137999,1,8,0:0:0:0:
224,192,138086,1,8,0:0:0:0:
224,192,138259,1,8,0:0:0:0:
224,192,138346,1,8,0:0:0:0:
224,192,138433,1,0,0:0:0:0:
224,192,138606,1,0,0:0:0:0:
224,192,138779,1,8,0:0:0:0:
224,192,138953,1,8,0:0:0:0:
224,192,139126,1,4,0:0:0:0:
224,192,139300,1,8,0:0:0:0:
224,192,139386,1,8,0:0:0:0:
224,192,139473,1,8,0:0:0:0:
224,192,139646,1,8,0:0:0:0:
224,192,139733,1,8,0:0:0:0:
224,192,139820,1,0,0:0:0:0:
224,192,139993,1,8,0:0:0:0:
224,192,140080,1,8,0:0:0:0:
224,192,140167,1,8,0:0:0:0:
224,192,140340,1,8,0:0:0:0:
224,192,140427,1,8,0:0:0:0:
224,192,140514,1,0,0:0:0:0:
224,192,140687,1,0,0:0:0:0:
192,128,140774,1,0,0:0:0:0:
96,160,140860,1,8,0:0:0:0:
160,160,141034,1,8,0:0:0:0:
160,160,141207,1,0,0:0:0:0:
160,160,141294,1,0,0:0:0:0:
160,160,141381,1,0,0:0:0:0:
160,160,141467,1,0,0:0:0:0:
160,160,141554,1,8,0:0:0:0:
160,160,141641,1,8,0:0:0:0:
160,160,141727,1,8,0:0:0:0:
160,160,141814,1,8,0:0:0:0:
160,160,141901,1,0,0:0:0:0:
192,192,141988,1,0,0:0:0:0:
192,192,142074,1,0,0:0:0:0:
192,192,142161,1,0,0:0:0:0:
192,192,142248,1,0,0:0:0:0:
192,160,142334,1,0,0:0:0:0:
192,160,142421,1,0,0:0:0:0:
192,160,142508,1,0,0:0:0:0:
192,160,142594,1,8,0:0:0:0:
192,160,142681,1,8,0:0:0:0:
192,160,142768,1,8,0:0:0:0:
192,160,142855,1,8,0:0:0:0:
192,160,142941,1,8,0:0:0:0:
192,160,143028,1,8,0:0:0:0:
192,160,143115,1,8,0:0:0:0:
192,160,143201,1,8,0:0:0:0:
192,160,143288,1,0,0:0:0:0:
192,160,143375,1,0,0:0:0:0:
192,160,143462,1,0,0:0:0:0:
192,160,143548,1,0,0:0:0:0:
192,160,143635,1,0,0:0:0:0:
192,160,143722,1,0,0:0:0:0:
192,160,143808,1,0,0:0:0:0:
192,160,143895,1,0,0:0:0:0:
192,160,143982,1,8,0:0:0:0:
192,160,144068,1,8,0:0:0:0:
192,160,144155,1,8,0:0:0:0:
192,160,144242,1,8,0:0:0:0:
192,160,144329,1,8,0:0:0:0:
192,160,144415,1,8,0:0:0:0:
192,160,144502,1,8,0:0:0:0:
192,160,144589,1,8,0:0:0:0:
192,160,144675,1,0,0:0:0:0:
192,160,144762,1,8,0:0:0:0:
192,160,144849,1,0,0:0:0:0:
192,160,144936,1,0,0:0:0:0:
192,160,145022,1,8,0:0:0:0:
96,160,145109,1,0,0:0:0:0:
96,160,145196,1,8,0:0:0:0:
96,160,145282,1,8,0:0:0:0:
96,160,145369,1,0,0:0:0:0:
96,160,145456,1,8,0:0:0:0:
96,160,145542,1,0,0:0:0:0:
96,160,145629,1,0,0:0:0:0:
96,160,145716,1,8,0:0:0:0:
96,160,145803,1,0,0:0:0:0:
96,160,145889,1,8,0:0:0:0:
96,160,145976,1,8,0:0:0:0:
96,160,146063,1,0,0:0:0:0:
96,160,146149,1,0,0:0:0:0:
96,160,146236,1,8,0:0:0:0:
96,160,146323,1,0,0:0:0:0:
96,160,146409,1,8,0:0:0:0:
96,160,146496,1,8,0:0:0:0:
96,160,146583,1,0,0:0:0:0:
96,160,146670,1,8,0:0:0:0:
96,160,146756,1,0,0:0:0:0:
96,160,146843,1,0,0:0:0:0:
96,160,146930,1,8,0:0:0:0:
96,160,147016,1,8,0:0:0:0:
96,160,147103,1,0,0:0:0:0:
96,160,147190,1,0,0:0:0:0:
96,160,147277,1,8,0:0:0:0:
96,160,147363,1,0,0:0:0:0:
96,160,147450,1,8,0:0:0:0:
384,256,147537,1,8,0:0:0:0:
384,256,147623,1,8,0:0:0:0:
448,320,147710,1,8,0:0:0:0:
448,320,147797,1,8,0:0:0:0:
448,320,147883,1,8,0:0:0:0:
448,320,147970,1,0,0:0:0:0:
448,320,148057,1,0,0:0:0:0:
128,160,148144,1,0,0:0:0:0:
128,160,148230,1,0,0:0:0:0:
128,192,148317,1,0,0:0:0:0:
128,192,148404,1,0,0:0:0:0:
128,192,148490,1,0,0:0:0:0:
128,192,148577,1,0,0:0:0:0:
128,192,148664,1,0,0:0:0:0:
128,192,148751,1,0,0:0:0:0:
128,192,148837,1,8,0:0:0:0:
192,256,149531,1,0,0:0:0:0:
192,256,149878,1,0,0:0:0:0:
128,160,150225,1,0,0:0:0:0:
128,160,150311,1,0,0:0:0:0:
288,192,150398,1,8,0:0:0:0:
288,192,150485,1,0,0:0:0:0:
288,192,150571,1,8,0:0:0:0:
288,192,150658,1,8,0:0:0:0:
288,192,150745,1,0,0:0:0:0:
288,192,150831,1,0,0:0:0:0:
288,192,150918,1,8,0:0:0:0:
288,192,151005,1,8,0:0:0:0:
288,192,151092,1,0,0:0:0:0:
288,192,151178,1,0,0:0:0:0:
288,192,151265,1,0,0:0:0:0:
96,160,151352,1,0,0:0:0:0:
96,160,151438,1,8,0:0:0:0:
96,160,151525,1,8,0:0:0:0:
96,160,151612,1,0,0:0:0:0:
96,160,151699,1,8,0:0:0:0:
96,160,151785,1,0,0:0:0:0:
96,160,151872,1,0,0:0:0:0:
96,160,151959,1,8,0:0:0:0:
96,160,152045,1,0,0:0:0:0:
96,160,152132,1,8,0:0:0:0:
96,160,152219,1,8,0:0:0:0:
96,160,152305,1,0,0:0:0:0:
96,160,152392,1,8,0:0:0:0:
96,160,152479,1,0,0:0:0:0:
96,160,152566,1,0,0:0:0:0:
160,160,152652,1,8,0:0:0:0:
160,160,152739,1,0,0:0:0:0:
160,160,152826,1,8,0:0:0:0:
160,160,152912,1,8,0:0:0:0:
160,160,152999,1,0,0:0:0:0:
160,160,153086,1,0,0:0:0:0:
160,160,153173,1,0,0:0:0:0:
160,160,153259,1,0,0:0:0:0:
160,160,153346,1,8,0:0:0:0:
160,160,153433,1,8,0:0:0:0:
160,160,153519,1,8,0:0:0:0:
160,160,153606,1,8,0:0:0:0:
160,160,153693,1,0,0:0:0:0:
160,160,153779,1,0,0:0:0:0:
160,160,153866,1,8,0:0:0:0:
160,160,153953,1,0,0:0:0:0:
160,160,154040,1,8,0:0:0:0:
160,160,154126,1,8,0:0:0:0:
160,160,154213,1,0,0:0:0:0:
160,160,154300,1,8,0:0:0:0:
160,160,154386,1,0,0:0:0:0:
160,160,154473,1,0,0:0:0:0:
160,160,154560,1,8,0:0:0:0:
96,128,154646,1,8,0:0:0:0:
96,128,154733,1,0,0:0:0:0:
96,128,154820,1,0,0:0:0:0:
96,128,154907,1,8,0:0:0:0:
96,128,154993,1,0,0:0:0:0:
96,128,155080,1,8,0:0:0:0:
96,128,155167,1,8,0:0:0:0:
96,128,155253,1,0,0:0:0:0:
96,128,155340,1,8,0:0:0:0:
96,128,155427,1,0,0:0:0:0:
96,128,155514,1,8,0:0:0:0:
96,128,155600,1,0,0:0:0:0:
96,128,155687,1,0,0:0:0:0:
96,128,155774,1,8,0:0:0:0:
96,128,155860,1,0,0:0:0:0:
96,128,155947,1,0,0:0:0:0:
96,128,156034,1,8,0:0:0:0:
128,128,156120,1,8,0:0:0:0:
128,128,156207,1,8,0:0:0:0:
128,128,156294,1,0,0:0:0:0:
128,128,156381,1,0,0:0:0:0:
128,128,156467,1,8,0:0:0:0:
128,128,156554,1,0,0:0:0:0:
128,128,156641,1,8,0:0:0:0:
128,128,156727,1,8,0:0:0:0:
128,128,156814,1,0,0:0:0:0:
128,128,156901,1,0,0:0:0:0:
128,128,156988,1,8,0:0:0:0:
128,128,157074,1,0,0:0:0:0:
128,128,157161,1,8,0:0:0:0:
128,128,157248,1,8,0:0:0:0:
128,128,157334,1,0,0:0:0:0:
128,128,157421,1,8,0:0:0:0:
128,128,157508,1,0,0:0:0:0:
128,128,157594,1,0,0:0:0:0:
128,128,157681,1,8,0:0:0:0:
128,128,157768,1,0,0:0:0:0:
128,128,157855,1,8,0:0:0:0:
128,128,157941,1,8,0:0:0:0:
128,128,158028,1,0,0:0:0:0:
128,96,158115,1,0,0:0:0:0:
128,96,158201,1,8,0:0:0:0:
128,96,158288,1,0,0:0:0:0:
128,96,158375,1,8,0:0:0:0:
128,96,158462,1,8,0:0:0:0:
128,96,158548,1,0,0:0:0:0:
128,96,158635,1,0,0:0:0:0:
128,96,158722,1,0,0:0:0:0:
128,96,158808,1,0,0:0:0:0:
128,96,158895,1,8,0:0:0:0:
128,96,158982,1,8,0:0:0:0:
128,96,159068,1,0,0:0:0:0:
128,96,159155,1,0,0:0:0:0:
128,96,159242,1,8,0:0:0:0:
128,96,159329,1,8,0:0:0:0:
128,96,159415,1,0,0:0:0:0:
128,96,159502,1,0,0:0:0:0:
96,128,159589,1,8,0:0:0:0:
192,128,159675,1,8,0:0:0:0:
128,128,159762,1,0,0:0:0:0:
128,128,159849,1,0,0:0:0:0:
128,128,159936,1,8,0:0:0:0:
128,128,160022,1,0,0:0:0:0:
128,128,160109,1,8,0:0:0:0:
128,128,160196,1,8,0:0:0:0:
128,128,160282,1,0,0:0:0:0:
128,128,160369,1,8,0:0:0:0:
128,128,160456,1,0,0:0:0:0:
128,128,160542,1,0,0:0:0:0:
128,128,160629,1,8,0:0:0:0:
192,160,160745,1,0,0:0:0:0:
192,160,160860,1,8,0:0:0:0:
192,160,160976,1,0,0:0:0:0:
192,160,161092,1,0,0:0:0:0:
192,160,161207,1,8,0:0:0:0:
192,160,161323,1,0,0:0:0:0:
192,128,161409,1,0,0:0:0:0:
192,128,161496,1,8,0:0:0:0:
288,128,161583,1,0,0:0:0:0:
288,128,161670,1,8,0:0:0:0:
288,128,161756,1,8,0:0:0:0:
288,128,161843,1,0,0:0:0:0:
288,128,161930,1,8,0:0:0:0:
288,128,162016,1,0,0:0:0:0:
288,128,162103,1,0,0:0:0:0:
288,128,162190,1,8,0:0:0:0:
288,128,162277,1,0,0:0:0:0:
288,128,162363,1,0,0:0:0:0:
288,128,162450,1,0,0:0:0:0:
288,128,162537,1,8,0:0:0:0:
288,128,162623,1,0,0:0:0:0:
256,128,162710,1,0,0:0:0:0:
256,128,162797,1,0,0:0:0:0:
256,128,162883,1,8,0:0:0:0:
256,128,162970,1,0,0:0:0:0:
256,128,163057,1,8,0:0:0:0:
256,128,163144,1,8,0:0:0:0:
256,128,163230,1,0,0:0:0:0:
256,128,163317,1,8,0:0:0:0:
256,128,163404,1,0,0:0:0:0:
256,128,163490,1,0,0:0:0:0:
256,128,163577,1,8,0:0:0:0:
256,128,163664,1,0,0:0:0:0:
256,128,163751,1,8,0:0:0:0:
256,128,163837,1,8,0:0:0:0:
256,128,163924,1,0,0:0:0:0:
256,128,164011,1,0,0:0:0:0:
256,128,164097,1,8,0:0:0:0:
256,128,164184,1,8,0:0:0:0:
256,128,164271,1,8,0:0:0:0:
256,128,164357,1,8,0:0:0:0:
256,128,164444,1,0,0:0:0:0:
256,128,164531,1,0,0:0:0:0:
256,128,164618,1,8,0:0:0:0:
256,128,164704,1,8,0:0:0:0:
256,128,164791,1,8,0:0:0:0:
256,128,164878,1,8,0:0:0:0:
256,128,164964,1,0,0:0:0:0:
256,128,165051,1,0,0:0:0:0:
256,128,165138,1,8,0:0:0:0:
256,128,165225,1,0,0:0:0:0:
256,128,165311,1,8,0:0:0:0:
256,128,165398,1,8,0:0:0:0:
256,128,165485,1,0,0:0:0:0:
256,128,165571,1,8,0:0:0:0:
256,128,165658,1,0,0:0:0:0:
256,128,165745,1,0,0:0:0:0:
256,128,165831,1,8,0:0:0:0:
256,128,165918,1,0,0:0:0:0:
256,128,166005,1,8,0:0:0:0:
256,128,166092,1,8,0:0:0:0:
256,128,166178,1,0,0:0:0:0:
256,128,166265,1,8,0:0:0:0:
256,128,166352,1,0,0:0:0:0:
256,128,166438,1,0,0:0:0:0:
256,128,166525,1,8,0:0:0:0:
288,192,166612,1,8,0:0:0:0:
288,192,166699,1,8,0:0:0:0:
288,192,166785,1,8,0:0:0:0:
288,192,166872,1,0,0:0:0:0:
288,192,166959,1,0,0:0:0:0:
288,192,167045,1,0,0:0:0:0:
288,192,167132,1,0,0:0:0:0:
288,192,167219,1,0,0:0:0:0:
288,192,167305,1,0,0:0:0:0:
288,192,167392,1,0,0:0:0:0:
288,192,167479,1,0,0:0:0:0:
288,192,167566,1,8,0:0:0:0:
288,192,167652,1,0,0:0:0:0:
288,192,167739,1,0,0:0:0:0:
288,192,167826,1,0,0:0:0:0:
288,192,167912,1,0,0:0:0:0:
288,192,167999,1,0,0:0:0:0:
288,192,168086,1,0,0:0:0:0:
288,192,168173,1,0,0:0:0:0:
288,192,168259,1,8,0:0:0:0:
288,192,168346,1,0,0:0:0:0:
288,192,168433,1,0,0:0:0:0:
288,192,168519,1,0,0:0:0:0:
288,192,168606,1,8,0:0:0:0:
288,192,168693,1,0,0:0:0:0:
288,192,168779,1,0,0:0:0:0:
288,192,168866,1,0,0:0:0:0:
160,128,168953,1,8,0:0:0:0:
224,96,169040,1,8,0:0:0:0:
224,96,169126,1,8,0:0:0:0:
224,96,169213,1,8,0:0:0:0:
224,96,169300,1,0,0:0:0:0:
224,96,169386,1,0,0:0:0:0:
224,96,169473,1,0,0:0:0:0:
224,96,169560,1,0,0:0:0:0:
224,96,169646,1,8,0:0:0:0:
224,96,169733,1,8,0:0:0:0:
224,96,169820,1,0,0:0:0:0:
224,96,169907,1,0,0:0:0:0:
224,96,169993,1,8,0:0:0:0:
224,96,170080,1,8,0:0:0:0:
224,96,170167,1,0,0:0:0:0:
224,96,170253,1,0,0:0:0:0:
224,96,170340,1,8,0:0:0:0:
224,96,170427,1,8,0:0:0:0:
224,96,170514,1,0,0:0:0:0:
224,96,170600,1,0,0:0:0:0:
224,96,170687,1,8,0:0:0:0:
224,96,170774,1,8,0:0:0:0:
224,96,170860,1,0,0:0:0:0:
224,96,170947,1,0,0:0:0:0:
224,96,171034,1,8,0:0:0:0:
384,288,171120,1,8,0:0:0:0:
352,288,171207,1,8,0:0:0:0:
352,288,171294,5,8,0:0:0:0:
352,288,171381,1,0,0:0:0:0:
96,160,171467,1,0,0:0:0:0:
96,160,171554,1,0,0:0:0:0:
96,160,171641,1,0,0:0:0:0:
96,160,171727,1,8,0:0:0:0:
96,160,171814,1,8,0:0:0:0:
96,160,171901,1,0,0:0:0:0:
96,160,171988,1,0,0:0:0:0:
96,160,172074,1,8,0:0:0:0:
96,160,172161,1,8,0:0:0:0:
96,160,172248,1,0,0:0:0:0:
256,192,172421,5,0,0:0:0:0:
256,192,172508,1,8,0:0:0:0:
256,192,172594,1,0,0:0:0:0:
256,192,172681,1,0,0:0:0:0:
256,192,172768,1,8,0:0:0:0:
256,192,172855,1,8,0:0:0:0:
256,192,172941,1,0,0:0:0:0:
256,192,173028,1,8,0:0:0:0:
256,192,173115,1,0,0:0:0:0:
256,192,173201,1,8,0:0:0:0:
256,192,173288,1,0,0:0:0:0:
256,192,173375,1,0,0:0:0:0:
256,192,173462,1,8,0:0:0:0:
256,192,173548,1,8,0:0:0:0:
256,192,173635,1,0,0:0:0:0:
256,192,173722,1,8,0:0:0:0:
256,192,173808,1,0,0:0:0:0:
256,192,173895,1,8,0:0:0:0:
256,192,173982,1,0,0:0:0:0:
256,192,174068,1,0,0:0:0:0:
256,192,174155,1,8,0:0:0:0:
256,192,174242,1,0,0:0:0:0:
256,192,174329,1,8,0:0:0:0:
256,192,174415,1,8,0:0:0:0:
256,192,174502,1,0,0:0:0:0:
256,192,174589,1,8,0:0:0:0:
256,192,174675,1,0,0:0:0:0:
256,192,174762,1,0,0:0:0:0:
256,192,174849,1,8,0:0:0:0:
256,192,174907,1,0,0:0:0:0:
256,192,174964,1,0,0:0:0:0:
256,192,175022,1,8,0:0:0:0:
256,192,175080,1,8,0:0:0:0:
256,192,175138,1,8,0:0:0:0:
256,192,175196,1,0,0:0:0:0:
256,192,175369,1,0,0:0:0:0:
256,192,175456,1,0,0:0:0:0:
256,192,175542,1,8,0:0:0:0:
256,192,175716,1,0,0:0:0:0:
256,192,175803,1,8,0:0:0:0:
256,192,175889,1,0,0:0:0:0:
256,192,176063,1,0,0:0:0:0:
256,192,176236,1,8,0:0:0:0:
256,192,176409,1,0,0:0:0:0:
256,192,176496,1,0,0:0:0:0:
256,192,176583,1,8,0:0:0:0:
256,192,176641,1,8,0:0:0:0:
256,192,176699,1,8,0:0:0:0:
256,192,176756,1,0,0:0:0:0:
256,192,176843,1,0,0:0:0:0:
256,192,176930,1,8,0:0:0:0:
256,192,177103,1,0,0:0:0:0:
256,192,177190,1,8,0:0:0:0:
256,192,177277,1,0,0:0:0:0:
256,192,177334,1,0,0:0:0:0:
256,192,177392,1,0,0:0:0:0:
256,192,177450,1,8,0:0:0:0:
256,192,177537,1,0,0:0:0:0:
256,192,177623,1,8,0:0:0:0:
256,192,177797,1,0,0:0:0:0:
256,192,177883,1,0,0:0:0:0:
256,192,177970,1,8,0:0:0:0:
256,192,178028,1,8,0:0:0:0:
256,192,178086,1,8,0:0:0:0:
256,192,178144,1,0,0:0:0:0:
256,192,178230,1,0,0:0:0:0:
256,192,178317,1,8,0:0:0:0:
256,192,178490,1,8,0:0:0:0:
256,192,178577,1,8,0:0:0:0:
256,192,178664,1,0,0:0:0:0:
256,192,178722,1,8,0:0:0:0:
256,192,178779,1,8,0:0:0:0:
256,192,178837,1,0,0:0:0:0:
256,192,178924,1,0,0:0:0:0:
256,192,179011,1,8,0:0:0:0:
256,192,179184,1,0,0:0:0:0:
256,192,179357,1,8,0:0:0:0:
256,192,179415,1,0,0:0:0:0:
256,192,179473,1,0,0:0:0:0:
256,192,179531,1,8,0:0:0:0:
256,192,179589,1,0,0:0:0:0:
256,192,179646,1,0,0:0:0:0:
256,192,179704,1,8,0:0:0:0:
256,192,179791,1,8,0:0:0:0:
256,192,179878,1,0,0:0:0:0:
256,192,179964,1,0,0:0:0:0:
256,192,180051,1,8,0:0:0:0:
256,192,180109,1,8,0:0:0:0:
256,192,180167,1,8,0:0:0:0:
256,192,180225,1,0,0:0:0:0:
256,192,180311,1,0,0:0:0:0:
256,192,180398,1,8,0:0:0:0:
256,192,180571,1,8,0:0:0:0:
256,192,180658,1,8,0:0:0:0:
256,192,180745,1,0,0:0:0:0:
256,192,180918,1,0,0:0:0:0:
256,192,181005,1,0,0:0:0:0:
256,192,181092,1,8,0:0:0:0:
256,192,181207,1,8,0:0:0:0:
256,192,181323,1,0,0:0:0:0:
256,192,181438,1,8,0:0:0:0:
256,192,181525,1,0,0:0:0:0:
256,192,181612,1,8,0:0:0:0:
256,192,181699,1,8,0:0:0:0:
256,192,181785,1,0,0:0:0:0:
256,192,181959,1,0,0:0:0:0:
256,192,182045,1,0,0:0:0:0:
256,192,182132,1,8,0:0:0:0:
256,192,182190,1,0,0:0:0:0:
256,192,182248,1,0,0:0:0:0:
256,192,182305,1,8,0:0:0:0:
256,192,182392,1,8,0:0:0:0:
256,192,182479,1,0,0:0:0:0:
256,192,182566,1,8,0:0:0:0:
256,192,182652,1,0,0:0:0:0:
256,192,182739,1,0,0:0:0:0:
256,192,182826,1,8,0:0:0:0:
256,192,182883,1,8,0:0:0:0:
256,192,182941,1,8,0:0:0:0:
256,192,182999,1,0,0:0:0:0:
256,192,183086,1,0,0:0:0:0:
256,192,183173,1,8,0:0:0:0:
256,192,183259,1,0,0:0:0:0:
256,192,183346,1,8,0:0:0:0:
256,192,183433,1,8,0:0:0:0:
256,192,183519,1,0,0:0:0:0:
256,192,183635,1,0,0:0:0:0:
256,192,183751,1,0,0:0:0:0:
256,192,183866,1,8,0:0:0:0:
256,192,183982,1,8,0:0:0:0:
256,192,184097,1,8,0:0:0:0:
256,192,184213,1,0,0:0:0:0:
256,192,184329,1,8,0:0:0:0:
256,192,184444,1,8,0:0:0:0:
256,192,184560,1,0,0:0:0:0:
256,192,184675,1,0,0:0:0:0:
256,192,184791,1,0,0:0:0:0:
256,192,184907,1,8,0:0:0:0:
256,192,184993,1,8,0:0:0:0:
256,192,185080,1,8,0:0:0:0:
256,192,185167,1,0,0:0:0:0:
256,192,185253,1,8,0:0:0:0:
256,192,185340,1,0,0:0:0:0:
256,192,185427,1,8,0:0:0:0:
256,192,185514,1,8,0:0:0:0:
256,192,185600,1,0,0:0:0:0:
256,192,185687,1,0,0:0:0:0:
256,192,185774,1,0,0:0:0:0:
256,192,185860,1,0,0:0:0:0:
256,192,185947,1,8,0:0:0:0:
256,192,186034,1,8,0:0:0:0:
256,192,186120,1,8,0:0:0:0:
256,192,186207,1,8,0:0:0:0:
256,192,186294,1,0,0:0:0:0:
256,192,186467,1,8,0:0:0:0:
256,192,186554,1,0,0:0:0:0:
256,192,186641,1,8,0:0:0:0:
256,192,186814,1,0,0:0:0:0:
256,192,186901,1,8,0:0:0:0:
256,192,186988,1,0,0:0:0:0:
256,192,187074,1,8,0:0:0:0:
256,192,187161,1,0,0:0:0:0:
256,192,187248,1,0,0:0:0:0:
256,192,187334,1,8,0:0:0:0:
256,192,187508,1,8,0:0:0:0:
256,192,187594,1,8,0:0:0:0:
256,192,187681,1,0,0:0:0:0:
256,192,187768,1,0,0:0:0:0:
256,192,187855,1,8,0:0:0:0:
256,192,187941,1,0,0:0:0:0:
256,192,188028,1,0,0:0:0:0:
256,192,188115,1,8,0:0:0:0:
256,192,188201,1,0,0:0:0:0:
256,192,188288,1,8,0:0:0:0:
256,192,188375,1,0,0:0:0:0:
256,192,188462,1,0,0:0:0:0:
256,192,188548,1,8,0:0:0:0:
256,192,188635,1,8,0:0:0:0:
256,192,188722,1,0,0:0:0:0:
256,192,188808,1,8,0:0:0:0:
256,192,188895,1,8,0:0:0:0:
256,192,188982,1,8,0:0:0:0:
256,192,189068,1,0,0:0:0:0:
256,192,189155,1,8,0:0:0:0:
256,192,189242,1,0,0:0:0:0:
256,192,189329,1,0,0:0:0:0:
256,192,189415,1,8,0:0:0:0:
256,192,189502,1,0,0:0:0:0:
256,192,189589,1,8,0:0:0:0:
256,192,189675,1,8,0:0:0:0:
256,192,189762,1,8,0:0:0:0:
256,192,189849,1,0,0:0:0:0:
256,192,189936,1,8,0:0:0:0:
256,192,190022,1,8,0:0:0:0:
256,192,190109,1,0,0:0:0:0:
256,192,190196,1,8,0:0:0:0:
256,192,190282,1,8,0:0:0:0:
256,192,190369,1,0,0:0:0:0:
256,192,190456,1,0,0:0:0:0:
256,192,190542,1,8,0:0:0:0:
256,192,190629,1,0,0:0:0:0:
256,192,190716,1,0,0:0:0:0:
256,192,190803,1,8,0:0:0:0:
256,192,190889,1,8,0:0:0:0:
256,192,190976,1,0,0:0:0:0:
256,192,191034,1,0,0:0:0:0:
256,192,191092,1,0,0:0:0:0:
256,192,191149,1,8,0:0:0:0:
256,192,191496,1,8,0:0:0:0:
256,192,191554,1,8,0:0:0:0:
256,192,191612,1,8,0:0:0:0:
256,192,191670,1,8,0:0:0:0:
256,192,191727,1,8,0:0:0:0:
256,192,191785,1,8,0:0:0:0:
128,192,191843,1,0,0:0:0:0:
224,192,191930,1,0,0:0:0:0:
192,192,192016,1,8,0:0:0:0:
192,192,192103,1,0,0:0:0:0:
192,192,192190,1,8,0:0:0:0:
192,192,192277,1,8,0:0:0:0:
192,192,192363,1,0,0:0:0:0:
192,192,192450,1,0,0:0:0:0:
192,192,192537,1,0,0:0:0:0:
192,192,192623,1,0,0:0:0:0:
192,192,192710,1,8,0:0:0:0:
192,192,192797,1,0,0:0:0:0:
192,192,192883,1,8,0:0:0:0:
192,192,192970,1,8,0:0:0:0:
192,192,193057,1,0,0:0:0:0:
192,192,193144,1,0,0:0:0:0:
192,192,193230,1,8,0:0:0:0:
128,160,193317,1,8,0:0:0:0:
192,192,193404,1,0,0:0:0:0:
128,160,193490,1,0,0:0:0:0:
128,160,193577,1,8,0:0:0:0:
128,160,193664,1,8,0:0:0:0:
128,160,193751,1,8,0:0:0:0:
128,160,193837,1,0,0:0:0:0:
128,160,193924,1,0,0:0:0:0:
128,160,194011,1,0,0:0:0:0:
128,160,194097,1,8,0:0:0:0:
128,160,194184,1,0,0:0:0:0:
128,160,194271,1,8,0:0:0:0:
128,160,194357,1,8,0:0:0:0:
128,160,194444,1,0,0:0:0:0:
128,160,194531,1,8,0:0:0:0:
128,160,194618,1,0,0:0:0:0:
128,160,194704,1,0,0:0:0:0:
128,160,194791,1,8,0:0:0:0:
128,160,194878,1,0,0:0:0:0:
128,160,194964,1,8,0:0:0:0:
128,160,195051,1,8,0:0:0:0:
128,160,195138,1,0,0:0:0:0:
128,160,195225,1,0,0:0:0:0:
128,160,195311,1,8,0:0:0:0:
128,160,195398,1,8,0:0:0:0:
128,160,195485,1,8,0:0:0:0:
128,160,195571,1,8,0:0:0:0:
128,160,195658,1,0,0:0:0:0:
128,160,195745,1,0,0:0:0:0:
128,160,195831,1,8,0:0:0:0:
128,160,195918,1,0,0:0:0:0:
128,160,196005,1,8,0:0:0:0:
128,160,196092,1,8,0:0:0:0:
128,160,196178,1,0,0:0:0:0:
128,160,196265,1,8,0:0:0:0:
128,160,196352,1,0,0:0:0:0:
128,160,196438,1,0,0:0:0:0:
128,160,196525,1,8,0:0:0:0:
128,160,196612,1,0,0:0:0:0:
128,160,196699,1,8,0:0:0:0:
128,160,196785,1,8,0:0:0:0:
128,160,196872,1,8,0:0:0:0:
128,160,196959,1,8,0:0:0:0:
128,160,197045,1,0,0:0:0:0:
128,160,197132,1,0,0:0:0:0:
128,160,197219,1,0,0:0:0:0:
128,160,197305,1,0,0:0:0:0:
128,160,197392,1,8,0:0:0:0:
288,224,197566,1,0,0:0:0:0:
288,224,197652,1,0,0:0:0:0:
288,224,197739,1,8,0:0:0:0:
288,224,197912,1,0,0:0:0:0:
288,224,197999,1,0,0:0:0:0:
288,224,198086,1,8,0:0:0:0:
288,224,198173,1,0,0:0:0:0:
288,224,198259,1,8,0:0:0:0:
288,224,198346,1,8,0:0:0:0:
288,224,198433,1,0,0:0:0:0:
288,224,198606,1,0,0:0:0:0:
288,224,198693,1,0,0:0:0:0:
288,224,198779,1,8,0:0:0:0:
160,160,198953,1,0,0:0:0:0:
160,160,199040,1,0,0:0:0:0:
160,160,199126,1,0,0:0:0:0:
160,160,199300,1,0,0:0:0:0:
160,160,199386,1,0,0:0:0:0:
160,160,199473,1,8,0:0:0:0:
160,160,199560,1,0,0:0:0:0:
160,160,199646,1,8,0:0:0:0:
160,160,199733,1,8,0:0:0:0:
160,160,199820,1,0,0:0:0:0:
160,160,199993,1,0,0:0:0:0:
160,160,200080,1,0,0:0:0:0:
160,160,200167,1,0,0:0:0:0:
160,160,200340,1,0,0:0:0:0:
160,160,200427,1,0,0:0:0:0:
160,160,200514,1,8,0:0:0:0:
160,160,200600,1,0,0:0:0:0:
160,160,200687,1,0,0:0:0:0:
160,160,200774,1,8,0:0:0:0:
160,160,200860,1,0,0:0:0:0:
256,160,201034,1,0,0:0:0:0:
256,160,201207,1,8,0:0:0:0:
256,160,201294,1,0,0:0:0:0:
256,160,201381,1,0,0:0:0:0:
256,160,201467,1,0,0:0:0:0:
256,160,201554,1,8,0:0:0:0:
160,160,201727,1,0,0:0:0:0:
160,160,201814,1,0,0:0:0:0:
160,160,201901,1,8,0:0:0:0:
160,160,202074,1,0,0:0:0:0:
160,160,202161,1,0,0:0:0:0:
160,160,202248,1,0,0:0:0:0:
160,160,202421,1,0,0:0:0:0:
160,160,202508,1,0,0:0:0:0:
160,160,202594,1,8,0:0:0:0:
160,128,202768,1,0,0:0:0:0:
160,128,202855,1,0,0:0:0:0:
160,128,202941,1,8,0:0:0:0:
160,128,203028,1,8,0:0:0:0:
160,128,203115,1,8,0:0:0:0:
160,128,203201,1,0,0:0:0:0:
160,128,203288,1,8,0:0:0:0:
160,128,203462,1,0,0:0:0:0:
96,128,203548,1,0,0:0:0:0:
160,128,203635,1,8,0:0:0:0:
128,96,203808,1,8,0:0:0:0:
128,96,203895,1,8,0:0:0:0:
128,96,203982,1,0,0:0:0:0:
96,128,204155,1,0,0:0:0:0:
96,128,204242,1,0,0:0:0:0:
96,128,204329,1,8,0:0:0:0:
96,128,204415,1,0,0:0:0:0:
96,128,204502,1,8,0:0:0:0:
96,128,204589,1,8,0:0:0:0:
96,128,204675,1,0,0:0:0:0:
96,128,204762,1,8,0:0:0:0:
96,128,204849,1,0,0:0:0:0:
96,128,204936,1,0,0:0:0:0:
96,128,205022,1,8,0:0:0:0:
96,128,205109,1,8,0:0:0:0:
96,128,205196,1,0,0:0:0:0:
96,128,205282,1,8,0:0:0:0:
96,128,205369,1,0,0:0:0:0:
96,128,205456,1,0,0:0:0:0:
96,128,205542,1,8,0:0:0:0:
96,128,205629,1,0,0:0:0:0:
96,128,205716,1,8,0:0:0:0:
96,160,205831,1,0,0:0:0:0:
96,160,205947,1,0,0:0:0:0:
96,160,206063,1,8,0:0:0:0:
96,160,206178,1,0,0:0:0:0:
96,160,206294,1,8,0:0:0:0:
96,160,206409,1,8,0:0:0:0:
96,160,206525,1,0,0:0:0:0:
96,160,206641,1,8,0:0:0:0:
96,160,206756,1,8,0:0:0:0:
96,160,206872,1,0,0:0:0:0:
96,160,206988,1,0,0:0:0:0:
96,160,207103,1,8,0:0:0:0:
352,224,207219,1,0,0:0:0:0:
352,224,207334,1,8,0:0:0:0:
352,224,207450,1,8,0:0:0:0:
352,224,207566,1,0,0:0:0:0:
352,224,207681,1,0,0:0:0:0:
352,224,207797,1,8,0:0:0:0:
352,224,207912,1,0,0:0:0:0:
352,224,208028,1,8,0:0:0:0:
352,224,208144,1,8,0:0:0:0:
352,224,208259,1,0,0:0:0:0:
352,224,208375,1,0,0:0:0:0:
352,224,208490,1,8,0:0:0:0:
352,224,208606,1,0,0:0:0:0:
352,224,208722,1,8,0:0:0:0:
352,224,208837,1,0,0:0:0:0:
352,224,208953,1,0,0:0:0:0:
352,224,209068,1,8,0:0:0:0:
352,224,209184,1,8,0:0:0:0:
352,224,209300,1,0,0:0:0:0:
352,224,209415,1,8,0:0:0:0:
352,224,209531,1,0,0:0:0:0:
352,224,209646,1,8,0:0:0:0:
352,224,209762,1,8,0:0:0:0:
352,224,209878,1,8,0:0:0:0:
352,224,209993,1,0,0:0:0:0:
352,224,210109,1,8,0:0:0:0:
352,224,210225,1,0,0:0:0:0:
352,224,210340,1,0,0:0:0:0:
352,224,210456,1,8,0:0:0:0:
352,224,210571,1,8,0:0:0:0:
352,224,210687,1,0,0:0:0:0:
352,224,210803,1,8,0:0:0:0:
352,224,210918,1,0,0:0:0:0:
352,224,211034,1,0,0:0:0:0:
352,224,211149,1,0,0:0:0:0:
352,224,211265,1,8,0:0:0:0:
448,352,211381,1,8,0:0:0:0:
448,352,211496,1,0,0:0:0:0:
416,320,211612,1,8,0:0:0:0:
448,352,211727,1,0,0:0:0:0:
448,352,211843,1,0,0:0:0:0:
448,352,211959,1,8,0:0:0:0:
416,320,212074,1,0,0:0:0:0:
320,192,212190,1,0,0:0:0:0:
320,192,212305,1,0,0:0:0:0:
320,192,212421,1,0,0:0:0:0:
320,192,212537,1,0,0:0:0:0:
320,192,212652,1,8,0:0:0:0:
320,192,212768,1,0,0:0:0:0:
320,192,212883,1,0,0:0:0:0:
320,192,212999,1,0,0:0:0:0:
320,192,213115,1,0,0:0:0:0:
320,192,213230,1,0,0:0:0:0:
320,192,213346,1,8,0:0:0:0:
320,192,213462,1,0,0:0:0:0:
320,192,213577,1,0,0:0:0:0:
320,192,213693,1,0,0:0:0:0:
288,192,213808,1,0,0:0:0:0:
288,192,213924,1,0,0:0:0:0:
288,192,214040,1,8,0:0:0:0:
288,192,214155,1,0,0:0:0:0:
288,192,214271,1,0,0:0:0:0:
288,192,214386,1,0,0:0:0:0:
288,192,214502,1,0,0:0:0:0:
288,192,214618,1,0,0:0:0:0:
288,192,214733,1,8,0:0:0:0:
96,128,214849,1,0,0:0:0:0:
288,192,214964,1,0,0:0:0:0:
288,192,215080,1,0,0:0:0:0:
288,192,215196,1,0,0:0:0:0:
192,128,215311,1,0,0:0:0:0:
192,128,215427,1,12,0:0:0:0:
64,192,215600,1,0,0:0:0:0:
64,192,215687,1,0,0:0:0:0:
64,192,215774,1,0,0:0:0:0:
64,192,215860,1,0,0:0:0:0:
320,288,215947,1,0,0:0:0:0:
320,288,216034,1,0,0:0:0:0:
320,288,216120,1,0,0:0:0:0:
320,288,216207,1,0,0:0:0:0:
320,288,216294,1,0,0:0:0:0:
320,288,216381,1,0,0:0:0:0:
320,288,216467,1,0,0:0:0:0:
320,288,216554,1,0,0:0:0:0:
320,288,216641,1,0,0:0:0:0:
320,288,216727,1,0,0:0:0:0:
320,288,216814,1,0,0:0:0:0:
320,288,216901,1,0,0:0:0:0:
320,288,216988,1,0,0:0:0:0:
320,288,217074,1,0,0:0:0:0:
320,288,217161,1,8,0:0:0:0:
320,288,217248,1,0,0:0:0:0:
320,288,217334,1,0,0:0:0:0:
320,288,217421,1,0,0:0:0:0:
320,288,217508,1,8,0:0:0:0:
320,288,217594,1,0,0:0:0:0:
320,288,217681,1,0,0:0:0:0:
320,288,217768,1,0,0:0:0:0:
320,288,217855,1,8,0:0:0:0:
320,288,217941,1,0,0:0:0:0:
320,288,218028,1,0,0:0:0:0:
320,288,218115,1,0,0:0:0:0:
320,288,218201,1,8,0:0:0:0:
320,288,218288,1,0,0:0:0:0:
320,288,218375,1,0,0:0:0:0:
320,288,218462,1,0,0:0:0:0:
320,288,218548,1,8,0:0:0:0:
320,288,218635,1,0,0:0:0:0:
320,288,218722,1,0,0:0:0:0:
320,288,218808,1,0,0:0:0:0:
320,288,218895,1,8,0:0:0:0:
320,288,218982,1,0,0:0:0:0:
320,288,219068,1,0,0:0:0:0:
320,288,219155,1,0,0:0:0:0:
320,288,219242,1,8,0:0:0:0:
320,288,219329,1,0,0:0:0:0:
320,288,219415,1,0,0:0:0:0:
320,288,219502,1,0,0:0:0:0:
320,288,219589,1,8,0:0:0:0:
320,288,219675,1,0,0:0:0:0:
320,288,219762,1,0,0:0:0:0:
320,288,219849,5,0,0:0:0:0:
320,288,219936,1,8,0:0:0:0:
320,288,220022,1,0,0:0:0:0:
320,288,220109,1,0,0:0:0:0:
320,288,220196,1,0,0:0:0:0:
320,288,220282,1,8,0:0:0:0:
320,288,220369,1,0,0:0:0:0:
320,288,220456,1,0,0:0:0:0:
320,288,220542,1,0,0:0:0:0:
320,288,220629,1,8,0:0:0:0:
320,288,220716,1,0,0:0:0:0:
320,288,220803,1,0,0:0:0:0:
320,288,220889,1,0,0:0:0:0:
256,192,220976,5,12,0:0:0:0:
256,192,221142,1,8,0:0:0:0:
256,192,221226,1,8,0:0:0:0:
256,192,221309,1,0,0:0:0:0:
256,192,221392,1,8,0:0:0:0:
256,192,221476,1,8,0:0:0:0:
256,192,221559,1,8,0:0:0:0:
256,192,221642,1,0,0:0:0:0:
256,192,221726,1,0,0:0:0:0:
256,192,221809,1,8,0:0:0:0:
256,192,221892,1,8,0:0:0:0:
256,192,221976,1,0,0:0:0:0:
256,192,222059,1,0,0:0:0:0:
256,192,222142,1,8,0:0:0:0:
256,192,222226,1,0,0:0:0:0:
256,192,222309,1,0,0:0:0:0:
256,192,222392,1,0,0:0:0:0:
256,192,222476,1,8,0:0:0:0:
256,192,222559,1,8,0:0:0:0:
256,192,222642,1,0,0:0:0:0:
256,192,222726,1,8,0:0:0:0:
256,192,222809,1,8,0:0:0:0:
256,192,222892,1,8,0:0:0:0:
256,192,222976,1,0,0:0:0:0:
256,192,223059,1,0,0:0:0:0:
256,192,223142,1,8,0:0:0:0:
256,192,223226,1,0,0:0:0:0:
256,192,223309,1,8,0:0:0:0:
256,192,223392,1,8,0:0:0:0:
256,192,223476,1,8,0:0:0:0:
256,192,223559,1,0,0:0:0:0:
256,192,223642,1,0,0:0:0:0:
256,192,223726,1,8,0:0:0:0:
256,192,223809,1,0,0:0:0:0:
256,192,223892,1,0,0:0:0:0:
256,192,223976,1,8,0:0:0:0:
256,192,224059,1,0,0:0:0:0:
256,192,224142,1,8,0:0:0:0:
256,192,224226,1,8,0:0:0:0:
256,192,224309,1,0,0:0:0:0:
256,192,224392,1,0,0:0:0:0:
256,192,224476,1,8,0:0:0:0:
256,192,224559,1,8,0:0:0:0:
256,192,224642,1,8,0:0:0:0:
256,192,224726,1,0,0:0:0:0:
256,192,224809,1,8,0:0:0:0:
256,192,224892,1,0,0:0:0:0:
256,192,224976,1,0,0:0:0:0:
256,192,225309,1,12,0:0:0:0:
256,192,225642,1,4,0:0:0:0:
256,192,225892,1,0,0:0:0:0:
256,192,225976,1,8,0:0:0:0:
256,192,226059,1,8,0:0:0:0:
256,192,226142,1,0,0:0:0:0:
256,192,226226,1,8,0:0:0:0:
256,192,226309,1,0,0:0:0:0:
256,192,226531,1,8,0:0:0:0:
256,192,226587,1,8,0:0:0:0:
256,192,226642,1,8,0:0:0:0:
256,192,226976,1,0,0:0:0:0:
256,192,227059,1,0,0:0:0:0:
256,192,227142,1,8,0:0:0:0:
256,192,227226,1,8,0:0:0:0:
256,192,227309,1,0,0:0:0:0:
256,192,227392,1,8,0:0:0:0:
256,192,227476,1,8,0:0:0:0:
256,192,227559,1,8,0:0:0:0:
256,192,227642,1,0,0:0:0:0:
256,192,227726,1,0,0:0:0:0:
256,192,227809,1,8,0:0:0:0:
256,192,227892,1,0,0:0:0:0:
256,192,227976,1,8,0:0:0:0:
256,192,228059,1,8,0:0:0:0:
256,192,228142,1,0,0:0:0:0:
256,192,228226,1,8,0:0:0:0:
256,192,228309,1,0,0:0:0:0:
256,192,228392,1,0,0:0:0:0:
256,192,228476,1,8,0:0:0:0:
256,192,228559,1,8,0:0:0:0:
256,192,228642,1,0,0:0:0:0:
256,192,228726,1,0,0:0:0:0:
256,192,228809,1,8,0:0:0:0:
256,192,228892,1,8,0:0:0:0:
256,192,228976,1,8,0:0:0:0:
256,192,229059,1,0,0:0:0:0:
256,192,229142,1,0,0:0:0:0:
256,192,229226,1,0,0:0:0:0:
256,192,229309,1,8,0:0:0:0:
256,192,229392,1,0,0:0:0:0:
256,192,229476,1,8,0:0:0:0:
256,192,229559,1,0,0:0:0:0:
256,192,229642,1,0,0:0:0:0:
256,192,229726,1,8,0:0:0:0:
256,192,229809,1,0,0:0:0:0:
256,192,229892,1,0,0:0:0:0:
256,192,229976,1,8,0:0:0:0:
256,192,230059,1,0,0:0:0:0:
256,192,230142,1,8,0:0:0:0:
256,192,230226,1,8,0:0:0:0:
256,192,230309,1,0,0:0:0:0:
256,192,230392,1,0,0:0:0:0:
256,192,230476,1,8,0:0:0:0:
256,192,230559,1,8,0:0:0:0:
256,192,230642,1,8,0:0:0:0:
256,192,230726,1,0,0:0:0:0:
256,192,230809,1,8,0:0:0:0:
256,192,230892,1,0,0:0:0:0:
256,192,230976,1,0,0:0:0:0:
256,192,231309,1,12,0:0:0:0:
256,192,231642,1,4,0:0:0:0:
256,192,231892,1,0,0:0:0:0:
256,192,231976,1,8,0:0:0:0:
256,192,232087,1,8,0:0:0:0:
256,192,232198,1,0,0:0:0:0:
256,192,232309,1,8,0:0:0:0:
256,192,232642,1,0,0:0:0:0:
256,192,232809,1,0,0:0:0:0:
256,192,232976,1,8,0:0:0:0:
256,192,233142,1,0,0:0:0:0:
256,192,233309,1,8,0:0:0:0:
256,192,233392,1,8,0:0:0:0:
256,192,233476,1,8,0:0:0:0:
256,192,233559,1,8,0:0:0:0:
256,192,233642,1,0,0:0:0:0:
256,192,233975,1,8,0:0:0:0:
256,192,234197,1,0,0:0:0:0:
256,192,234308,1,0,0:0:0:0:
256,192,234642,1,8,0:0:0:0:
256,192,234975,1,0,0:0:0:0:
256,192,235308,1,8,0:0:0:0:
256,192,235419,1,8,0:0:0:0:
256,192,235530,1,0,0:0:0:0:
256,192,235642,1,0,0:0:0:0:
256,192,235975,1,8,0:0:0:0:
256,192,236308,1,4,0:0:0:0:
256,192,236642,1,8,0:0:0:0:
256,192,236864,1,0,0:0:0:0:
256,192,236975,1,0,0:0:0:0:
256,192,237308,1,8,0:0:0:0:
256,192,237642,1,4,0:0:0:0:
256,192,237975,1,8,0:0:0:0:
256,192,238086,1,8,0:0:0:0:
256,192,238197,1,8,0:0:0:0:
320,160,238308,5,4,0:0:0:0:
128,160,238474,1,0,0:0:0:0:
128,160,238558,1,0,0:0:0:0:
128,160,238641,1,8,0:0:0:0:
128,160,238808,1,8,0:0:0:0:
128,160,238891,1,8,0:0:0:0:
128,160,238974,1,0,0:0:0:0:
128,160,239141,1,0,0:0:0:0:
128,160,239224,1,0,0:0:0:0:
128,160,239308,1,8,0:0:0:0:
128,160,239391,1,0,0:0:0:0:
128,160,239474,1,8,0:0:0:0:
128,160,239558,1,8,0:0:0:0:
128,160,239641,1,0,0:0:0:0:
128,160,239808,1,0,0:0:0:0:
128,160,239891,1,0,0:0:0:0:
128,160,239974,1,0,0:0:0:0:
128,160,240141,1,0,0:0:0:0:
128,160,240224,1,0,0:0:0:0:
128,160,240308,1,8,0:0:0:0:
128,160,240474,1,0,0:0:0:0:
128,160,240558,1,0,0:0:0:0:
128,160,240641,1,8,0:0:0:0:
128,160,240724,1,8,0:0:0:0:
128,160,240808,1,0,0:0:0:0:
128,160,240891,1,0,0:0:0:0:
128,160,240974,1,8,0:0:0:0:
128,160,241141,1,8,0:0:0:0:
128,160,241308,1,0,0:0:0:0:
192,128,241474,1,0,0:0:0:0:
192,128,241530,1,0,0:0:0:0:
192,128,241585,1,0,0:0:0:0:
192,128,241641,1,8,0:0:0:0:
256,96,241808,1,0,0:0:0:0:
256,96,241891,1,0,0:0:0:0:
256,96,241974,1,8,0:0:0:0:
256,96,242141,1,8,0:0:0:0:
256,96,242224,1,8,0:0:0:0:
256,96,242308,1,0,0:0:0:0:
256,96,242391,1,0,0:0:0:0:
256,96,242474,1,0,0:0:0:0:
256,96,242558,1,0,0:0:0:0:
256,96,242641,1,8,0:0:0:0:
256,96,242724,1,8,0:0:0:0:
256,96,242808,1,8,0:0:0:0:
256,96,242891,1,8,0:0:0:0:
256,96,242974,1,0,0:0:0:0:
352,192,243141,1,0,0:0:0:0:
352,192,243224,1,0,0:0:0:0:
352,192,243308,1,0,0:0:0:0:
352,192,243391,1,0,0:0:0:0:
352,192,243474,1,0,0:0:0:0:
352,192,243558,1,0,0:0:0:0:
352,192,243641,1,8,0:0:0:0:
352,192,243808,1,8,0:0:0:0:
352,192,243891,1,8,0:0:0:0:
352,192,243974,1,0,0:0:0:0:
320,192,244308,1,0,0:0:0:0:
320,192,244641,1,8,0:0:0:0:
320,192,244808,1,0,0:0:0:0:
320,192,244891,1,0,0:0:0:0:
320,192,244974,1,8,0:0:0:0:
384,288,245308,1,8,0:0:0:0:
384,288,245641,1,0,0:0:0:0:
384,288,245974,1,0,0:0:0:0:
384,288,246141,1,0,0:0:0:0:
384,288,246224,1,0,0:0:0:0:
352,288,246308,1,8,0:0:0:0:
256,128,246641,1,8,0:0:0:0:
384,256,246724,1,8,0:0:0:0:
384,256,246808,1,8,0:0:0:0:
384,256,246891,1,0,0:0:0:0:
384,256,246974,1,8,0:0:0:0:
320,224,247308,1,8,0:0:0:0:
320,224,247391,1,0,0:0:0:0:
320,224,247474,1,0,0:0:0:0:
320,224,247558,1,0,0:0:0:0:
320,224,247641,1,8,0:0:0:0:
320,224,247724,1,0,0:0:0:0:
320,224,247808,1,0,0:0:0:0:
320,224,247891,1,0,0:0:0:0:
320,224,247974,1,8,0:0:0:0:
320,224,248058,1,0,0:0:0:0:
320,224,248141,1,0,0:0:0:0:
320,224,248224,1,0,0:0:0:0:
320,224,248308,1,8,0:0:0:0:
320,224,248391,1,0,0:0:0:0:
320,224,248474,1,0,0:0:0:0:
320,224,248558,1,0,0:0:0:0:
320,224,248641,1,8,0:0:0:0:
320,224,248724,1,0,0:0:0:0:
320,224,248808,1,0,0:0:0:0:
320,224,248891,1,0,0:0:0:0:
320,224,248974,1,8,0:0:0:0:
320,224,249058,1,0,0:0:0:0:
320,224,249141,1,0,0:0:0:0:
320,224,249224,1,0,0:0:0:0:
320,224,249308,1,8,0:0:0:0:
320,224,249391,1,0,0:0:0:0:
320,224,249474,1,0,0:0:0:0:
320,224,249558,1,0,0:0:0:0:
320,224,249641,1,8,0:0:0:0:
320,224,249724,1,0,0:0:0:0:
320,224,249808,1,0,0:0:0:0:
320,224,249891,1,0,0:0:0:0:
320,224,249974,1,8,0:0:0:0:
256,160,250058,1,0,0:0:0:0:
64,160,250141,1,0,0:0:0:0:
96,160,250224,1,0,0:0:0:0:
256,160,250308,1,8,0:0:0:0:
256,160,250391,1,0,0:0:0:0:
256,160,250474,1,0,0:0:0:0:
256,160,250558,1,0,0:0:0:0:
256,160,250641,1,8,0:0:0:0:
256,160,250724,1,0,0:0:0:0:
256,160,250808,1,0,0:0:0:0:
256,160,250891,1,0,0:0:0:0:
256,160,250974,1,8,0:0:0:0:
256,160,251058,1,8,0:0:0:0:
256,160,251141,1,8,0:0:0:0:
256,160,251224,1,8,0:0:0:0:
256,160,251308,1,0,0:0:0:0:
256,160,251391,1,0,0:0:0:0:
256,160,251474,1,0,0:0:0:0:
256,160,251558,1,0,0:0:0:0:
256,160,251641,1,8,0:0:0:0:
256,160,251724,1,8,0:0:0:0:
256,160,251808,1,8,0:0:0:0:
256,160,251891,1,8,0:0:0:0:
256,160,251974,1,0,0:0:0:0:
256,160,252058,1,0,0:0:0:0:
160,160,252141,1,0,0:0:0:0:
256,160,252224,1,0,0:0:0:0:
256,160,252308,1,8,0:0:0:0:
160,160,252391,1,8,0:0:0:0:
160,160,252474,5,8,0:0:0:0:
160,160,252558,1,8,0:0:0:0:
160,160,252641,1,0,0:0:0:0:
160,160,252724,1,8,0:0:0:0:
160,160,252807,1,8,0:0:0:0:
160,160,252891,1,8,0:0:0:0:
224,224,252974,1,4,0:0:0:0:
224,224,253307,1,4,0:0:0:0:
256,192,253670,5,0,0:0:0:0:
256,192,253756,1,0,0:0:0:0:
256,192,253843,1,8,0:0:0:0:
256,192,253930,1,0,0:0:0:0:
256,192,254016,1,0,0:0:0:0:
256,192,254103,1,0,0:0:0:0:
256,192,254190,1,8,0:0:0:0:
256,192,254276,1,8,0:0:0:0:
256,192,254363,1,0,0:0:0:0:
256,192,254450,1,0,0:0:0:0:
256,192,254537,1,8,0:0:0:0:
256,192,254623,1,0,0:0:0:0:
256,192,254710,1,8,0:0:0:0:
256,192,254797,1,0,0:0:0:0:
256,192,254883,1,8,0:0:0:0:
256,192,254970,1,8,0:0:0:0:
256,192,255057,1,0,0:0:0:0:
256,192,255143,1,0,0:0:0:0:
256,192,255230,1,8,0:0:0:0:
256,192,255317,1,0,0:0:0:0:
256,192,255404,1,0,0:0:0:0:
256,192,255490,1,0,0:0:0:0:
256,192,255577,1,8,0:0:0:0:
256,192,255664,1,0,0:0:0:0:
256,192,255750,1,8,0:0:0:0:
256,192,255837,1,8,0:0:0:0:
256,192,255924,1,8,0:0:0:0:
256,192,256011,1,0,0:0:0:0:
256,192,256097,1,8,0:0:0:0:
256,192,256184,1,8,0:0:0:0:
256,192,256271,1,8,0:0:0:0:
256,192,256357,1,0,0:0:0:0:
256,192,256444,1,8,0:0:0:0:
256,192,256531,1,8,0:0:0:0:
256,192,256617,1,0,0:0:0:0:
256,192,256704,1,0,0:0:0:0:
256,192,256791,1,8,0:0:0:0:
256,192,256878,1,0,0:0:0:0:
256,192,256964,1,8,0:0:0:0:
256,192,257051,1,8,0:0:0:0:
256,192,257138,1,8,0:0:0:0:
256,192,257224,1,0,0:0:0:0:
256,192,257311,1,0,0:0:0:0:
256,192,257398,1,0,0:0:0:0:
256,192,257485,1,8,0:0:0:0:
256,192,257571,1,0,0:0:0:0:
256,192,257658,1,8,0:0:0:0:
256,192,257745,1,8,0:0:0:0:
256,192,257831,1,8,0:0:0:0:
256,192,257918,1,8,0:0:0:0:
256,192,258005,1,8,0:0:0:0:
256,192,258091,1,8,0:0:0:0:
256,192,258178,1,0,0:0:0:0:
256,192,258265,1,0,0:0:0:0:
256,192,258352,1,8,0:0:0:0:
256,192,258438,1,8,0:0:0:0:
256,192,258525,1,0,0:0:0:0:
256,192,258612,1,0,0:0:0:0:
256,192,258698,1,8,0:0:0:0:
256,192,258785,1,0,0:0:0:0:
256,192,258872,1,8,0:0:0:0:
256,192,258959,1,8,0:0:0:0:
256,192,259045,1,0,0:0:0:0:
256,192,259132,1,0,0:0:0:0:
256,192,259219,1,8,0:0:0:0:
256,192,259305,1,0,0:0:0:0:
256,192,259392,1,0,0:0:0:0:
256,192,259479,1,0,0:0:0:0:
256,192,259565,1,0,0:0:0:0:
256,192,259652,1,0,0:0:0:0:
256,192,259739,1,8,0:0:0:0:
256,192,259826,1,0,0:0:0:0:
256,192,259912,1,0,0:0:0:0:
256,192,259999,1,0,0:0:0:0:
256,192,260086,1,0,0:0:0:0:
256,192,260172,1,0,0:0:0:0:
256,192,260259,1,8,0:0:0:0:
256,192,260346,1,0,0:0:0:0:
256,192,260433,1,0,0:0:0:0:
256,192,260519,1,0,0:0:0:0:
256,192,260606,1,8,0:0:0:0:
256,192,260693,1,0,0:0:0:0:
256,192,260779,1,0,0:0:0:0:
256,192,260866,1,8,0:0:0:0:
256,192,260953,1,0,0:0:0:0:
256,192,261039,1,8,0:0:0:0:
256,192,261126,1,0,0:0:0:0:
256,192,261213,1,0,0:0:0:0:
256,192,261300,1,8,0:0:0:0:
256,192,261386,1,8,0:0:0:0:
256,192,261473,1,0,0:0:0:0:
256,192,261560,1,0,0:0:0:0:
256,192,261646,1,8,0:0:0:0:
256,192,261733,1,0,0:0:0:0:
256,192,261820,1,8,0:0:0:0:
256,192,261906,1,8,0:0:0:0:
256,192,261993,1,0,0:0:0:0:
256,192,262080,1,0,0:0:0:0:
256,192,262167,1,8,0:0:0:0:
256,192,262253,1,0,0:0:0:0:
256,192,262340,1,0,0:0:0:0:
256,192,262427,1,0,0:0:0:0:
256,192,262513,1,8,0:0:0:0:
256,192,262600,1,0,0:0:0:0:
256,192,262687,1,0,0:0:0:0:
256,192,262774,1,0,0:0:0:0:
256,192,262860,1,8,0:0:0:0:
256,192,262947,1,0,0:0:0:0:
256,192,263034,1,0,0:0:0:0:
256,192,263120,1,0,0:0:0:0:
256,192,263207,1,8,0:0:0:0:
256,192,263294,1,0,0:0:0:0:
256,192,263380,1,0,0:0:0:0:
256,192,263467,1,8,0:0:0:0:
256,192,263554,1,8,0:0:0:0:
256,192,263641,1,8,0:0:0:0:
256,192,263727,1,0,0:0:0:0:
256,192,263814,1,8,0:0:0:0:
256,192,263901,1,0,0:0:0:0:
256,192,263987,1,0,0:0:0:0:
256,192,264074,1,8,0:0:0:0:
256,192,264421,1,8,0:0:0:0:
256,192,264768,1,0,0:0:0:0:
256,192,264855,1,0,0:0:0:0:
256,192,264941,1,8,0:0:0:0:
256,192,265028,1,0,0:0:0:0:
256,192,265115,1,0,0:0:0:0:
256,192,265201,1,0,0:0:0:0:
256,192,265288,1,8,0:0:0:0:
256,192,265375,1,8,0:0:0:0:
256,192,265461,1,0,0:0:0:0:
256,192,265548,1,0,0:0:0:0:
256,192,265635,1,8,0:0:0:0:
256,192,265722,1,0,0:0:0:0:
256,192,265808,1,8,0:0:0:0:
256,192,265895,1,8,0:0:0:0:
256,192,265982,1,8,0:0:0:0:
256,192,266068,1,0,0:0:0:0:
256,192,266155,1,8,0:0:0:0:
256,192,266242,1,0,0:0:0:0:
256,192,266328,1,8,0:0:0:0:
256,192,266415,1,8,0:0:0:0:
256,192,266502,1,8,0:0:0:0:
256,192,266589,1,0,0:0:0:0:
256,192,266675,1,8,0:0:0:0:
256,192,266762,1,8,0:0:0:0:
256,192,266849,1,0,0:0:0:0:
256,192,266935,1,0,0:0:0:0:
256,192,267022,1,8,0:0:0:0:
256,192,267109,1,0,0:0:0:0:
256,192,267196,1,0,0:0:0:0:
256,192,267282,1,8,0:0:0:0:
256,192,267369,1,8,0:0:0:0:
256,192,267456,1,0,0:0:0:0:
256,192,267542,1,8,0:0:0:0:
256,192,267629,1,8,0:0:0:0:
256,192,267716,1,0,0:0:0:0:
256,192,267802,1,0,0:0:0:0:
256,192,267889,1,8,0:0:0:0:
256,192,267976,1,0,0:0:0:0:
256,192,268063,1,8,0:0:0:0:
256,192,268149,1,8,0:0:0:0:
256,192,268236,1,8,0:0:0:0:
256,192,268323,1,0,0:0:0:0:
256,192,268409,1,0,0:0:0:0:
256,192,268496,1,0,0:0:0:0:
256,192,268583,1,8,0:0:0:0:
256,192,268670,1,8,0:0:0:0:
256,192,268756,1,0,0:0:0:0:
256,192,268843,1,0,0:0:0:0:
256,192,268930,1,8,0:0:0:0:
256,192,269016,1,8,0:0:0:0:
256,192,269103,1,8,0:0:0:0:
256,192,269190,1,8,0:0:0:0:
256,192,269276,1,0,0:0:0:0:
256,192,269363,1,0,0:0:0:0:
256,192,269450,1,8,0:0:0:0:
256,192,269537,1,8,0:0:0:0:
256,192,269623,1,0,0:0:0:0:
256,192,269710,1,0,0:0:0:0:
256,192,269797,1,8,0:0:0:0:
256,192,269883,1,0,0:0:0:0:
256,192,269970,1,8,0:0:0:0:
256,192,270057,1,8,0:0:0:0:
256,192,270143,1,0,0:0:0:0:
256,192,270230,1,0,0:0:0:0:
256,192,270317,1,8,0:0:0:0:
256,192,270404,1,0,0:0:0:0:
256,192,270490,1,0,0:0:0:0:
256,192,270577,1,0,0:0:0:0:
256,192,270664,1,0,0:0:0:0:
256,192,270750,1,0,0:0:0:0:
256,192,270837,1,0,0:0:0:0:
256,192,270924,1,0,0:0:0:0:
256,192,271011,1,8,0:0:0:0:
256,192,271097,1,0,0:0:0:0:
256,192,271184,1,0,0:0:0:0:
256,192,271271,1,0,0:0:0:0:
256,192,271357,1,0,0:0:0:0:
256,192,271444,1,0,0:0:0:0:
256,192,271531,1,0,0:0:0:0:
256,192,271617,1,0,0:0:0:0:
256,192,271704,1,8,0:0:0:0:
256,192,271791,1,0,0:0:0:0:
256,192,271878,1,0,0:0:0:0:
256,192,271964,1,0,0:0:0:0:
256,192,272051,1,0,0:0:0:0:
256,192,272138,1,0,0:0:0:0:
256,192,272224,1,0,0:0:0:0:
256,192,272311,1,0,0:0:0:0:
256,192,272398,1,8,0:0:0:0:
256,192,272485,1,0,0:0:0:0:
256,192,272571,1,0,0:0:0:0:
256,192,272658,1,0,0:0:0:0:
256,192,272745,1,8,0:0:0:0:
256,192,272831,1,0,0:0:0:0:
256,192,272918,1,8,0:0:0:0:
256,192,273005,1,8,0:0:0:0:
256,192,273091,1,0,0:0:0:0:
256,192,273178,1,0,0:0:0:0:
256,192,273265,1,8,0:0:0:0:
256,192,273352,1,0,0:0:0:0:
256,192,273438,1,8,0:0:0:0:
256,192,273496,1,8,0:0:0:0:
256,192,273554,1,8,0:0:0:0:
256,192,273612,1,0,0:0:0:0:
256,192,273698,1,8,0:0:0:0:
256,192,273785,1,0,0:0:0:0:
256,192,273872,1,0,0:0:0:0:
256,192,273959,1,8,0:0:0:0:
256,192,274045,1,0,0:0:0:0:
256,192,274132,1,8,0:0:0:0:
256,192,274190,1,0,0:0:0:0:
256,192,274248,1,0,0:0:0:0:
256,192,274305,1,8,0:0:0:0:
256,192,274392,1,0,0:0:0:0:
256,192,274479,1,8,0:0:0:0:
256,192,275172,1,8,0:0:0:0:
256,192,275519,1,8,0:0:0:0:
256,224,275866,5,0,0:0:0:0:
256,224,275953,1,0,0:0:0:0:
256,224,276039,1,8,0:0:0:0:
256,224,276126,1,0,0:0:0:0:
256,224,276213,1,8,0:0:0:0:
256,224,276300,1,8,0:0:0:0:
256,224,276386,1,0,0:0:0:0:
256,224,276473,1,8,0:0:0:0:
256,224,276560,1,0,0:0:0:0:
256,224,276646,1,0,0:0:0:0:
256,224,276733,1,8,0:0:0:0:
256,224,276820,1,0,0:0:0:0:
256,224,276906,1,8,0:0:0:0:
256,224,276993,1,8,0:0:0:0:
256,224,277080,1,0,0:0:0:0:
256,192,277167,1,8,0:0:0:0:
256,192,277253,1,0,0:0:0:0:
256,192,277340,1,0,0:0:0:0:
256,192,277427,1,0,0:0:0:0:
256,192,277513,1,0,0:0:0:0:
256,192,277600,1,8,0:0:0:0:
256,192,277687,1,8,0:0:0:0:
256,192,277774,1,8,0:0:0:0:
256,192,277860,1,8,0:0:0:0:
256,192,277947,1,0,0:0:0:0:
256,192,278034,1,0,0:0:0:0:
256,192,278120,1,8,0:0:0:0:
256,192,278207,1,0,0:0:0:0:
256,192,278294,1,8,0:0:0:0:
256,192,278380,1,8,0:0:0:0:
256,192,278467,1,0,0:0:0:0:
256,192,278554,1,8,0:0:0:0:
256,192,278641,1,0,0:0:0:0:
256,192,278727,1,0,0:0:0:0:
256,192,278814,1,0,0:0:0:0:
256,192,278901,1,0,0:0:0:0:
256,192,278987,1,8,0:0:0:0:
256,192,279074,1,8,0:0:0:0:
256,192,279161,1,8,0:0:0:0:
256,192,279248,1,8,0:0:0:0:
256,192,279334,1,0,0:0:0:0:
256,192,279421,1,0,0:0:0:0:
256,192,279508,1,8,0:0:0:0:
256,192,279594,1,0,0:0:0:0:
256,192,279681,1,8,0:0:0:0:
256,192,279768,1,8,0:0:0:0:
256,192,279854,1,0,0:0:0:0:
256,192,279941,1,8,0:0:0:0:
256,192,280028,1,0,0:0:0:0:
256,192,280115,1,0,0:0:0:0:
256,192,280201,1,8,0:0:0:0:
224,192,280288,1,0,0:0:0:0:
224,192,280375,1,8,0:0:0:0:
224,192,280461,1,8,0:0:0:0:
224,192,280548,1,0,0:0:0:0:
224,192,280635,1,8,0:0:0:0:
224,192,280722,1,0,0:0:0:0:
224,192,280808,1,0,0:0:0:0:
224,192,280895,1,8,0:0:0:0:
224,192,280982,1,8,0:0:0:0:
224,192,281068,1,0,0:0:0:0:
224,192,281155,1,0,0:0:0:0:
224,192,281242,1,0,0:0:0:0:
224,192,281328,1,0,0:0:0:0:
224,192,281415,1,8,0:0:0:0:
224,192,281502,1,8,0:0:0:0:
224,192,281589,1,0,0:0:0:0:
224,192,281675,1,0,0:0:0:0:
224,192,281762,1,8,0:0:0:0:
224,192,281849,1,8,0:0:0:0:
224,192,281935,1,0,0:0:0:0:
224,192,282022,1,0,0:0:0:0:
224,192,282109,1,8,0:0:0:0:
224,192,282196,1,8,0:0:0:0:
224,192,282282,1,0,0:0:0:0:
224,192,282369,1,0,0:0:0:0:
224,192,282456,1,8,0:0:0:0:
224,192,282542,1,0,0:0:0:0:
224,192,282629,1,8,0:0:0:0:
224,192,282716,1,8,0:0:0:0:
224,192,282802,1,0,0:0:0:0:
224,192,282889,1,8,0:0:0:0:
224,192,282976,1,0,0:0:0:0:
224,192,283063,1,0,0:0:0:0:
224,192,283149,1,8,0:0:0:0:
224,192,283236,1,0,0:0:0:0:
224,192,283323,1,8,0:0:0:0:
224,192,283409,1,8,0:0:0:0:
224,192,283496,1,0,0:0:0:0:
224,192,283583,1,8,0:0:0:0:
224,192,283670,1,0,0:0:0:0:
224,192,283756,1,0,0:0:0:0:
224,192,283843,1,8,0:0:0:0:
224,192,283930,1,0,0:0:0:0:
224,192,284016,1,0,0:0:0:0:
224,192,284103,1,0,0:0:0:0:
224,192,284190,1,8,0:0:0:0:
384,288,284276,1,8,0:0:0:0:
384,288,284363,1,8,0:0:0:0:
384,288,284450,1,8,0:0:0:0:
384,288,284537,1,0,0:0:0:0:
384,288,284623,1,0,0:0:0:0:
384,288,284710,1,8,0:0:0:0:
384,288,284797,1,0,0:0:0:0:
384,288,284883,1,8,0:0:0:0:
384,288,284970,1,8,0:0:0:0:
384,288,285057,1,0,0:0:0:0:
384,288,285143,1,8,0:0:0:0:
384,288,285230,1,0,0:0:0:0:
384,288,285317,1,0,0:0:0:0:
384,288,285404,1,8,0:0:0:0:
384,288,285490,1,0,0:0:0:0:
384,288,285577,1,8,0:0:0:0:
384,288,285664,1,8,0:0:0:0:
384,288,285750,1,0,0:0:0:0:
384,288,285837,1,8,0:0:0:0:
384,288,285924,1,0,0:0:0:0:
384,288,286011,1,0,0:0:0:0:
384,288,286097,1,0,0:0:0:0:
384,288,286184,1,0,0:0:0:0:
384,288,286271,1,8,0:0:0:0:
384,288,286357,1,8,0:0:0:0:
384,288,286444,1,8,0:0:0:0:
384,288,286531,1,8,0:0:0:0:
384,288,286617,1,0,0:0:0:0:
384,288,286704,1,0,0:0:0:0:
384,288,286791,1,0,0:0:0:0:
384,288,286878,1,0,0:0:0:0:
384,288,286964,1,8,0:0:0:0:
384,288,287051,1,8,0:0:0:0:
384,288,287138,1,0,0:0:0:0:
384,288,287224,1,8,0:0:0:0:
384,288,287311,1,0,0:0:0:0:
384,288,287398,1,0,0:0:0:0:
384,288,287485,1,8,0:0:0:0:
384,288,287571,1,0,0:0:0:0:
384,288,287658,1,8,0:0:0:0:
384,288,287745,1,8,0:0:0:0:
384,288,287831,1,0,0:0:0:0:
384,288,287918,1,8,0:0:0:0:
384,288,288005,1,0,0:0:0:0:
384,288,288091,1,0,0:0:0:0:
384,288,288178,1,8,0:0:0:0:
384,288,288265,1,0,0:0:0:0:
384,288,288352,1,8,0:0:0:0:
384,288,288438,1,8,0:0:0:0:
384,288,288525,1,0,0:0:0:0:
384,288,288612,1,0,0:0:0:0:
384,288,288698,1,8,0:0:0:0:
384,288,288785,1,8,0:0:0:0:
384,288,288872,1,0,0:0:0:0:
384,288,288959,1,8,0:0:0:0:
384,288,289045,1,0,0:0:0:0:
384,288,289132,1,0,0:0:0:0:
384,288,289219,1,0,0:0:0:0:
384,288,289305,1,0,0:0:0:0:
384,288,289392,1,8,0:0:0:0:
384,288,289479,1,8,0:0:0:0:
384,288,289565,1,0,0:0:0:0:
384,288,289652,1,8,0:0:0:0:
384,288,289739,1,0,0:0:0:0:
384,288,289826,1,0,0:0:0:0:
384,288,289912,1,0,0:0:0:0:
384,288,289999,1,0,0:0:0:0:
384,288,290086,1,8,0:0:0:0:
384,288,290172,1,8,0:0:0:0:
384,288,290259,1,0,0:0:0:0:
384,288,290346,1,0,0:0:0:0:
384,288,290433,1,8,0:0:0:0:
384,288,290519,1,0,0:0:0:0:
384,288,290606,1,8,0:0:0:0:
384,288,290693,1,8,0:0:0:0:
384,288,290779,1,0,0:0:0:0:
384,288,290866,1,8,0:0:0:0:
384,288,290953,1,0,0:0:0:0:
384,288,291039,1,0,0:0:0:0:
384,288,291126,1,8,0:0:0:0:
384,288,291213,1,0,0:0:0:0:
384,288,291300,1,8,0:0:0:0:
384,288,291386,1,8,0:0:0:0:
384,288,291473,1,0,0:0:0:0:
384,288,291560,1,8,0:0:0:0:
384,288,291646,1,0,0:0:0:0:
384,288,291733,1,0,0:0:0:0:
384,288,291820,1,8,0:0:0:0:
384,288,291906,1,8,0:0:0:0:
384,288,291993,1,0,0:0:0:0:
384,288,292080,1,0,0:0:0:0:
384,288,292167,1,8,0:0:0:0:
384,288,292253,1,8,0:0:0:0:
384,288,292340,1,8,0:0:0:0:
384,288,292427,1,8,0:0:0:0:
384,288,292513,1,0,0:0:0:0:
384,288,292600,1,0,0:0:0:0:
384,288,292687,1,8,0:0:0:0:
384,288,292774,1,8,0:0:0:0:
384,288,292860,1,0,0:0:0:0:
384,288,292947,1,0,0:0:0:0:
384,288,293034,1,8,0:0:0:0:
384,288,293120,1,0,0:0:0:0:
384,288,293207,1,8,0:0:0:0:
384,288,293294,1,8,0:0:0:0:
384,288,293380,1,0,0:0:0:0:
384,288,293467,1,8,0:0:0:0:
384,288,293554,1,0,0:0:0:0:
384,288,293641,1,0,0:0:0:0:
384,288,293727,1,8,0:0:0:0:
384,288,293814,1,0,0:0:0:0:
384,288,293901,1,8,0:0:0:0:
384,288,293987,1,8,0:0:0:0:
384,288,294074,1,0,0:0:0:0:
384,288,294161,1,0,0:0:0:0:
384,288,294248,1,8,0:0:0:0:
384,288,294334,1,0,0:0:0:0:
384,288,294421,1,8,0:0:0:0:
384,288,294508,1,8,0:0:0:0:
384,288,294594,1,0,0:0:0:0:
384,288,294681,1,0,0:0:0:0:
384,288,294768,1,0,0:0:0:0:
384,288,294854,1,0,0:0:0:0:
384,288,294941,1,0,0:0:0:0:
384,288,295028,1,0,0:0:0:0:
384,288,295115,1,0,0:0:0:0:
192,160,295201,1,0,0:0:0:0:
224,160,295288,1,8,0:0:0:0:
224,160,295375,1,8,0:0:0:0:
224,160,295461,1,8,0:0:0:0:
224,160,295548,1,8,0:0:0:0:
224,160,295635,1,0,0:0:0:0:
224,160,295722,1,0,0:0:0:0:
224,160,295808,1,0,0:0:0:0:
224,160,295895,1,0,0:0:0:0:
224,160,295982,1,8,0:0:0:0:
224,160,296068,1,8,0:0:0:0:
224,160,296155,1,8,0:0:0:0:
224,160,296242,1,8,0:0:0:0:
224,160,296328,1,0,0:0:0:0:
224,160,296415,1,8,0:0:0:0:
224,160,296502,1,8,0:0:0:0:
224,160,296589,1,8,0:0:0:0:
224,160,296675,1,0,0:0:0:0:
96,96,296762,1,0,0:0:0:0:
96,96,296849,1,0,0:0:0:0:
96,96,296935,1,0,0:0:0:0:
96,96,297022,1,8,0:0:0:0:
96,96,297109,1,8,0:0:0:0:
96,96,297196,1,8,0:0:0:0:
96,96,297282,1,8,0:0:0:0:
96,96,297369,1,0,0:0:0:0:
96,96,297456,1,0,0:0:0:0:
96,96,297542,1,8,0:0:0:0:
96,96,297629,1,0,0:0:0:0:
96,96,297716,1,8,0:0:0:0:
96,96,297802,1,8,0:0:0:0:
96,96,297889,1,0,0:0:0:0:
96,96,297976,1,0,0:0:0:0:
96,96,298063,1,8,0:0:0:0:
96,96,298756,1,4,0:0:0:0:
224,128,298987,1,4,0:0:0:0:
224,64,299219,1,4,0:0:0:0:
256,64,299450,1,12,0:0:0:0:
256,96,300664,1,8,0:0:0:0:
256,96,300722,1,8,0:0:0:0:
256,96,300779,1,8,0:0:0:0:
256,96,300837,1,0,0:0:0:0:
