osu file format v14

[General]
AudioFilename: audio.mp3
AudioLeadIn: 0
PreviewTime: 10585
Countdown: 0
SampleSet: Normal
StackLeniency: 0.7
Mode: 1
LetterboxInBreaks: 0
WidescreenStoryboard: 0

[Editor]
Bookmarks: 10105,15157,30315,40421,41684,50526,60631
DistanceSpacing: 0.9
BeatDivisor: 4
GridSize: 32
TimelineZoom: 3.499998

[Metadata]
Title:This dog is fucking Smart
TitleUnicode:This dog is fucking Smart
Artist:TwerkNation28
ArtistUnicode:TwerkNation28
Creator:sadgfdgdfsg
Version:TAIKONATION
Source:
Tags:twerknation jersey club season 4 electronic instrumental ulqui myckoll
BeatmapID:3955887
BeatmapSetID:1917034

[Difficulty]
HPDrainRate:8
CircleSize:5
OverallDifficulty:6.5
ApproachRate:5
SliderMultiplier:1.2
SliderTickRate:1

[Events]
//Background and Video events
0,0,"HQ9BXobfjNlS9HHv_9o_I4ZqeK3VvwINQ8dnZlKpsJHtvTrjth7QUhA_waVVGFm3rNy-tivcqLyQQ0DKfYy-xtoR.jpg",0,99
//Break Periods
//Storyboard Layer 0 (Background)
//Storyboard Layer 1 (Fail)
//Storyboard Layer 2 (Pass)
//Storyboard Layer 3 (Foreground)
//Storyboard Layer 4 (Overlay)
//Storyboard Sound Samples

[TimingPoints]
480,315.789473684211,4,1,0,45,1,0
480,-66.6666666666667,4,1,0,45,0,0
792,-187.905548089844,4,1,0,45,0,0
1108,-177.158371040724,4,1,0,45,0,0
1266,-172.232975541087,4,1,0,45,0,0
1424,-167.574045540147,4,1,0,45,0,0
1582,-163.160526754459,4,1,0,45,0,0
1740,-158.97352606789,4,1,0,45,0,0
2055,-151.23609394314,4,1,0,45,0,0
2371,-144.195639363583,4,1,0,45,0,0
2529,-140.915634897783,4,1,0,45,0,0
2687,-137.781531531532,4,1,0,45,0,0
2845,-134.783806114018,4,1,0,45,0,0
3003,-131.913746630728,4,1,0,45,0,0
3318,-126.541693600517,4,1,0,45,0,0
3634,-121.574959632344,4,1,0,45,0,0
3792,-119.234985990985,4,1,0,45,0,0
3950,-116.983387116051,4,1,0,45,0,0
4108,-114.815249266862,4,1,0,45,0,0
4266,-112.726016353795,4,1,0,45,0,0
4581,-108.779728828629,4,1,0,45,0,0
4897,-105.08911316298,4,1,0,45,0,0
5055,-103.336148648649,4,1,0,45,0,0
5213,-101.640706126687,4,1,0,45,0,0
5371,-100,4,1,0,45,0,0
5844,-103.325240156234,4,1,0,45,0,0
6160,-106.890903134214,4,1,0,45,0,0
6318,-108.767640848983,4,1,0,45,0,0
6476,-110.711457979867,4,1,0,45,0,0
6634,-112.726016353795,4,1,0,45,0,0
6792,-114.815249266862,4,1,0,45,0,0
7107,-119.220462850183,4,1,0,45,0,0
7423,-123.99290600456,4,1,0,45,0,0
7581,-126.525336091003,4,1,0,45,0,0
7739,-129.163367643178,4,1,0,45,0,0
7897,-131.913746630728,4,1,0,45,0,0
8055,-134.783806114018,4,1,0,45,0,0
8370,-140.895350511012,4,1,0,45,0,0
8686,-147.609711958981,4,1,0,45,0,0
8844,-151.212729800711,4,1,0,45,0,0
9002,-154.996041171813,4,1,0,45,0,0
9160,-158.97352606789,4,1,0,45,0,0
9318,-163.160526754459,4,1,0,45,0,0
9633,-172.202674173118,4,1,0,45,0,0
9795,-178.571428571429,4,1,0,45,0,0
9949,-182.339791356185,4,1,0,45,0,0
10108,-187.905548089845,4,1,0,45,0,0
10265,-193.745051464766,4,1,0,45,0,0
10423,-200,4,1,0,45,0,0
10585,-66.6666666666667,4,1,0,55,0,1
10740,-68.2941903584672,4,1,0,55,0,1
10819,-69.1381198185515,4,1,0,55,0,1
10898,-70.0031675641432,4,1,0,55,0,1
11055,-71.7882085431217,4,1,0,55,0,1
11213,-73.6789464910818,4,1,0,55,0,1
11371,-75.6719739770587,4,1,0,55,0,1
11450,-76.7094758764318,4,1,0,55,0,1
11529,-77.7758226288932,4,1,0,55,0,1
11687,-80,4,1,0,55,0,1
11845,-66.6666666666667,4,1,0,55,0,1
11924,-67.470615173256,4,1,0,55,0,1
12003,-68.2941903584672,4,1,0,55,0,1
12082,-69.1381198185515,4,1,0,55,0,1
12161,-70.0031675641432,4,1,0,55,0,1
12318,-71.7882085431217,4,1,0,55,0,1
12476,-73.6789464910818,4,1,0,55,0,1
12555,-74.6621621621622,4,1,0,55,0,1
12634,-75.6719739770587,4,1,0,55,0,1
12713,-76.7094758764318,4,1,0,55,0,1
12792,-77.7758226288932,4,1,0,55,0,1
12848,-78.9889415481832,4,1,0,55,0,1
12901,-79.3650793650794,4,1,0,55,0,1
12950,-80,4,1,0,55,0,1
13108,-66.6666666666667,4,1,0,55,0,1
13266,-68.2941903584672,4,1,0,55,0,1
13319,-68.8580775821779,4,1,0,55,0,1
13371,-69.4204491911418,4,1,0,55,0,1
13424,-70.0031675641432,4,1,0,55,0,1
13581,-71.7882085431217,4,1,0,55,0,1
13661,-72.7332565410564,4,1,0,55,0,1
13739,-73.6789464910818,4,1,0,55,0,1
13897,-75.6719739770587,4,1,0,55,0,1
13976,-76.7094758764318,4,1,0,55,0,1
14055,-77.7758226288932,4,1,0,55,0,1
14213,-80,4,1,0,55,0,1
14371,-66.6666666666667,4,1,0,55,0,1
14450,-67.4163701067616,4,1,0,55,0,1
14529,-68.1831269795566,4,1,0,55,0,1
14608,-68.9675258482598,4,1,0,55,0,1
14687,-69.7701826753094,4,1,0,55,0,1
14766,-70.5917424355344,4,1,0,55,0,1
14845,-71.4328808446456,4,1,0,55,0,1
14924,-72.2943062127919,4,1,0,55,0,1
15003,-73.176761433869,4,1,0,55,0,1
15082,-74.0810261223213,4,1,0,55,0,1
15161,-75.0079189103579,4,1,0,55,0,1
15240,-75.9582999198075,4,1,0,55,0,1
15319,-76.9330734243015,4,1,0,55,0,1
15371,-77.5884665792923,4,1,0,55,0,1
15424,-78.2680548669641,4,1,0,55,0,1
15477,-78.9596532177392,4,1,0,55,0,1
15555,-80,4,1,0,55,0,1
15637,-66.6666666666667,4,1,0,55,0,1
15795,-68.2941903584672,4,1,0,55,0,1
15874,-69.1381198185515,4,1,0,55,0,1
15953,-70.0031675641432,4,1,0,55,0,1
16110,-71.7882085431217,4,1,0,55,0,1
16268,-73.6789464910818,4,1,0,55,0,1
16426,-75.6719739770587,4,1,0,55,0,1
16505,-76.7094758764318,4,1,0,55,0,1
16584,-77.7758226288932,4,1,0,55,0,1
16742,-80,4,1,0,55,0,1
16900,-66.6666666666667,4,1,0,55,0,1
16979,-67.470615173256,4,1,0,55,0,1
17058,-68.2941903584672,4,1,0,55,0,1
17137,-69.1381198185515,4,1,0,55,0,1
17216,-70.0031675641432,4,1,0,55,0,1
17373,-71.7882085431217,4,1,0,55,0,1
17531,-73.6789464910818,4,1,0,55,0,1
17610,-74.6621621621622,4,1,0,55,0,1
17689,-75.6719739770587,4,1,0,55,0,1
17768,-76.7094758764318,4,1,0,55,0,1
17847,-77.7758226288932,4,1,0,55,0,1
17901,-78.7401574803149,4,1,0,55,0,1
17953,-79.3650793650794,4,1,0,55,0,1
18005,-80,4,1,0,55,0,1
18163,-66.6666666666667,4,1,0,55,0,1
18321,-68.2941903584672,4,1,0,55,0,1
18374,-68.8580775821779,4,1,0,55,0,1
18426,-69.4204491911418,4,1,0,55,0,1
18479,-70.0031675641432,4,1,0,55,0,1
18636,-71.7882085431217,4,1,0,55,0,1
18716,-72.7332565410564,4,1,0,55,0,1
18794,-73.6789464910818,4,1,0,55,0,1
18952,-75.6719739770587,4,1,0,55,0,1
19031,-76.7094758764318,4,1,0,55,0,1
19110,-77.7758226288932,4,1,0,55,0,1
19268,-80,4,1,0,55,0,1
19426,-66.6666666666667,4,1,0,55,0,1
19505,-67.4163701067616,4,1,0,55,0,1
19584,-68.1831269795566,4,1,0,55,0,1
19663,-68.9675258482598,4,1,0,55,0,1
19742,-69.7701826753094,4,1,0,55,0,1
19821,-70.5917424355344,4,1,0,55,0,1
19900,-71.4328808446456,4,1,0,55,0,1
19979,-72.2943062127919,4,1,0,55,0,1
20058,-73.176761433869,4,1,0,55,0,1
20137,-74.0810261223213,4,1,0,55,0,1
20216,-75.0079189103579,4,1,0,55,0,1
20295,-75.9582999198075,4,1,0,55,0,1
20374,-76.9330734243015,4,1,0,55,0,1
20426,-77.5884665792923,4,1,0,55,0,1
20479,-78.2680548669641,4,1,0,55,0,1
20532,-78.9596532177392,4,1,0,55,0,1
20610,-80,4,1,0,55,0,1
20686,-66.6666666666667,4,1,0,55,0,1
20844,-68.2941903584672,4,1,0,55,0,1
20923,-69.1381198185515,4,1,0,55,0,1
21002,-70.0031675641432,4,1,0,55,0,1
21159,-71.7882085431217,4,1,0,55,0,1
21317,-73.6789464910818,4,1,0,55,0,1
21475,-75.6719739770587,4,1,0,55,0,1
21554,-76.7094758764318,4,1,0,55,0,1
21633,-77.7758226288932,4,1,0,55,0,1
21791,-80,4,1,0,55,0,1
21949,-66.6666666666667,4,1,0,55,0,1
22028,-67.470615173256,4,1,0,55,0,1
22107,-68.2941903584672,4,1,0,55,0,1
22186,-69.1381198185515,4,1,0,55,0,1
22265,-70.0031675641432,4,1,0,55,0,1
22422,-71.7882085431217,4,1,0,55,0,1
22580,-73.6789464910818,4,1,0,55,0,1
22659,-74.6621621621622,4,1,0,55,0,1
22738,-75.6719739770587,4,1,0,55,0,1
22817,-76.7094758764318,4,1,0,55,0,1
22896,-77.7758226288932,4,1,0,55,0,1
22953,-78.7401574803149,4,1,0,55,0,1
23006,-79.3650793650794,4,1,0,55,0,1
23054,-80,4,1,0,55,0,1
23212,-66.6666666666667,4,1,0,55,0,1
23370,-68.2941903584672,4,1,0,55,0,1
23423,-68.8580775821779,4,1,0,55,0,1
23475,-69.4204491911418,4,1,0,55,0,1
23528,-70.0031675641432,4,1,0,55,0,1
23685,-71.7882085431217,4,1,0,55,0,1
23765,-72.7332565410564,4,1,0,55,0,1
23843,-73.6789464910818,4,1,0,55,0,1
24001,-75.6719739770587,4,1,0,55,0,1
24080,-76.7094758764318,4,1,0,55,0,1
24159,-77.7758226288932,4,1,0,55,0,1
24317,-80,4,1,0,55,0,1
24475,-66.6666666666667,4,1,0,55,0,1
24554,-67.4163701067616,4,1,0,55,0,1
24633,-68.1831269795566,4,1,0,55,0,1
24712,-68.9675258482598,4,1,0,55,0,1
24791,-69.7701826753094,4,1,0,55,0,1
24870,-70.5917424355344,4,1,0,55,0,1
24949,-71.4328808446456,4,1,0,55,0,1
25028,-72.2943062127919,4,1,0,55,0,1
25107,-73.176761433869,4,1,0,55,0,1
25186,-74.0810261223213,4,1,0,55,0,1
25265,-75.0079189103579,4,1,0,55,0,1
25344,-75.9582999198075,4,1,0,55,0,1
25423,-76.9330734243015,4,1,0,55,0,1
25475,-77.5884665792923,4,1,0,55,0,1
25528,-78.2680548669641,4,1,0,55,0,1
25581,-78.9596532177392,4,1,0,55,0,1
25659,-80,4,1,0,55,0,1
25738,-66.6666666666667,4,1,0,55,0,1
25896,-68.2941903584672,4,1,0,55,0,1
25975,-69.1381198185515,4,1,0,55,0,1
26054,-70.0031675641432,4,1,0,55,0,1
26211,-71.7882085431217,4,1,0,55,0,1
26369,-73.6789464910818,4,1,0,55,0,1
26527,-75.6719739770587,4,1,0,55,0,1
26606,-76.7094758764318,4,1,0,55,0,1
26685,-77.7758226288932,4,1,0,55,0,1
26843,-80,4,1,0,55,0,1
27001,-66.6666666666667,4,1,0,55,0,1
27080,-67.470615173256,4,1,0,55,0,1
27159,-68.2941903584672,4,1,0,55,0,1
27238,-69.1381198185515,4,1,0,55,0,1
27317,-70.0031675641432,4,1,0,55,0,1
27474,-71.7882085431217,4,1,0,55,0,1
27632,-73.6789464910818,4,1,0,55,0,1
27711,-74.6621621621622,4,1,0,55,0,1
27790,-75.6719739770587,4,1,0,55,0,1
27869,-76.7094758764318,4,1,0,55,0,1
27948,-77.7758226288932,4,1,0,55,0,1
28006,-78.7401574803149,4,1,0,55,0,1
28058,-79.3650793650794,4,1,0,55,0,1
28106,-80,4,1,0,55,0,1
28264,-66.6666666666667,4,1,0,55,0,1
28422,-68.2941903584672,4,1,0,55,0,1
28475,-68.8580775821779,4,1,0,55,0,1
28527,-69.4204491911418,4,1,0,55,0,1
28580,-70.0031675641432,4,1,0,55,0,1
28737,-71.7882085431217,4,1,0,55,0,1
28817,-72.7332565410564,4,1,0,55,0,1
28895,-73.6789464910818,4,1,0,55,0,1
29053,-75.6719739770587,4,1,0,55,0,1
29132,-76.7094758764318,4,1,0,55,0,1
29211,-77.7758226288932,4,1,0,55,0,1
29369,-80,4,1,0,55,0,1
29527,-66.6666666666667,4,1,0,55,0,1
29606,-67.4163701067616,4,1,0,55,0,1
29685,-68.1831269795566,4,1,0,55,0,1
29764,-68.9675258482598,4,1,0,55,0,1
29843,-69.7701826753094,4,1,0,55,0,1
29922,-70.5917424355344,4,1,0,55,0,1
30001,-71.4328808446456,4,1,0,55,0,1
30080,-72.2943062127919,4,1,0,55,0,1
30159,-73.176761433869,4,1,0,55,0,1
30238,-74.0810261223213,4,1,0,55,0,1
30317,-75.0079189103579,4,1,0,55,0,1
30396,-75.9582999198075,4,1,0,55,0,1
30475,-76.9330734243015,4,1,0,55,0,1
30527,-77.5884665792923,4,1,0,55,0,1
30580,-78.2680548669641,4,1,0,55,0,1
30633,-78.9596532177392,4,1,0,55,0,1
30711,-80,4,1,0,55,0,1
30795,-66.6666666666667,4,1,0,45,0,0
36319,-68.3556482001122,4,1,0,45,0,0
36477,-50,4,1,0,45,0,0
36792,-71.05,4,1,0,45,0,0
37740,-55.5555555555556,4,1,0,45,0,0
38371,-81.8155647250744,4,1,0,45,0,0
39003,-62.5,4,1,0,45,0,0
39319,-90.0031668953869,4,1,0,45,0,0
39637,-104.166666666667,4,1,0,45,0,0
39792,-104.646881213638,4,1,0,45,0,0
40266,-71.4285714285714,4,1,0,45,0,0
40901,-40,4,1,0,45,0,0
42006,-100,4,1,0,30,0,0
42164,-80,4,1,0,45,0,0
42322,-80.7023392787687,4,1,0,45,0,0
42480,-81.4171197937104,4,1,0,45,0,0
42637,-82.140029408438,4,1,0,45,0,0
42795,-82.8806208628167,4,1,0,45,0,0
42953,-83.6346884717264,4,1,0,45,0,0
43032,-84.0168913056054,4,1,0,45,0,0
43111,-84.4026034402604,4,1,0,45,0,0
43269,-85.1847507331378,4,1,0,45,0,0
43427,-85.9815297182098,4,1,0,45,0,0
43585,-86.7933548464205,4,1,0,45,0,0
43743,-87.6206563706564,4,1,0,45,0,0
43901,-88.4638811061031,4,1,0,45,0,0
44058,-89.3180001229937,4,1,0,45,0,0
44216,-90.1943737191828,4,1,0,45,0,0
44295,-90.6390414378432,4,1,0,45,0,0
44374,-91.0881153966761,4,1,0,45,0,0
44532,-91.9997466269716,4,1,0,45,0,0
44690,-92.929809968648,4,1,0,45,0,0
44848,-93.8788701441406,4,1,0,45,0,0
45006,-94.8475151831777,4,1,0,45,0,0
45164,-95.8363576377433,4,1,0,45,0,0
45322,-96.8460358738414,4,1,0,45,0,0
45480,-97.8772154457848,4,1,0,45,0,0
45558,-98.3944177223765,4,1,0,45,0,0
45637,-98.923852336194,4,1,0,45,0,0
45795,-100,4,1,0,45,0,0
45953,-80,4,1,0,45,0,0
46006,-80.1736139546311,4,1,0,45,0,0
46058,-80.3446860894542,4,1,0,45,0,0
46111,-80.5198009622898,4,1,0,45,0,0
46269,-81.0464009271907,4,1,0,45,0,0
46427,-81.5799341694096,4,1,0,45,0,0
46585,-82.1205385228369,4,1,0,45,0,0
46743,-82.6683554992611,4,1,0,45,0,0
46822,-82.9450139794967,4,1,0,45,0,0
46901,-83.2235304118672,4,1,0,45,0,0
47058,-83.7826272999572,4,1,0,45,0,0
47216,-84.3529209029812,4,1,0,45,0,0
47374,-84.9310314912813,4,1,0,45,0,0
47532,-85.5171208944794,4,1,0,45,0,0
47690,-86.1113554402322,4,1,0,45,0,0
47848,-86.7139061116032,4,1,0,45,0,0
48006,-87.3249487110873,4,1,0,45,0,0
48085,-87.6337107819004,4,1,0,45,0,0
48164,-87.9446640316206,4,1,0,45,0,0
48322,-88.5732380349227,4,1,0,45,0,0
48480,-89.2108620375433,4,1,0,45,0,0
48637,-89.8536092882383,4,1,0,45,0,0
48795,-90.5098691813433,4,1,0,45,0,0
48953,-91.1757857974389,4,1,0,45,0,0
49111,-91.8515738612375,4,1,0,45,0,0
49269,-92.5374545110828,4,1,0,45,0,0
49348,-92.8842504743833,4,1,0,45,0,0
49427,-93.2336555402124,4,1,0,45,0,0
49585,-93.9404116489949,4,1,0,45,0,0
49743,-94.6579647087261,4,1,0,45,0,0
49901,-95.386564037609,4,1,0,45,0,0
50058,-96.1217476681394,4,1,0,45,0,0
50216,-96.8731446665347,4,1,0,45,0,0
50374,-97.6363817692231,4,1,0,45,0,0
50532,-98.4117410534781,4,1,0,45,0,0
50690,-99.1995136285338,4,1,0,45,0,0
50848,-100,4,1,0,45,0,0
51006,-74.0740740740741,4,1,0,55,0,1
51058,-74.0740740740741,4,1,0,55,0,1
51111,-74.6268656716418,4,1,0,55,0,1
51164,-74.6273360436167,4,1,0,55,0,1
51322,-75.1889248745793,4,1,0,55,0,1
51401,-75.4729008302656,4,1,0,55,0,1
51480,-75.7590299772851,4,1,0,55,0,1
51637,-76.3341553438744,4,1,0,55,0,1
51795,-76.9218275430817,4,1,0,55,0,1
51874,-77.2190699797822,4,1,0,55,0,1
51953,-77.5186185448891,4,1,0,55,0,1
52111,-78.1247422510351,4,1,0,55,0,1
52269,-78.7404193060336,4,1,0,55,0,1
52427,-79.3658773649724,4,1,0,55,0,1
52585,-80.0013513741786,4,1,0,55,0,1
52664,-80.3229198466809,4,1,0,55,0,1
52743,-80.6470838654747,4,1,0,55,0,1
52901,-81.3033252648023,4,1,0,55,0,1
52980,-81.6354673009963,4,1,0,55,0,1
53058,-81.9660782277605,4,1,0,55,0,1
53216,-82.6440512337277,4,1,0,55,0,1
53295,-82.9872610348876,4,1,0,55,0,1
53374,-83.3333333333333,4,1,0,55,0,1
53532,-74.0740740740741,4,1,0,55,0,1
53690,-74.6271007576115,4,1,0,55,0,1
53848,-75.1884471951123,4,1,0,55,0,1
53927,-75.4722992131001,4,1,0,55,0,1
54006,-75.7583025535249,4,1,0,55,0,1
54164,-76.3368617784008,4,1,0,55,0,1
54322,-76.9243258162453,4,1,0,55,0,1
54401,-77.221461633744,4,1,0,55,0,1
54480,-77.5209018472161,4,1,0,55,0,1
54637,-78.122938926263,4,1,0,55,0,1
54795,-78.738325522651,4,1,0,55,0,1
54953,-79.3634840871022,4,1,0,55,0,1
55111,-79.998649241887,4,1,0,55,0,1
55190,-80.3200596721423,4,1,0,55,0,1
55269,-80.6440631808279,4,1,0,55,0,1
55427,-81.2999759772127,4,1,0,55,0,1
55506,-81.6319498285695,4,1,0,55,0,1
55585,-81.9666459068577,4,1,0,55,0,1
55743,-82.6443397871969,4,1,0,55,0,1
55901,-83.3333333333333,4,1,0,55,0,1
56058,-74.0740740740741,4,1,0,55,0,1
56111,-74.2586671682026,4,1,0,55,0,1
56164,-74.4441825752219,4,1,0,55,0,1
56216,-74.6271007576115,4,1,0,55,0,1
56374,-75.1884471951123,4,1,0,55,0,1
56453,-75.4722992131001,4,1,0,55,0,1
56532,-75.7583025535249,4,1,0,55,0,1
56690,-76.3368617784008,4,1,0,55,0,1
56848,-76.9243258162453,4,1,0,55,0,1
56927,-77.221461633744,4,1,0,55,0,1
57006,-77.5209018472161,4,1,0,55,0,1
57164,-78.1268035287328,4,1,0,55,0,1
57322,-78.7422512506025,4,1,0,55,0,1
57480,-79.3674724022983,4,1,0,55,0,1
57637,-79.998649241887,4,1,0,55,0,1
57716,-80.3200596721423,4,1,0,55,0,1
57795,-80.6440631808279,4,1,0,55,0,1
57953,-81.2999759772127,4,1,0,55,0,1
58032,-81.6319498285695,4,1,0,55,0,1
58111,-81.9666459068577,4,1,0,55,0,1
58269,-82.6443397871969,4,1,0,55,0,1
58348,-82.9874065121819,4,1,0,55,0,1
58427,-83.3333333333333,4,1,0,55,0,1
58585,-74.0740740740741,4,1,0,55,0,1
58743,-74.6273360436167,4,1,0,55,0,1
58901,-75.1889248745793,4,1,0,55,0,1
58980,-75.4729008302656,4,1,0,55,0,1
59058,-75.7553945326871,4,1,0,55,0,1
59216,-76.3341553438744,4,1,0,55,0,1
59374,-76.9218275430817,4,1,0,55,0,1
59453,-77.2190699797822,4,1,0,55,0,1
59532,-77.5186185448891,4,1,0,55,0,1
59690,-78.1247422510351,4,1,0,55,0,1
59848,-78.7404193060336,4,1,0,55,0,1
60006,-79.3658773649724,4,1,0,55,0,1
60164,-80.0013513741786,4,1,0,55,0,1
60243,-80.3229198466809,4,1,0,55,0,1
60322,-80.6470838654747,4,1,0,55,0,1
60480,-81.3033252648023,4,1,0,55,0,1
60558,-81.6312460140993,4,1,0,55,0,1
60637,-81.9660782277605,4,1,0,55,0,1
60795,-82.6440512337277,4,1,0,55,0,1
60953,-83.3333333333333,4,1,0,55,0,1
61111,-66.6666666666667,4,1,0,45,0,0

[HitObjects]
138,182,480,5,4,0:0:0:0:
259,188,795,1,0,0:0:0:0:
261,195,1111,1,8,0:0:0:0:
261,195,1269,1,8,0:0:0:0:
261,195,1427,1,8,0:0:0:0:
261,195,1585,1,8,0:0:0:0:
252,202,1743,1,0,0:0:0:0:
252,202,2058,1,0,0:0:0:0:
252,202,2374,1,8,0:0:0:0:
252,202,2532,1,8,0:0:0:0:
252,202,2690,1,0,0:0:0:0:
252,202,2848,1,8,0:0:0:0:
138,182,3006,1,0,0:0:0:0:
259,188,3322,1,0,0:0:0:0:
261,195,3637,1,8,0:0:0:0:
261,195,3795,1,8,0:0:0:0:
261,195,3953,1,8,0:0:0:0:
261,195,4111,1,8,0:0:0:0:
252,202,4269,1,0,0:0:0:0:
252,202,4585,1,0,0:0:0:0:
252,202,4901,1,8,0:0:0:0:
252,202,5058,1,0,0:0:0:0:
252,202,5216,1,0,0:0:0:0:
252,202,5374,1,8,0:0:0:0:
138,182,5532,1,0,0:0:0:0:
259,188,5848,1,0,0:0:0:0:
261,195,6164,1,8,0:0:0:0:
261,195,6322,1,8,0:0:0:0:
261,195,6480,1,8,0:0:0:0:
261,195,6637,1,8,0:0:0:0:
252,202,6795,1,0,0:0:0:0:
252,202,7111,1,0,0:0:0:0:
252,202,7427,1,8,0:0:0:0:
252,202,7585,1,8,0:0:0:0:
252,202,7743,1,0,0:0:0:0:
252,202,7901,1,8,0:0:0:0:
138,182,8058,1,0,0:0:0:0:
259,188,8374,1,0,0:0:0:0:
261,195,8690,1,8,0:0:0:0:
261,195,8848,1,8,0:0:0:0:
261,195,9006,1,8,0:0:0:0:
261,195,9164,1,8,0:0:0:0:
252,202,9322,1,0,0:0:0:0:
252,202,9637,1,0,0:0:0:0:
240,203,9795,1,0,0:0:0:0:
252,202,9953,1,8,0:0:0:0:
252,202,10111,1,0,0:0:0:0:
252,202,10269,1,8,0:0:0:0:
252,202,10427,1,8,0:0:0:0:
248,198,10585,5,0,0:0:0:0:
211,186,10743,1,8,0:0:0:0:
221,187,10822,1,8,0:0:0:0:
211,186,10901,1,0,0:0:0:0:
211,186,11058,1,8,0:0:0:0:
211,186,11216,1,0,0:0:0:0:
211,186,11374,1,8,0:0:0:0:
211,186,11453,1,0,0:0:0:0:
211,186,11532,1,8,0:0:0:0:
211,186,11690,1,0,0:0:0:0:
211,186,11848,1,0,0:0:0:0:
203,194,11927,1,8,0:0:0:0:
211,186,12006,1,0,0:0:0:0:
221,187,12085,1,8,0:0:0:0:
211,186,12164,1,0,0:0:0:0:
211,186,12322,1,8,0:0:0:0:
211,186,12480,1,0,0:0:0:0:
221,176,12558,1,0,0:0:0:0:
211,186,12637,1,8,0:0:0:0:
211,186,12716,1,0,0:0:0:0:
214,192,12795,1,8,0:0:0:0:
214,192,12848,1,8,0:0:0:0:
214,192,12901,1,8,0:0:0:0:
211,186,12953,1,0,0:0:0:0:
211,186,13111,1,0,0:0:0:0:
211,186,13269,1,8,0:0:0:0:
211,186,13427,1,0,0:0:0:0:
211,186,13585,1,8,0:0:0:0:
206,193,13664,1,8,0:0:0:0:
211,186,13743,1,0,0:0:0:0:
211,186,13901,1,8,0:0:0:0:
211,186,13980,1,0,0:0:0:0:
211,186,14058,1,8,0:0:0:0:
211,186,14216,1,0,0:0:0:0:
211,186,14374,1,0,0:0:0:0:
203,194,14453,1,0,0:0:0:0:
211,186,14532,1,8,0:0:0:0:
221,187,14611,1,8,0:0:0:0:
221,185,14690,1,0,0:0:0:0:
230,186,14769,1,0,0:0:0:0:
230,186,14848,1,8,0:0:0:0:
230,186,14927,1,0,0:0:0:0:
221,185,15006,1,8,0:0:0:0:
230,186,15085,1,8,0:0:0:0:
230,186,15164,1,0,0:0:0:0:
221,185,15243,1,0,0:0:0:0:
217,167,15322,1,8,0:0:0:0:
217,167,15374,1,8,0:0:0:0:
217,167,15427,1,8,0:0:0:0:
221,185,15480,1,0,0:0:0:0:
223,180,15558,1,8,0:0:0:0:
211,186,15637,1,0,0:0:0:0:
211,186,15795,1,8,0:0:0:0:
221,187,15874,1,8,0:0:0:0:
211,186,15953,1,0,0:0:0:0:
211,186,16111,1,8,0:0:0:0:
211,186,16269,1,0,0:0:0:0:
211,186,16427,1,8,0:0:0:0:
211,186,16506,1,0,0:0:0:0:
211,186,16585,1,8,0:0:0:0:
211,186,16743,1,0,0:0:0:0:
211,186,16901,1,0,0:0:0:0:
203,194,16980,1,0,0:0:0:0:
211,186,17058,1,8,0:0:0:0:
221,187,17137,1,8,0:0:0:0:
211,186,17216,1,0,0:0:0:0:
211,186,17374,1,8,0:0:0:0:
211,186,17532,1,0,0:0:0:0:
221,176,17611,1,0,0:0:0:0:
211,186,17690,1,8,0:0:0:0:
211,186,17769,1,0,0:0:0:0:
221,176,17848,1,8,0:0:0:0:
219,180,17901,1,8,0:0:0:0:
219,180,17953,1,8,0:0:0:0:
211,186,18006,1,0,0:0:0:0:
211,186,18164,1,0,0:0:0:0:
211,186,18322,1,8,0:0:0:0:
211,186,18480,1,0,0:0:0:0:
211,186,18637,1,8,0:0:0:0:
206,193,18716,1,8,0:0:0:0:
211,186,18795,1,0,0:0:0:0:
211,186,18953,1,8,0:0:0:0:
211,186,19032,1,0,0:0:0:0:
211,186,19111,1,8,0:0:0:0:
211,186,19269,1,0,0:0:0:0:
211,186,19427,1,0,0:0:0:0:
203,194,19506,1,0,0:0:0:0:
211,186,19585,1,8,0:0:0:0:
221,187,19664,1,0,0:0:0:0:
221,185,19743,1,8,0:0:0:0:
230,186,19822,1,0,0:0:0:0:
230,186,19901,1,8,0:0:0:0:
230,186,19980,1,8,0:0:0:0:
221,185,20058,1,0,0:0:0:0:
230,186,20137,1,8,0:0:0:0:
230,186,20216,1,0,0:0:0:0:
221,185,20295,1,0,0:0:0:0:
219,180,20374,1,8,0:0:0:0:
219,180,20427,1,8,0:0:0:0:
219,180,20480,1,8,0:0:0:0:
221,185,20532,1,0,0:0:0:0:
223,180,20611,1,8,0:0:0:0:
248,198,20690,5,0,0:0:0:0:
211,186,20848,1,8,0:0:0:0:
221,187,20927,1,8,0:0:0:0:
211,186,21006,1,0,0:0:0:0:
211,186,21164,1,8,0:0:0:0:
211,186,21322,1,0,0:0:0:0:
211,186,21480,1,8,0:0:0:0:
211,186,21558,1,0,0:0:0:0:
211,186,21637,1,8,0:0:0:0:
211,186,21795,1,0,0:0:0:0:
211,186,21953,1,8,0:0:0:0:
203,194,22032,1,8,0:0:0:0:
211,186,22111,1,0,0:0:0:0:
221,187,22190,1,8,0:0:0:0:
211,186,22269,1,0,0:0:0:0:
211,186,22427,1,8,0:0:0:0:
211,186,22585,1,0,0:0:0:0:
221,176,22664,1,0,0:0:0:0:
211,186,22743,1,8,0:0:0:0:
211,186,22822,1,0,0:0:0:0:
221,176,22901,1,8,0:0:0:0:
219,180,22953,1,8,0:0:0:0:
219,180,23006,1,8,0:0:0:0:
211,186,23058,1,0,0:0:0:0:
211,186,23216,1,0,0:0:0:0:
211,186,23374,1,8,0:0:0:0:
211,186,23532,1,0,0:0:0:0:
211,186,23690,1,8,0:0:0:0:
206,193,23769,1,8,0:0:0:0:
211,186,23848,1,0,0:0:0:0:
211,186,24006,1,8,0:0:0:0:
211,186,24085,1,0,0:0:0:0:
211,186,24164,1,8,0:0:0:0:
211,186,24322,1,0,0:0:0:0:
211,186,24480,1,0,0:0:0:0:
203,194,24558,1,0,0:0:0:0:
211,186,24637,1,8,0:0:0:0:
221,187,24716,1,0,0:0:0:0:
221,185,24795,1,8,0:0:0:0:
230,186,24874,1,8,0:0:0:0:
230,186,24953,1,0,0:0:0:0:
230,186,25032,1,8,0:0:0:0:
221,185,25111,1,0,0:0:0:0:
230,186,25190,1,8,0:0:0:0:
230,186,25269,1,0,0:0:0:0:
221,185,25348,1,0,0:0:0:0:
219,180,25427,1,8,0:0:0:0:
219,180,25480,1,8,0:0:0:0:
219,180,25532,1,8,0:0:0:0:
221,185,25585,1,0,0:0:0:0:
223,180,25664,1,8,0:0:0:0:
211,186,25743,1,0,0:0:0:0:
211,186,25901,1,8,0:0:0:0:
221,187,25980,1,8,0:0:0:0:
211,186,26058,1,0,0:0:0:0:
211,186,26216,1,8,0:0:0:0:
211,186,26374,1,0,0:0:0:0:
211,186,26532,1,8,0:0:0:0:
211,186,26611,1,0,0:0:0:0:
211,186,26690,1,8,0:0:0:0:
211,186,26848,1,0,0:0:0:0:
211,186,27006,1,8,0:0:0:0:
203,194,27085,1,0,0:0:0:0:
211,186,27164,1,8,0:0:0:0:
221,187,27243,1,8,0:0:0:0:
211,186,27322,1,0,0:0:0:0:
211,186,27480,1,8,0:0:0:0:
211,186,27637,1,0,0:0:0:0:
221,176,27716,1,0,0:0:0:0:
211,186,27795,1,8,0:0:0:0:
211,186,27874,1,0,0:0:0:0:
221,176,27953,1,8,0:0:0:0:
217,173,28006,1,8,0:0:0:0:
217,173,28058,1,8,0:0:0:0:
211,186,28111,1,0,0:0:0:0:
211,186,28269,1,0,0:0:0:0:
211,186,28427,1,8,0:0:0:0:
211,186,28585,1,0,0:0:0:0:
211,186,28743,1,8,0:0:0:0:
206,193,28822,1,8,0:0:0:0:
211,186,28901,1,0,0:0:0:0:
211,186,29058,1,8,0:0:0:0:
211,186,29137,1,0,0:0:0:0:
211,186,29216,1,8,0:0:0:0:
211,186,29374,1,0,0:0:0:0:
211,186,29532,1,0,0:0:0:0:
203,194,29611,1,0,0:0:0:0:
211,186,29690,1,8,0:0:0:0:
221,187,29769,1,0,0:0:0:0:
221,185,29848,1,8,0:0:0:0:
230,186,29927,1,8,0:0:0:0:
230,186,30006,1,0,0:0:0:0:
230,186,30085,1,8,0:0:0:0:
221,185,30164,1,0,0:0:0:0:
230,186,30243,1,8,0:0:0:0:
230,186,30322,1,0,0:0:0:0:
221,185,30401,1,0,0:0:0:0:
289,171,30480,1,8,0:0:0:0:
289,171,30532,1,8,0:0:0:0:
289,171,30585,1,8,0:0:0:0:
221,185,30637,1,0,0:0:0:0:
250,185,30795,5,12,0:0:0:0:
276,190,31743,1,0,0:0:0:0:
248,191,33322,1,8,0:0:0:0:
241,194,33953,1,0,0:0:0:0:
237,190,34269,1,0,0:0:0:0:
237,190,34743,1,0,0:0:0:0:
237,190,35216,1,0,0:0:0:0:
302,192,35848,1,0,0:0:0:0:
302,192,36322,1,0,0:0:0:0:
264,196,36480,1,8,0:0:0:0:
302,192,36795,1,0,0:0:0:0:
264,196,37743,1,8,0:0:0:0:
323,209,38374,1,0,0:0:0:0:
264,196,39006,1,8,0:0:0:0:
323,209,39322,1,0,0:0:0:0:
323,209,39795,1,0,0:0:0:0:
264,196,40269,1,8,0:0:0:0:
256,192,40901,12,0,41848,0:0:0:0:
282,173,42006,5,0,0:0:0:0:
239,215,42164,5,8,0:0:0:0:
239,215,42322,1,0,0:0:0:0:
258,208,42480,1,8,0:0:0:0:
258,208,42637,1,0,0:0:0:0:
258,208,42795,1,8,0:0:0:0:
258,208,42953,1,0,0:0:0:0:
258,208,43032,1,8,0:0:0:0:
258,208,43111,1,0,0:0:0:0:
258,208,43269,1,8,0:0:0:0:
239,215,43427,1,8,0:0:0:0:
239,215,43585,1,0,0:0:0:0:
258,208,43743,1,8,0:0:0:0:
258,208,43901,1,0,0:0:0:0:
258,208,44058,1,8,0:0:0:0:
258,208,44216,1,8,0:0:0:0:
258,208,44295,1,8,0:0:0:0:
258,208,44374,1,0,0:0:0:0:
258,208,44532,1,0,0:0:0:0:
239,215,44690,1,8,0:0:0:0:
239,215,44848,1,0,0:0:0:0:
258,208,45006,1,8,0:0:0:0:
258,208,45164,1,0,0:0:0:0:
258,208,45322,1,8,0:0:0:0:
258,208,45480,1,0,0:0:0:0:
258,208,45558,1,8,0:0:0:0:
258,208,45637,1,8,0:0:0:0:
258,208,45795,1,0,0:0:0:0:
239,215,45953,1,8,0:0:0:0:
272,204,46006,1,0,0:0:0:0:
272,204,46058,1,0,0:0:0:0:
239,215,46111,1,8,0:0:0:0:
258,208,46269,1,8,0:0:0:0:
258,208,46427,1,0,0:0:0:0:
258,208,46585,1,8,0:0:0:0:
258,208,46743,1,0,0:0:0:0:
258,208,46822,1,8,0:0:0:0:
258,208,46901,1,0,0:0:0:0:
258,208,47058,1,0,0:0:0:0:
239,215,47216,1,8,0:0:0:0:
239,215,47374,1,0,0:0:0:0:
258,208,47532,1,8,0:0:0:0:
258,208,47690,1,0,0:0:0:0:
258,208,47848,1,8,0:0:0:0:
258,208,48006,1,8,0:0:0:0:
258,208,48085,1,8,0:0:0:0:
258,208,48164,1,0,0:0:0:0:
258,208,48322,1,8,0:0:0:0:
239,215,48480,1,8,0:0:0:0:
239,215,48637,1,0,0:0:0:0:
258,208,48795,1,8,0:0:0:0:
258,208,48953,1,0,0:0:0:0:
258,208,49111,1,8,0:0:0:0:
258,208,49269,1,0,0:0:0:0:
258,208,49348,1,8,0:0:0:0:
258,208,49427,1,8,0:0:0:0:
258,208,49585,1,0,0:0:0:0:
239,215,49743,1,8,0:0:0:0:
278,211,49901,1,0,0:0:0:0:
258,208,50058,1,8,0:0:0:0:
278,211,50216,1,0,0:0:0:0:
258,208,50374,1,8,0:0:0:0:
268,203,50690,1,0,0:0:0:0:
246,191,51006,5,8,0:0:0:0:
249,198,51058,1,8,0:0:0:0:
249,198,51111,1,8,0:0:0:0:
259,197,51164,1,0,0:0:0:0:
259,197,51322,1,8,0:0:0:0:
259,197,51401,1,0,0:0:0:0:
259,197,51480,1,8,0:0:0:0:
259,197,51637,1,0,0:0:0:0:
274,194,51795,1,0,0:0:0:0:
288,192,51874,1,8,0:0:0:0:
288,186,51953,1,0,0:0:0:0:
274,194,52111,1,0,0:0:0:0:
246,191,52269,1,8,0:0:0:0:
259,197,52427,1,0,0:0:0:0:
259,197,52585,1,8,0:0:0:0:
259,197,52664,1,0,0:0:0:0:
275,200,52743,1,0,0:0:0:0:
259,197,52901,1,8,0:0:0:0:
297,197,52980,1,8,0:0:0:0:
274,194,53058,1,0,0:0:0:0:
288,186,53216,1,0,0:0:0:0:
281,184,53295,1,0,0:0:0:0:
274,194,53374,1,8,0:0:0:0:
246,191,53532,1,8,0:0:0:0:
259,197,53690,1,0,0:0:0:0:
259,197,53848,1,8,0:0:0:0:
259,197,53927,1,0,0:0:0:0:
259,197,54006,1,8,0:0:0:0:
259,197,54164,1,0,0:0:0:0:
274,194,54322,1,0,0:0:0:0:
288,192,54401,1,8,0:0:0:0:
288,186,54480,1,0,0:0:0:0:
274,194,54637,1,0,0:0:0:0:
246,191,54795,1,8,0:0:0:0:
259,197,54953,1,0,0:0:0:0:
259,197,55111,1,8,0:0:0:0:
259,197,55190,1,8,0:0:0:0:
275,200,55269,1,0,0:0:0:0:
259,197,55427,1,8,0:0:0:0:
297,197,55506,1,0,0:0:0:0:
274,194,55585,1,0,0:0:0:0:
288,186,55743,1,8,0:0:0:0:
274,194,55901,1,0,0:0:0:0:
246,191,56058,1,8,0:0:0:0:
270,187,56111,1,8,0:0:0:0:
260,195,56164,1,0,0:0:0:0:
259,197,56216,1,0,0:0:0:0:
259,197,56374,1,8,0:0:0:0:
259,197,56453,1,0,0:0:0:0:
259,197,56532,1,8,0:0:0:0:
259,197,56690,1,0,0:0:0:0:
274,194,56848,1,0,0:0:0:0:
288,192,56927,1,8,0:0:0:0:
288,186,57006,1,0,0:0:0:0:
274,194,57164,1,0,0:0:0:0:
246,191,57322,1,8,0:0:0:0:
259,197,57480,1,0,0:0:0:0:
259,197,57637,1,8,0:0:0:0:
259,197,57716,1,0,0:0:0:0:
275,200,57795,1,0,0:0:0:0:
259,197,57953,1,8,0:0:0:0:
297,197,58032,1,8,0:0:0:0:
274,194,58111,1,0,0:0:0:0:
288,186,58269,1,0,0:0:0:0:
281,184,58348,1,0,0:0:0:0:
274,194,58427,1,8,0:0:0:0:
246,191,58585,1,8,0:0:0:0:
259,197,58743,1,0,0:0:0:0:
259,197,58901,1,8,0:0:0:0:
259,197,58980,1,0,0:0:0:0:
259,197,59058,1,8,0:0:0:0:
259,197,59216,1,0,0:0:0:0:
274,194,59374,1,0,0:0:0:0:
288,192,59453,1,8,0:0:0:0:
288,186,59532,1,0,0:0:0:0:
274,194,59690,1,0,0:0:0:0:
246,191,59848,1,8,0:0:0:0:
259,197,60006,1,0,0:0:0:0:
259,197,60164,1,8,0:0:0:0:
259,197,60243,1,0,0:0:0:0:
275,200,60322,1,0,0:0:0:0:
259,197,60480,1,8,0:0:0:0:
288,186,60795,1,0,0:0:0:0:
256,192,61111,12,0,61743,0:0:0:0:
