osu file format v14

[General]
AudioFilename: audio.mp3
AudioLeadIn: 0
PreviewTime: 10585
Countdown: 0
SampleSet: Normal
StackLeniency: 0.7
Mode: 1
LetterboxInBreaks: 0
WidescreenStoryboard: 1

[Editor]
DistanceSpacing: 0.9
BeatDivisor: 4
GridSize: 32
TimelineZoom: 4.499998

[Metadata]
Title:This dog is fucking Smart
TitleUnicode:This dog is fucking Smart
Artist:TwerkNation28
ArtistUnicode:TwerkNation28
Creator:sadgfdgdfsg
Version:BOUNCE
Source:
Tags:twerknation jersey club season 4 electronic instrumental ulqui myckoll
BeatmapID:3961665
BeatmapSetID:1917034

[Difficulty]
HPDrainRate:8
CircleSize:5
OverallDifficulty:7
ApproachRate:5
SliderMultiplier:1.2
SliderTickRate:1

[Events]
//Background and Video events
0,0,"HQ9BXobfjNlS9HHv_9o_I4ZqeK3VvwINQ8dnZlKpsJHtvTrjth7QUhA_waVVGFm3rNy-tivcqLyQQ0DKfYy-xtoR.jpg",0,99
//Break Periods
//Storyboard Layer 0 (Background)
//Storyboard Layer 1 (Fail)
//Storyboard Layer 2 (Pass)
//Storyboard Layer 3 (Foreground)
//Storyboard Layer 4 (Overlay)
//Storyboard Sound Samples

[TimingPoints]
480,315.789473684211,4,1,0,45,1,0
480,-12.5,4,1,0,45,0,0
1742,-133.333333333333,4,1,0,45,0,0
1744,-117.647058823529,4,1,0,45,0,0
3004,-158.952019740625,4,1,0,45,0,0
3007,-136.986301369863,4,1,0,45,0,0
4267,-189.493084347179,4,1,0,45,0,0
4270,-159.305746994887,4,1,0,45,0,0
5531,-225.933750782374,4,1,0,45,0,0
5533,-184.295236702788,4,1,0,45,0,0
6794,-269.34469510825,4,1,0,45,0,0
6796,-212.191925602431,4,1,0,45,0,0
8057,-321.096624704092,4,1,0,45,0,0
8059,-243.053095965644,4,1,0,45,0,0
9320,-382.792177714596,4,1,0,45,0,0
9323,-276.825530172766,4,1,0,45,0,0
10585,-200,4,1,0,55,0,1
10742,-89.2857142857143,4,1,0,55,0,1
10821,-94.3396226415094,4,1,0,55,0,1
10900,-100,4,1,0,55,0,1
11057,-111.111111111111,4,1,0,55,0,1
11136,-106.022479449757,4,1,0,55,0,1
11215,-101.322645290581,4,1,0,55,0,1
11294,-97.0217992017194,4,1,0,55,0,1
11373,-93.0712024151388,4,1,0,55,0,1
11452,-89.4297438800057,4,1,0,55,0,1
11531,-86.062504255464,4,1,0,55,0,1
11610,-82.9396325459318,4,1,0,55,0,1
11689,-80.0354587475464,4,1,0,55,0,1
11847,-100,4,1,0,55,0,1
11926,-96.3855421686747,4,1,0,55,0,1
12005,-93.0232558139535,4,1,0,55,0,1
12084,-89.8876404494382,4,1,0,55,0,1
12163,-86.9565217391304,4,1,0,55,0,1
12321,-71.4285714285714,4,1,0,55,0,1
12400,-74.0679017489283,4,1,0,55,0,1
12479,-76.9097656174893,4,1,0,55,0,1
12557,-79.9380328464365,4,1,0,55,0,1
12636,-83.2582976708096,4,1,0,55,0,1
12715,-86.8663327810724,4,1,0,55,0,1
12794,-90.8012448390915,4,1,0,55,0,1
12873,-95.1095626043647,4,1,0,55,0,1
12952,-99.8470854525166,4,1,0,55,0,1
13110,-86.9565217391304,4,1,0,55,0,1
13111,-86.9565217391304,4,1,0,55,0,1
13189,-89.8288119497985,4,1,0,55,0,1
13268,-92.9380368831238,4,1,0,55,0,1
13347,-96.2702167455165,4,1,0,55,0,1
13426,-99.8502246630055,4,1,0,55,0,1
13584,-90.9090909090909,4,1,0,55,0,1
13663,-88.8888888888889,4,1,0,55,0,1
13742,-86.9565217391304,4,1,0,55,0,1
13821,-85.1063829787234,4,1,0,55,0,1
13900,-83.3333333333333,4,1,0,55,0,1
13979,-81.6326530612245,4,1,0,55,0,1
14057,-80.0202582932388,4,1,0,55,0,1
14136,-78.4508440913605,4,1,0,55,0,1
14215,-76.9418066715364,4,1,0,55,0,1
14373,-90.9090909090909,4,1,0,55,0,1
14374,-66.6666666666667,4,1,0,55,0,1
14452,-67.0286217010092,4,1,0,55,0,1
14531,-67.7877388049309,4,1,0,55,0,1
14610,-68.8525251700456,4,1,0,55,0,1
14689,-70.2042206558427,4,1,0,55,0,1
14768,-71.8455585992006,4,1,0,55,0,1
14847,-73.7924519952675,4,1,0,55,0,1
14926,-76.0719044855349,4,1,0,55,0,1
15005,-78.7222241636583,4,1,0,55,0,1
15084,-81.7946579926718,4,1,0,55,0,1
15163,-85.3563536205751,4,1,0,55,0,1
15242,-89.494936162807,4,1,0,55,0,1
15321,-94.3253371800797,4,1,0,55,0,1
15400,-100,4,1,0,55,0,1
15557,-76.9230769230769,4,1,0,55,0,1
15636,-79.3331994376381,4,1,0,55,0,1
15637,-79.3650793650794,4,1,0,55,0,1
15715,-81.9332088778262,4,1,0,55,0,1
15794,-84.7094145399957,4,1,0,55,0,1
15873,-87.6803551609323,4,1,0,55,0,1
15952,-90.8672647803083,4,1,0,55,0,1
16110,-100.04756619629,4,1,0,55,0,1
16189,-96.4242053789731,4,1,0,55,0,1
16268,-93.0541218109423,4,1,0,55,0,1
16347,-89.9116557423767,4,1,0,55,0,1
16426,-86.9745003445899,4,1,0,55,0,1
16505,-84.2231713828083,4,1,0,55,0,1
16584,-81.6405744598266,4,1,0,55,0,1
16663,-79.2116495104193,4,1,0,55,0,1
16742,-76.9230769230769,4,1,0,55,0,1
16900,-90.9090909090909,4,1,0,55,0,1
16979,-86.9565217391304,4,1,0,55,0,1
17057,-83.377308707124,4,1,0,55,0,1
17136,-80.0405268490375,4,1,0,55,0,1
17215,-76.9605455431076,4,1,0,55,0,1
17373,-71.4285714285714,4,1,0,55,0,1
17452,-73.3720930232558,4,1,0,55,0,1
17531,-75.4513930407748,4,1,0,55,0,1
17610,-77.6519812946099,4,1,0,55,0,1
17689,-79.9847889466346,4,1,0,55,0,1
17768,-82.4621014113957,4,1,0,55,0,1
17847,-85.0977747808496,4,1,0,55,0,1
17926,-87.90749512399,4,1,0,55,0,1
18005,-90.9090909090909,4,1,0,55,0,1
18163,-71.4285714285714,4,1,0,55,0,1
18242,-71.9279560864502,4,1,0,55,0,1
18321,-72.6709015601615,4,1,0,55,0,1
18400,-73.5588178710652,4,1,0,55,0,1
18479,-74.5673763716005,4,1,0,55,0,1
18557,-75.6718515879951,4,1,0,55,0,1
18636,-76.8968453847403,4,1,0,55,0,1
18715,-78.2285636330715,4,1,0,55,0,1
18794,-79.6689998170227,4,1,0,55,0,1
18873,-81.2219238463513,4,1,0,55,0,1
18952,-82.8926264643014,4,1,0,55,0,1
19031,-84.6878178825664,4,1,0,55,0,1
19110,-86.6156228344047,4,1,0,55,0,1
19189,-88.6856452440909,4,1,0,55,0,1
19268,-90.9090909090909,4,1,0,55,0,1
19426,-66.6666666666667,4,1,0,55,0,1
19505,-66.9940905720205,4,1,0,55,0,1
19584,-67.6692330434362,4,1,0,55,0,1
19663,-68.6114189809983,4,1,0,55,0,1
19742,-69.8016524698371,4,1,0,55,0,1
19821,-71.2390655416853,4,1,0,55,0,1
19900,-72.9334179023325,4,1,0,55,0,1
19979,-74.9029158316517,4,1,0,55,0,1
20058,-77.1738982816249,4,1,0,55,0,1
20137,-79.7815478778854,4,1,0,55,0,1
20216,-82.7714299766288,4,1,0,55,0,1
20295,-86.2019244211619,4,1,0,55,0,1
20374,-90.147797058653,4,1,0,55,0,1
20453,-94.7053637154403,4,1,0,55,0,1
20531,-99.9277391459646,4,1,0,55,0,1
20690,-111.111111111111,4,1,0,55,0,1
20768,-105.315947843531,4,1,0,55,0,1
20847,-100.031756113052,4,1,0,55,0,1
20926,-95.2524947081947,4,1,0,55,0,1
21005,-90.9090909090909,4,1,0,55,0,1
21163,-76.9230769230769,4,1,0,55,0,1
21242,-79.2079207920792,4,1,0,55,0,1
21321,-81.6326530612245,4,1,0,55,0,1
21400,-84.2105263157895,4,1,0,55,0,1
21479,-86.9565217391304,4,1,0,55,0,1
21558,-89.8876404494382,4,1,0,55,0,1
21637,-93.0232558139535,4,1,0,55,0,1
21716,-96.3855421686747,4,1,0,55,0,1
21795,-100,4,1,0,55,0,1
21953,-83.3333333333333,4,1,0,55,0,1
22032,-86.9685256764219,4,1,0,55,0,1
22110,-90.8828620888632,4,1,0,55,0,1
22189,-95.223700120919,4,1,0,55,0,1
22268,-100,4,1,0,55,0,1
22426,-90.9090909090909,4,1,0,55,0,1
22505,-87.9120879120879,4,1,0,55,0,1
22584,-85.1063829787234,4,1,0,55,0,1
22663,-82.4742268041237,4,1,0,55,0,1
22742,-80,4,1,0,55,0,1
22821,-77.6699029126214,4,1,0,55,0,1
22900,-75.4716981132076,4,1,0,55,0,1
22979,-73.3944954128441,4,1,0,55,0,1
23058,-71.4285714285714,4,1,0,55,0,1
23216,-100,4,1,0,55,0,1
23295,-97.2197782861165,4,1,0,55,0,1
23374,-94.5899674713234,4,1,0,55,0,1
23453,-92.0986831138523,4,1,0,55,0,1
23532,-89.7352606789021,4,1,0,55,0,1
23610,-87.5178203706637,4,1,0,55,0,1
23689,-85.3809303044352,4,1,0,55,0,1
23768,-83.3459043596319,4,1,0,55,0,1
23847,-81.4056284072492,4,1,0,55,0,1
23926,-79.5536357091433,4,1,0,55,0,1
24005,-77.7840349148247,4,1,0,55,0,1
24084,-76.0914474590277,4,1,0,55,0,1
24163,-74.4709529586198,4,1,0,55,0,1
24242,-72.9180414412036,4,1,0,55,0,1
24321,-71.4285714285714,4,1,0,55,0,1
24479,-100,4,1,0,55,0,1
24558,-99.6860306769435,4,1,0,55,0,1
24637,-98.7597115128604,4,1,0,55,0,1
24716,-97.2659834762283,4,1,0,55,0,1
24795,-95.2740530475491,4,1,0,55,0,1
24874,-92.8700841973801,4,1,0,55,0,1
24953,-90.1490316839119,4,1,0,55,0,1
25032,-87.2069198800395,4,1,0,55,0,1
25111,-84.1345221990134,4,1,0,55,0,1
25190,-81.012923396535,4,1,0,55,0,1
25269,-77.9110091298815,4,1,0,55,0,1
25348,-74.8846200301559,4,1,0,55,0,1
25427,-71.9769551012659,4,1,0,55,0,1
25506,-69.2197849481554,4,1,0,55,0,1
25584,-66.6666666666667,4,1,0,55,0,1
25742,-76.9230769230769,4,1,0,55,0,1
25821,-78.213476783692,4,1,0,55,0,1
25900,-79.5479087178749,4,1,0,55,0,1
25979,-80.9286655925004,4,1,0,55,0,1
26058,-82.3582022806887,4,1,0,55,0,1
26136,-83.8200713039521,4,1,0,55,0,1
26216,-85.3743336166267,4,1,0,55,0,1
26295,-86.9667873445616,4,1,0,55,0,1
26374,-88.6197770470767,4,1,0,55,0,1
26453,-90.3368214519294,4,1,0,55,0,1
26532,-92.1217173822426,4,1,0,55,0,1
26611,-93.9785677836367,4,1,0,55,0,1
26690,-95.9118132106588,4,1,0,55,0,1
26769,-97.926267281106,4,1,0,55,0,1
26848,-100.027156694125,4,1,0,55,0,1
27005,-76.9230769230769,4,1,0,55,0,1
27006,-76.9337785197551,4,1,0,55,0,1
27085,-77.7887185258124,4,1,0,55,0,1
27163,-78.6516853932584,4,1,0,55,0,1
27242,-79.5454545454545,4,1,0,55,0,1
27321,-80.4597701149425,4,1,0,55,0,1
27400,-81.3953488372093,4,1,0,55,0,1
27479,-82.3529411764706,4,1,0,55,0,1
27558,-83.3333333333333,4,1,0,55,0,1
27637,-84.3373493975904,4,1,0,55,0,1
27716,-85.3658536585366,4,1,0,55,0,1
27795,-86.4197530864197,4,1,0,55,0,1
27874,-87.5,4,1,0,55,0,1
27953,-88.6075949367089,4,1,0,55,0,1
28032,-89.7435897435897,4,1,0,55,0,1
28111,-90.9090909090909,4,1,0,55,0,1
28269,-100,4,1,0,55,0,1
28348,-97.8761061946903,4,1,0,55,0,1
28427,-95.8654762936639,4,1,0,55,0,1
28506,-93.935790725327,4,1,0,55,0,1
28585,-92.0822579302306,4,1,0,55,0,1
28663,-90.3225806451613,4,1,0,55,0,1
28742,-88.6075949367089,4,1,0,55,0,1
28821,-86.9565217391304,4,1,0,55,0,1
28900,-85.3658536585366,4,1,0,55,0,1
28979,-83.8323353293413,4,1,0,55,0,1
29058,-82.3529411764706,4,1,0,55,0,1
29137,-80.9248554913295,4,1,0,55,0,1
29216,-79.5454545454545,4,1,0,55,0,1
29295,-78.2122905027933,4,1,0,55,0,1
29374,-76.9230769230769,4,1,0,55,0,1
29532,-100,4,1,0,55,0,1
29611,-99.6860306769435,4,1,0,55,0,1
29690,-98.7597115128604,4,1,0,55,0,1
29769,-97.2659834762283,4,1,0,55,0,1
29848,-95.2740530475491,4,1,0,55,0,1
29927,-92.8700841973801,4,1,0,55,0,1
30006,-90.1490316839119,4,1,0,55,0,1
30085,-87.2069198800395,4,1,0,55,0,1
30164,-84.1345221990134,4,1,0,55,0,1
30243,-81.012923396535,4,1,0,55,0,1
30322,-77.9110091298815,4,1,0,55,0,1
30401,-74.8846200301559,4,1,0,55,0,1
30479,-72.0128765601752,4,1,0,55,0,1
30557,-69.2875332562264,4,1,0,55,0,1
30636,-66.6982713014414,4,1,0,55,0,1
30717,-55.6036203913217,4,1,0,55,0,1
30795,-55.5920161872668,4,1,0,45,0,0
30952,-57.7185152210924,4,1,0,45,0,0
31110,-60.0141699418586,4,1,0,45,0,0
31269,-62.5,4,1,0,45,0,0
31348,-58.8235294117647,4,1,0,45,0,0
31426,-55.9961574549841,4,1,0,45,0,0
31742,-62.5,4,1,0,45,0,0
31952,-56.9437770302739,4,1,0,45,0,0
32057,-56.393641794067,4,1,0,45,0,0
32058,-60,4,1,0,45,0,0
32215,-56.4940553332958,4,1,0,45,0,0
32373,-56.5948270995857,4,1,0,45,0,0
32531,-56.6959590133342,4,1,0,45,0,0
32689,-45.425330346702,4,1,0,45,0,0
32768,-47.8552201841469,4,1,0,45,0,0
32847,-50.5597607544222,4,1,0,45,0,0
32926,-53.5883070654226,4,1,0,45,0,0
33005,-57.0027931368637,4,1,0,45,0,0
33163,-52.6315789473684,4,1,0,45,0,0
33242,-54.8245614035088,4,1,0,45,0,0
33321,-57.20823798627,4,1,0,45,0,0
33636,-62.522671063479,4,1,0,45,0,0
33847,-56.9437770302739,4,1,0,45,0,0
33952,-59.9696356275304,4,1,0,45,0,0
34268,-71.4285714285714,4,1,0,45,0,0
34347,-66.6666666666667,4,1,0,45,0,0
34426,-62.5,4,1,0,45,0,0
34584,-58.043674594169,4,1,0,45,0,0
34821,-60.6060606060606,4,1,0,45,0,0
34900,-58.2580833090591,4,1,0,45,0,0
35057,-55.5380388112469,4,1,0,45,0,0
35215,-58.4498723906109,4,1,0,45,0,0
35373,-58.5788237493719,4,1,0,45,0,0
35531,-52.6052938238722,4,1,0,45,0,0
35610,-54.7660311958406,4,1,0,45,0,0
35689,-57.1118742092897,4,1,0,45,0,0
35847,-58.9050914773862,4,1,0,45,0,0
36005,-52.6315789473684,4,1,0,45,0,0
36163,-54.6946216955333,4,1,0,45,0,0
36242,-55.7880055788006,4,1,0,45,0,0
36400,-58.1113801452784,4,1,0,45,0,0
36479,-59.3471810089021,4,1,0,45,0,0
36794,-55.5430954659257,4,1,0,45,0,0
37005,-54.520358868185,4,1,0,45,0,0
37110,-59.7924618320611,4,1,0,45,0,0
37111,-58.8235294117647,4,1,0,45,0,0
37426,-71.4285714285714,4,1,0,45,0,0
37584,-65.3637492646578,4,1,0,45,0,0
37742,-52.6315789473684,4,1,0,45,0,0
37821,-56.2319003570726,4,1,0,45,0,0
37900,-60.3609585320215,4,1,0,45,0,0
38057,-55.5266598254073,4,1,0,45,0,0
38136,-57.9060017005307,4,1,0,45,0,0
38215,-60.4983841570814,4,1,0,45,0,0
38296,-69.9419487406298,4,1,0,45,0,0
38689,-55.539354128443,4,1,0,45,0,0
38847,-58.22204297637,4,1,0,45,0,0
39005,-61.1770463722011,4,1,0,45,0,0
39321,-71.4285714285714,4,1,0,45,0,0
39400,-66.1113314822161,4,1,0,45,0,0
39479,-61.53088850603,4,1,0,45,0,0
39636,-61.6499003861574,4,1,0,45,0,0
39637,-71.4285714285714,4,1,0,45,0,0
39715,-66.3101586323656,4,1,0,45,0,0
39794,-61.8232457751833,4,1,0,45,0,0
39952,-52.6060450190843,4,1,0,45,0,0
40110,-56.9732036032386,4,1,0,45,0,0
40268,-62.1310966138552,4,1,0,45,0,0
40584,-55.5555555555556,4,1,0,45,0,0
40742,-60.6060606060606,4,1,0,45,0,0
40901,-12.5,4,1,0,45,0,1
42006,-119.760479041916,4,1,0,45,0,1
42164,-130.081300813008,4,1,0,45,0,0
42321,-142.348754448399,4,1,0,45,0,0
42479,-125,4,1,0,45,0,0
42557,-128.905720966434,4,1,0,45,0,0
42636,-133.118434122804,4,1,0,45,0,0
42794,-121.926071041914,4,1,0,45,0,0
42873,-123.945285886484,4,1,0,45,0,0
42952,-126.032507327471,4,1,0,45,0,0
43031,-128.191229876958,4,1,0,45,0,0
43110,-130.425191639552,4,1,0,45,0,0
43189,-132.738395914015,4,1,0,45,0,0
43268,-135.135135135135,4,1,0,45,0,0
43348,-144.403341670744,4,1,0,45,0,0
43584,-126.582278481013,4,1,0,45,0,0
43663,-128.511991775233,4,1,0,45,0,0
43742,-130.501451828652,4,1,0,45,0,0
43821,-132.553477043395,4,1,0,45,0,0
43900,-134.671065921487,4,1,0,45,0,0
43979,-136.857411684202,4,1,0,45,0,0
44057,-139.086863927932,4,1,0,45,0,0
44136,-141.420180838819,4,1,0,45,0,0
44215,-143.83312080776,4,1,0,45,0,0
44373,-138.859898711371,4,1,0,45,0,0
44531,-143.5955694405,4,1,0,45,0,0
44689,-148.695734061588,4,1,0,45,0,0
44690,-148.698884758364,4,1,0,45,0,0
44847,-138.888888888889,4,1,0,45,0,0
44926,-140.969162995595,4,1,0,45,0,0
45005,-143.112701252236,4,1,0,45,0,0
45084,-145.322434150772,4,1,0,45,0,0
45163,-147.60147601476,4,1,0,45,0,0
45242,-149.953139643861,4,1,0,45,0,0
45321,-142.857142857143,4,1,0,45,0,0
45360,-146.208300559848,4,1,0,45,0,0
45479,-157.48031496063,4,1,0,45,0,0
45636,-166.666666666667,4,1,0,45,0,0
45875,-130.29315960912,4,1,0,45,0,0
46268,-158.730158730159,4,1,0,45,0,0
46347,-163.934426229508,4,1,0,45,0,0
46426,-169.491525423729,4,1,0,45,0,0
46584,-161.290322580645,4,1,0,45,0,0
46663,-167.364016736402,4,1,0,45,0,0
46742,-173.913043478261,4,1,0,45,0,0
46900,-163.934426229508,4,1,0,45,0,0
47057,-178.470574946346,4,1,0,45,0,0
47215,-180.984583643762,4,1,0,45,0,0
47216,-166.666666666667,4,1,0,45,0,0
47294,-174.566346260082,4,1,0,45,0,0
47373,-183.369117391052,4,1,0,45,0,0
47531,-172.320524901406,4,1,0,45,0,0
47610,-180.013489618463,4,1,0,45,0,0
47689,-188.425431231873,4,1,0,45,0,0
47847,-166.666666666667,4,1,0,45,0,0
47886,-172.705908072362,4,1,0,45,0,0
48005,-194.174757281553,4,1,0,45,0,0
48163,-181.818181818182,4,1,0,45,0,0
48202,-185.506320716947,4,1,0,45,0,0
48479,-76.9230769230769,4,1,0,45,0,0
48531,-77.9252953349532,4,1,0,45,0,0
48584,-80.0939675043656,4,1,0,45,0,0
48636,-83.19210363417,4,1,0,45,0,0
48689,-87.4139103145233,4,1,0,45,0,0
48742,-92.9057920162729,4,1,0,45,0,0
48794,-100.040223353162,4,1,0,45,0,0
48873,-96.9118961561464,4,1,0,45,0,0
48952,-93.8813939211665,4,1,0,45,0,0
49031,-90.9456575937839,4,1,0,45,0,0
49110,-76.9230769230769,4,1,0,45,0,0
49163,-77.9304575444619,4,1,0,45,0,0
49215,-80.0603463991961,4,1,0,45,0,0
49268,-83.2265884758613,4,1,0,45,0,0
49321,-87.4745640845461,4,1,0,45,0,0
49373,-92.8860409500267,4,1,0,45,0,0
49426,-100,4,1,0,45,0,0
49505,-96.8729306151464,4,1,0,45,0,0
49584,-93.8436468596697,4,1,0,45,0,0
49663,-90.9090909090909,4,1,0,45,0,0
49742,-76.9230769230769,4,1,0,45,0,0
49794,-77.9252953349532,4,1,0,45,0,0
49847,-80.0939675043656,4,1,0,45,0,0
49900,-83.2613880912502,4,1,0,45,0,0
49952,-87.4139103145233,4,1,0,45,0,0
50005,-92.9057920162729,4,1,0,45,0,0
50057,-100.040223353162,4,1,0,45,0,0
50136,-96.9118961561464,4,1,0,45,0,0
50215,-93.8813939211665,4,1,0,45,0,0
50294,-90.9456575937839,4,1,0,45,0,0
50373,-83.280624077588,4,1,0,45,0,0
50413,-85.4423534501406,4,1,0,45,0,0
50612,-111.111111111111,4,1,0,45,0,0
50927,-83.3333333333333,4,1,0,45,0,0
51006,-83.3333333333333,4,1,0,55,0,1
51243,-111.111111111111,4,1,0,55,0,1
51636,-100.021123785382,4,1,0,55,0,1
51794,-83.2894921344145,4,1,0,55,0,1
51873,-86.9012339975228,4,1,0,55,0,1
51952,-90.8404117945351,4,1,0,55,0,1
52110,-86.9605142332415,4,1,0,55,0,1
52268,-83.3333333333333,4,1,0,55,0,1
52584,-76.9230769230769,4,1,0,55,0,1
52742,-84.7457627118644,4,1,0,55,0,1
52900,-74.0740740740741,4,1,0,55,0,1
53136,-75.2378086178719,4,1,0,55,0,1
53215,-71.4788671766323,4,1,0,55,0,1
53373,-74.1146354910676,4,1,0,55,0,1
53532,-66.6243654822335,4,1,0,55,0,1
53689,-74.0479548660085,4,1,0,55,0,1
53768,-78.4167289021658,4,1,0,55,0,1
53847,-83.3333333333333,4,1,0,55,0,1
54005,-90.9090909090909,4,1,0,55,0,1
54084,-87.719298245614,4,1,0,55,0,1
54163,-84.7457627118644,4,1,0,55,0,1
54242,-81.9672131147541,4,1,0,55,0,1
54321,-79.3650793650794,4,1,0,55,0,1
54400,-76.9230769230769,4,1,0,55,0,1
54479,-66.6666666666667,4,1,0,55,0,1
54557,-70.1287172658677,4,1,0,55,0,1
54636,-74.0220192082455,4,1,0,55,0,1
54715,-78.3730158730159,4,1,0,55,0,1
54794,-71.4608774310267,4,1,0,55,0,1
54795,-83.2674571805007,4,1,0,55,0,1
54875,-90.4977375565611,4,1,0,55,0,1
55110,-71.3962264150943,4,1,0,55,0,1
55189,-74.0450845335003,4,1,0,55,0,1
55268,-76.8980653552268,4,1,0,55,0,1
55347,-79.9797091646939,4,1,0,55,0,1
55426,-71.4285714285714,4,1,0,55,0,1
55505,-76.9230769230769,4,1,0,55,0,1
55584,-83.3333333333333,4,1,0,55,0,1
55743,-136.986301369863,4,1,0,55,0,1
55980,-66.6666666666667,4,1,0,55,0,1
56217,-100,4,1,0,55,0,1
56688,-86.8686868686869,4,1,0,55,0,1
56846,-95.1518809092738,4,1,0,55,0,1
56925,-99.9155048584706,4,1,0,55,0,1
57004,-105.181231932399,4,1,0,55,0,1
57162,-97.984496124031,4,1,0,55,0,1
57322,-107.461062368224,4,1,0,55,0,1
57636,-83.3333333333333,4,1,0,55,0,1
57794,-91.5464395387914,4,1,0,55,0,1
57952,-80.0101278642866,4,1,0,55,0,1
58188,-95.3389830508474,4,1,0,55,0,1
58267,-90.9878682842288,4,1,0,55,0,1
58425,-83.3774483853891,4,1,0,55,0,1
58584,-62.5,4,1,0,55,0,1
58663,-62.8455420352828,4,1,0,55,0,1
58742,-63.5593856713506,4,1,0,55,0,1
58821,-64.5586125029518,4,1,0,55,0,1
58900,-65.8259807815283,4,1,0,55,0,1
58979,-67.3641535325086,4,1,0,55,0,1
59057,-69.1630831806623,4,1,0,55,0,1
59136,-71.2938177459969,4,1,0,55,0,1
59215,-73.7707935429637,4,1,0,55,0,1
59294,-76.6416972809918,4,1,0,55,0,1
59373,-79.9689943464469,4,1,0,55,0,1
59452,-83.8341662049299,4,1,0,55,0,1
59531,-88.3440300940479,4,1,0,55,0,1
59610,-93.6401760326972,4,1,0,55,0,1
59689,-99.9132995052611,4,1,0,55,0,1
59847,-105.263157894737,4,1,0,55,0,1
59926,-104.105060785912,4,1,0,55,0,1
60005,-100.820044317753,4,1,0,55,0,1
60084,-95.9056245780256,4,1,0,55,0,1
60163,-90.0016071305587,4,1,0,55,0,1
60242,-83.7214960609562,4,1,0,55,0,1
60321,-77.5479877064543,4,1,0,55,0,1
60400,-71.8029559958803,4,1,0,55,0,1
60479,-66.6666666666667,4,1,0,55,0,1
60795,-111.111111111111,4,1,0,45,0,0
61032,-909.090909090909,4,1,0,45,0,0
61112,-10,4,1,0,45,0,0

[HitObjects]
256,192,480,12,0,1426,0:0:0:0:
192,256,1744,5,0,0:0:0:0:
160,256,2058,1,0,0:0:0:0:
160,256,3007,1,0,0:0:0:0:
160,256,3322,1,2,0:0:0:0:
160,192,4270,1,2,0:0:0:0:
160,192,4585,1,0,0:0:0:0:
160,160,5533,1,2,0:0:0:0:
160,192,5848,1,2,0:0:0:0:
160,192,6796,1,0,0:0:0:0:
160,192,7111,1,0,0:0:0:0:
192,128,8059,1,0,0:0:0:0:
192,128,8374,1,2,0:0:0:0:
160,128,9323,1,2,0:0:0:0:
160,128,9637,1,0,0:0:0:0:
192,128,10585,5,4,0:0:0:0:
160,96,10743,1,2,0:0:0:0:
192,96,10822,1,2,0:0:0:0:
160,160,10901,1,0,0:0:0:0:
160,96,11058,1,2,0:0:0:0:
160,192,11137,1,2,0:0:0:0:
160,160,11216,1,0,0:0:0:0:
192,160,11295,1,0,0:0:0:0:
192,160,11374,1,2,0:0:0:0:
192,160,11453,1,0,0:0:0:0:
192,160,11532,1,0,0:0:0:0:
160,96,11611,1,2,0:0:0:0:
160,96,11690,1,2,0:0:0:0:
128,96,11848,1,2,0:0:0:0:
192,64,11927,1,0,0:0:0:0:
128,96,12006,1,2,0:0:0:0:
128,96,12085,1,2,0:0:0:0:
128,96,12164,1,0,0:0:0:0:
192,96,12322,1,2,0:0:0:0:
192,96,12401,1,0,0:0:0:0:
192,96,12480,1,0,0:0:0:0:
192,64,12558,1,2,0:0:0:0:
192,96,12637,1,0,0:0:0:0:
192,64,12716,1,2,0:0:0:0:
192,96,12795,1,0,0:0:0:0:
192,64,12874,1,0,0:0:0:0:
160,128,12953,1,2,0:0:0:0:
160,160,13111,1,2,0:0:0:0:
224,96,13190,1,0,0:0:0:0:
192,96,13269,1,2,0:0:0:0:
160,96,13348,1,2,0:0:0:0:
160,96,13427,1,0,0:0:0:0:
160,128,13585,1,2,0:0:0:0:
128,128,13664,1,0,0:0:0:0:
160,128,13743,1,2,0:0:0:0:
128,128,13822,1,2,0:0:0:0:
160,128,13901,1,0,0:0:0:0:
128,128,13980,1,2,0:0:0:0:
160,128,14058,1,2,0:0:0:0:
128,128,14137,1,0,0:0:0:0:
160,128,14216,1,2,0:0:0:0:
224,64,14374,1,2,0:0:0:0:
160,128,14453,1,2,0:0:0:0:
160,128,14532,1,0,0:0:0:0:
192,96,14611,1,2,0:0:0:0:
160,128,14690,1,0,0:0:0:0:
192,96,14769,1,0,0:0:0:0:
192,64,14848,1,2,0:0:0:0:
192,96,14927,1,2,0:0:0:0:
192,64,15006,1,0,0:0:0:0:
192,64,15085,1,0,0:0:0:0:
192,64,15164,1,2,0:0:0:0:
160,64,15243,1,0,0:0:0:0:
192,64,15322,1,2,0:0:0:0:
192,64,15401,1,2,0:0:0:0:
224,96,15558,1,2,0:0:0:0:
128,160,15637,1,0,0:0:0:0:
288,96,15716,1,2,0:0:0:0:
128,160,15795,1,0,0:0:0:0:
160,160,15874,1,0,0:0:0:0:
128,160,15953,1,2,0:0:0:0:
224,160,16111,1,0,0:0:0:0:
192,96,16190,1,2,0:0:0:0:
224,160,16269,1,0,0:0:0:0:
192,96,16348,1,0,0:0:0:0:
192,96,16427,1,2,0:0:0:0:
192,96,16506,1,0,0:0:0:0:
192,96,16585,1,0,0:0:0:0:
160,32,16664,1,2,0:0:0:0:
160,96,16743,1,0,0:0:0:0:
192,160,16901,1,2,0:0:0:0:
224,128,16980,1,0,0:0:0:0:
192,160,17058,1,2,0:0:0:0:
192,128,17137,1,2,0:0:0:0:
192,160,17216,1,0,0:0:0:0:
192,160,17374,1,0,0:0:0:0:
192,160,17453,1,2,0:0:0:0:
192,160,17532,1,2,0:0:0:0:
192,160,17611,1,0,0:0:0:0:
192,160,17690,1,2,0:0:0:0:
160,160,17769,1,0,0:0:0:0:
192,160,17848,1,2,0:0:0:0:
160,160,17927,1,2,0:0:0:0:
192,160,18006,1,0,0:0:0:0:
192,64,18164,1,2,0:0:0:0:
192,64,18243,1,0,0:0:0:0:
192,96,18322,1,2,0:0:0:0:
160,96,18401,1,2,0:0:0:0:
160,96,18480,1,0,0:0:0:0:
192,96,18558,1,0,0:0:0:0:
192,96,18637,1,2,0:0:0:0:
192,64,18716,1,0,0:0:0:0:
192,64,18795,1,2,0:0:0:0:
192,96,18874,1,2,0:0:0:0:
192,96,18953,1,2,0:0:0:0:
192,96,19032,1,0,0:0:0:0:
192,96,19111,1,2,0:0:0:0:
192,96,19190,1,2,0:0:0:0:
192,96,19269,1,0,0:0:0:0:
224,64,19427,1,2,0:0:0:0:
160,128,19506,1,2,0:0:0:0:
160,128,19585,1,0,0:0:0:0:
192,96,19664,1,2,0:0:0:0:
160,128,19743,1,0,0:0:0:0:
192,96,19822,1,0,0:0:0:0:
192,64,19901,1,2,0:0:0:0:
192,96,19980,1,0,0:0:0:0:
192,64,20059,1,0,0:0:0:0:
192,64,20138,1,2,0:0:0:0:
192,64,20217,1,2,0:0:0:0:
160,64,20296,1,0,0:0:0:0:
192,64,20375,1,2,0:0:0:0:
192,64,20454,1,2,0:0:0:0:
224,128,20532,1,2,0:0:0:0:
128,160,20690,1,0,0:0:0:0:
288,96,20769,1,2,0:0:0:0:
128,160,20848,1,0,0:0:0:0:
160,160,20927,1,0,0:0:0:0:
128,160,21006,1,2,0:0:0:0:
224,160,21164,1,0,0:0:0:0:
192,96,21243,1,2,0:0:0:0:
224,160,21322,1,0,0:0:0:0:
192,96,21401,1,0,0:0:0:0:
192,96,21480,1,2,0:0:0:0:
192,96,21559,1,0,0:0:0:0:
192,96,21638,1,0,0:0:0:0:
160,32,21717,1,2,0:0:0:0:
160,96,21796,1,0,0:0:0:0:
192,160,21954,1,2,0:0:0:0:
224,128,22033,1,0,0:0:0:0:
192,160,22111,1,2,0:0:0:0:
192,128,22190,1,2,0:0:0:0:
192,160,22269,1,0,0:0:0:0:
192,160,22427,1,0,0:0:0:0:
192,160,22506,1,2,0:0:0:0:
192,160,22585,1,2,0:0:0:0:
192,160,22664,1,0,0:0:0:0:
192,160,22743,1,2,0:0:0:0:
160,160,22822,1,0,0:0:0:0:
192,160,22901,1,2,0:0:0:0:
160,160,22980,1,2,0:0:0:0:
192,160,23059,1,0,0:0:0:0:
192,64,23217,1,2,0:0:0:0:
192,64,23296,1,0,0:0:0:0:
192,96,23375,1,2,0:0:0:0:
160,96,23454,1,2,0:0:0:0:
160,96,23533,1,0,0:0:0:0:
192,96,23611,1,0,0:0:0:0:
192,96,23690,1,2,0:0:0:0:
192,64,23769,1,0,0:0:0:0:
192,64,23848,1,2,0:0:0:0:
192,96,23927,1,2,0:0:0:0:
192,96,24006,1,2,0:0:0:0:
192,96,24085,1,0,0:0:0:0:
192,96,24164,1,2,0:0:0:0:
192,96,24243,1,2,0:0:0:0:
192,96,24322,1,0,0:0:0:0:
224,64,24480,1,2,0:0:0:0:
160,128,24559,1,2,0:0:0:0:
160,128,24638,1,0,0:0:0:0:
192,96,24717,1,2,0:0:0:0:
160,128,24796,1,0,0:0:0:0:
192,96,24875,1,0,0:0:0:0:
192,64,24954,1,2,0:0:0:0:
192,96,25033,1,2,0:0:0:0:
192,64,25112,1,0,0:0:0:0:
192,64,25191,1,2,0:0:0:0:
192,64,25270,1,2,0:0:0:0:
160,64,25349,1,0,0:0:0:0:
192,64,25428,1,2,0:0:0:0:
192,64,25507,1,2,0:0:0:0:
224,128,25585,1,2,0:0:0:0:
128,160,25743,1,0,0:0:0:0:
288,96,25822,1,2,0:0:0:0:
128,160,25901,1,0,0:0:0:0:
160,160,25980,1,0,0:0:0:0:
128,160,26059,1,2,0:0:0:0:
224,96,26137,1,0,0:0:0:0:
224,160,26217,1,0,0:0:0:0:
192,96,26296,1,2,0:0:0:0:
224,160,26375,1,0,0:0:0:0:
192,96,26454,1,0,0:0:0:0:
192,96,26533,1,2,0:0:0:0:
192,96,26612,1,0,0:0:0:0:
192,96,26691,1,0,0:0:0:0:
160,32,26770,1,2,0:0:0:0:
160,96,26849,1,0,0:0:0:0:
192,160,27007,1,2,0:0:0:0:
224,128,27086,1,0,0:0:0:0:
192,160,27164,1,2,0:0:0:0:
192,128,27243,1,2,0:0:0:0:
192,160,27322,1,0,0:0:0:0:
192,96,27401,1,2,0:0:0:0:
192,160,27480,1,0,0:0:0:0:
192,160,27559,1,2,0:0:0:0:
192,160,27638,1,2,0:0:0:0:
192,160,27717,1,0,0:0:0:0:
192,160,27796,1,2,0:0:0:0:
160,160,27875,1,0,0:0:0:0:
192,160,27954,1,2,0:0:0:0:
160,160,28033,1,2,0:0:0:0:
192,160,28112,1,0,0:0:0:0:
192,64,28270,1,2,0:0:0:0:
192,64,28349,1,0,0:0:0:0:
192,96,28428,1,2,0:0:0:0:
160,96,28507,1,2,0:0:0:0:
160,96,28586,1,0,0:0:0:0:
192,96,28664,1,0,0:0:0:0:
192,96,28743,1,2,0:0:0:0:
192,64,28822,1,0,0:0:0:0:
192,64,28901,1,2,0:0:0:0:
192,96,28980,1,2,0:0:0:0:
192,96,29059,1,2,0:0:0:0:
192,96,29138,1,0,0:0:0:0:
192,96,29217,1,2,0:0:0:0:
192,96,29296,1,2,0:0:0:0:
192,96,29375,1,0,0:0:0:0:
224,64,29533,1,2,0:0:0:0:
160,128,29612,1,2,0:0:0:0:
160,128,29691,1,0,0:0:0:0:
192,96,29770,1,2,0:0:0:0:
160,128,29849,1,0,0:0:0:0:
192,96,29928,1,0,0:0:0:0:
192,64,30007,1,2,0:0:0:0:
192,96,30086,1,2,0:0:0:0:
192,64,30165,1,0,0:0:0:0:
192,64,30244,1,2,0:0:0:0:
192,64,30323,1,2,0:0:0:0:
160,64,30402,1,0,0:0:0:0:
192,64,30480,1,2,0:0:0:0:
192,64,30558,1,2,0:0:0:0:
224,128,30637,1,2,0:0:0:0:
160,128,30795,1,0,0:0:0:0:
192,160,30953,1,0,0:0:0:0:
192,160,31111,1,2,0:0:0:0:
192,160,31269,1,0,0:0:0:0:
160,128,31348,1,2,0:0:0:0:
192,160,31427,1,2,0:0:0:0:
192,160,31743,1,0,0:0:0:0:
224,160,31953,1,2,0:0:0:0:
160,224,32058,1,0,0:0:0:0:
160,224,32216,1,0,0:0:0:0:
160,224,32374,1,2,0:0:0:0:
160,224,32532,1,2,0:0:0:0:
160,224,32690,1,0,0:0:0:0:
128,192,32769,1,0,0:0:0:0:
128,224,32848,1,0,0:0:0:0:
192,224,32927,1,0,0:0:0:0:
128,192,33006,1,2,0:0:0:0:
128,192,33164,1,2,0:0:0:0:
160,192,33243,1,2,0:0:0:0:
160,192,33322,1,0,0:0:0:0:
160,224,33637,1,2,0:0:0:0:
160,224,33848,1,2,0:0:0:0:
192,128,33953,1,0,0:0:0:0:
160,160,34269,1,0,0:0:0:0:
160,160,34348,1,0,0:0:0:0:
160,160,34427,1,0,0:0:0:0:
160,160,34585,1,2,0:0:0:0:
160,160,34822,1,0,0:0:0:0:
160,160,34901,1,2,0:0:0:0:
192,128,35058,1,2,0:0:0:0:
192,128,35216,1,0,0:0:0:0:
128,128,35374,1,0,0:0:0:0:
192,128,35532,1,2,0:0:0:0:
160,128,35611,1,2,0:0:0:0:
160,128,35690,1,2,0:0:0:0:
192,96,35848,1,0,0:0:0:0:
192,128,36006,1,2,0:0:0:0:
192,128,36164,1,0,0:0:0:0:
224,192,36243,1,0,0:0:0:0:
256,160,36401,1,0,0:0:0:0:
192,128,36480,1,2,0:0:0:0:
224,160,36795,1,2,0:0:0:0:
192,160,37006,1,2,0:0:0:0:
192,160,37111,1,0,0:0:0:0:
192,160,37427,1,2,0:0:0:0:
192,160,37585,1,2,0:0:0:0:
192,160,37743,1,0,0:0:0:0:
192,160,37822,1,2,0:0:0:0:
192,160,37901,1,0,0:0:0:0:
192,160,38058,1,2,0:0:0:0:
192,128,38137,1,0,0:0:0:0:
160,64,38216,1,2,0:0:0:0:
192,128,38374,1,0,0:0:0:0:
192,256,38690,1,0,0:0:0:0:
192,256,38848,1,2,0:0:0:0:
192,256,39006,1,0,0:0:0:0:
160,224,39322,1,0,0:0:0:0:
160,192,39401,1,2,0:0:0:0:
160,192,39480,1,0,0:0:0:0:
160,224,39637,1,2,0:0:0:0:
160,192,39716,1,0,0:0:0:0:
160,192,39795,1,2,0:0:0:0:
160,192,39953,1,0,0:0:0:0:
224,96,40111,1,2,0:0:0:0:
160,128,40269,1,0,0:0:0:0:
160,128,40585,1,0,0:0:0:0:
192,128,40743,1,2,0:0:0:0:
256,192,40902,12,0,41848,0:0:0:0:
192,160,42006,5,0,0:0:0:0:
192,160,42164,1,2,0:0:0:0:
192,192,42322,1,2,0:0:0:0:
192,192,42480,1,0,0:0:0:0:
160,128,42558,1,0,0:0:0:0:
192,160,42637,1,0,0:0:0:0:
160,192,42795,1,2,0:0:0:0:
128,160,42874,1,0,0:0:0:0:
192,192,42953,1,2,0:0:0:0:
128,160,43032,1,2,0:0:0:0:
192,192,43111,1,0,0:0:0:0:
160,96,43190,1,0,0:0:0:0:
192,192,43269,1,2,0:0:0:0:
192,192,43427,1,2,0:0:0:0:
192,128,43585,1,0,0:0:0:0:
224,96,43664,1,2,0:0:0:0:
192,224,43743,1,2,0:0:0:0:
192,224,43822,1,0,0:0:0:0:
160,224,43901,1,2,0:0:0:0:
160,224,43980,1,0,0:0:0:0:
224,192,44058,1,2,0:0:0:0:
192,96,44137,1,2,0:0:0:0:
192,128,44216,1,0,0:0:0:0:
192,128,44374,1,2,0:0:0:0:
192,128,44532,1,0,0:0:0:0:
192,128,44690,1,2,0:0:0:0:
192,96,44848,1,0,0:0:0:0:
192,128,44927,1,2,0:0:0:0:
192,128,45006,1,0,0:0:0:0:
160,160,45085,1,2,0:0:0:0:
160,160,45164,1,2,0:0:0:0:
160,160,45243,1,0,0:0:0:0:
160,160,45322,1,2,0:0:0:0:
192,64,45361,1,2,0:0:0:0:
160,224,45480,1,0,0:0:0:0:
256,192,45637,12,0,45874,0:0:0:0:
160,224,45953,5,6,0:0:0:0:
192,224,46269,1,2,0:0:0:0:
160,128,46348,1,0,0:0:0:0:
160,128,46427,1,2,0:0:0:0:
192,224,46585,1,0,0:0:0:0:
160,160,46664,1,2,0:0:0:0:
192,224,46743,1,0,0:0:0:0:
128,160,46901,1,2,0:0:0:0:
192,224,47058,1,0,0:0:0:0:
192,224,47216,1,2,0:0:0:0:
160,96,47295,1,0,0:0:0:0:
192,224,47374,1,0,0:0:0:0:
192,224,47532,1,2,0:0:0:0:
160,96,47611,1,2,0:0:0:0:
192,224,47690,1,0,0:0:0:0:
192,224,47848,1,2,0:0:0:0:
192,192,47887,1,2,0:0:0:0:
192,192,48006,1,0,0:0:0:0:
160,192,48164,1,2,0:0:0:0:
160,192,48203,1,2,0:0:0:0:
160,192,48480,1,2,0:0:0:0:
256,192,48532,1,2,0:0:0:0:
256,192,48585,1,2,0:0:0:0:
256,192,48637,1,2,0:0:0:0:
256,192,48690,1,2,0:0:0:0:
128,128,48743,1,2,0:0:0:0:
160,128,48795,1,0,0:0:0:0:
192,128,48874,1,0,0:0:0:0:
192,128,48953,1,0,0:0:0:0:
192,128,49032,1,0,0:0:0:0:
192,128,49111,1,2,0:0:0:0:
256,128,49164,1,2,0:0:0:0:
256,128,49216,1,2,0:0:0:0:
256,128,49269,1,2,0:0:0:0:
256,128,49322,1,2,0:0:0:0:
224,128,49374,1,2,0:0:0:0:
224,128,49427,1,0,0:0:0:0:
224,128,49506,1,0,0:0:0:0:
224,128,49585,1,0,0:0:0:0:
224,128,49664,1,0,0:0:0:0:
224,128,49743,1,8,0:0:0:0:
224,128,49795,1,8,0:0:0:0:
224,96,49848,1,8,0:0:0:0:
224,96,49901,1,8,0:0:0:0:
224,96,49953,1,8,0:0:0:0:
224,96,50006,1,8,0:0:0:0:
224,96,50058,1,0,0:0:0:0:
160,128,50137,1,0,0:0:0:0:
192,128,50216,1,0,0:0:0:0:
160,160,50295,1,0,0:0:0:0:
224,160,50374,1,2,0:0:0:0:
192,128,50414,1,2,0:0:0:0:
224,192,50690,1,0,0:0:0:0:
192,160,51006,1,6,0:0:0:0:
192,160,51322,1,0,0:0:0:0:
192,160,51637,1,2,0:0:0:0:
192,160,51795,1,0,0:0:0:0:
160,128,51874,1,2,0:0:0:0:
160,160,51953,1,0,0:0:0:0:
192,96,52111,1,2,0:0:0:0:
192,96,52269,1,0,0:0:0:0:
160,128,52585,1,2,0:0:0:0:
128,192,52743,1,0,0:0:0:0:
128,224,52901,1,2,0:0:0:0:
192,128,53137,1,0,0:0:0:0:
128,224,53216,1,2,0:0:0:0:
160,128,53374,1,0,0:0:0:0:
128,224,53532,1,2,0:0:0:0:
192,128,53690,1,0,0:0:0:0:
192,128,53769,1,2,0:0:0:0:
192,96,53848,1,0,0:0:0:0:
192,128,54006,1,0,0:0:0:0:
192,96,54085,1,2,0:0:0:0:
192,96,54164,1,0,0:0:0:0:
160,128,54243,1,2,0:0:0:0:
160,160,54322,1,2,0:0:0:0:
128,160,54401,1,0,0:0:0:0:
160,64,54480,1,2,0:0:0:0:
160,64,54558,1,2,0:0:0:0:
160,64,54637,1,0,0:0:0:0:
192,96,54716,1,2,0:0:0:0:
192,96,54795,1,0,0:0:0:0:
160,128,54953,1,2,0:0:0:0:
160,128,55111,1,0,0:0:0:0:
160,160,55190,1,2,0:0:0:0:
160,160,55269,1,2,0:0:0:0:
192,128,55348,1,0,0:0:0:0:
160,96,55427,1,2,0:0:0:0:
160,128,55506,1,2,0:0:0:0:
160,128,55585,1,0,0:0:0:0:
256,192,55743,12,0,55901,0:0:0:0:
192,160,56058,5,6,0:0:0:0:
192,160,56374,1,0,0:0:0:0:
192,160,56689,1,2,0:0:0:0:
192,160,56848,1,0,0:0:0:0:
160,128,56927,1,2,0:0:0:0:
160,160,57006,1,0,0:0:0:0:
192,96,57164,1,2,0:0:0:0:
192,96,57321,1,0,0:0:0:0:
160,128,57637,1,2,0:0:0:0:
128,192,57795,1,0,0:0:0:0:
128,224,57953,1,2,0:0:0:0:
192,128,58189,1,0,0:0:0:0:
128,224,58268,1,2,0:0:0:0:
160,128,58426,1,0,0:0:0:0:
192,160,58585,1,2,0:0:0:0:
224,128,58664,1,0,0:0:0:0:
160,160,58743,1,0,0:0:0:0:
160,160,58822,1,2,0:0:0:0:
160,160,58901,1,0,0:0:0:0:
160,128,58980,1,0,0:0:0:0:
192,160,59058,1,2,0:0:0:0:
192,96,59137,1,0,0:0:0:0:
160,160,59216,1,2,0:0:0:0:
192,128,59295,1,0,0:0:0:0:
192,96,59374,1,0,0:0:0:0:
192,96,59453,1,2,0:0:0:0:
192,96,59532,1,0,0:0:0:0:
192,128,59611,1,0,0:0:0:0:
192,128,59690,1,2,0:0:0:0:
160,96,59848,1,2,0:0:0:0:
192,128,59927,1,0,0:0:0:0:
192,128,60006,1,2,0:0:0:0:
192,128,60085,1,2,0:0:0:0:
192,128,60164,1,0,0:0:0:0:
192,96,60243,1,2,0:0:0:0:
192,128,60322,1,2,0:0:0:0:
192,96,60401,1,0,0:0:0:0:
192,96,60480,1,2,0:0:0:0:
160,128,60795,1,0,0:0:0:0:
192,192,61112,5,2,0:0:0:0:
