osu file format v14

[General]
AudioFilename: audio.mp3
AudioLeadIn: 0
PreviewTime: 49514
Countdown: 1
SampleSet: Normal
StackLeniency: 0.7
Mode: 1
LetterboxInBreaks: 0
WidescreenStoryboard: 0

[Editor]
DistanceSpacing: 0.1
BeatDivisor: 4
GridSize: 8
TimelineZoom: 3.799999

[Metadata]
Title:Stressed Out
TitleUnicode:Stressed Out
Artist:Twenty One Pilots
ArtistUnicode:Twenty One Pilots
Creator:reeko66
Version:Stressed Oni
Source:
Tags:
BeatmapID:1248593
BeatmapSetID:589904

[Difficulty]
HPDrainRate:8
CircleSize:2
OverallDifficulty:8
ApproachRate:7
SliderMultiplier:3.6
SliderTickRate:1

[Events]
//Background and Video events
0,0,"21p-864x474.jpg",0,0
//Break Periods
//Storyboard Layer 0 (Background)
//Storyboard Layer 1 (Fail)
//Storyboard Layer 2 (Pass)
//Storyboard Layer 3 (Foreground)
//Storyboard Sound Samples

[TimingPoints]
500,352.941176470588,4,1,0,100,1,0
500,-133.333333333333,4,1,0,100,0,0
40029,-222.222222222221,4,1,0,100,0,0
45676,-133.333333333333,4,1,0,100,0,0
49911,-125,4,1,0,100,0,0
50617,-100,4,1,0,100,0,0
51323,-83.3333333333333,4,1,0,100,0,1
61205,-100,4,1,0,100,0,0
62617,-133.333333333333,4,1,0,100,0,0

[HitObjects]
32,192,323,5,0,0:0:0:0:
32,192,412,1,0,0:0:0:0:
32,192,500,1,4,0:0:0:0:
480,192,853,1,8,0:0:0:0:
32,192,1029,1,0,0:0:0:0:
32,192,1118,1,0,0:0:0:0:
32,192,1206,1,0,0:0:0:0:
480,192,1559,1,8,0:0:0:0:
32,192,1646,1,0,0:0:0:0:
32,192,1735,1,0,0:0:0:0:
32,192,1912,1,0,0:0:0:0:
480,192,2265,1,8,0:0:0:0:
32,192,2441,1,0,0:0:0:0:
32,192,2529,1,0,0:0:0:0:
480,192,2618,1,8,0:0:0:0:
32,192,2794,1,0,0:0:0:0:
480,192,2971,1,8,0:0:0:0:
32,192,3147,1,0,0:0:0:0:
32,192,3323,1,4,0:0:0:0:
480,192,3676,1,8,0:0:0:0:
32,192,3853,1,0,0:0:0:0:
32,192,4029,1,0,0:0:0:0:
480,192,4382,1,8,0:0:0:0:
32,192,4559,1,0,0:0:0:0:
32,192,4647,1,0,0:0:0:0:
32,192,4735,1,0,0:0:0:0:
32,192,4912,1,0,0:0:0:0:
480,192,5088,1,8,0:0:0:0:
480,192,5265,1,8,0:0:0:0:
480,192,5441,1,8,0:0:0:0:
32,192,5618,1,0,0:0:0:0:
480,192,5794,1,8,0:0:0:0:
32,192,5970,1,4,0:0:0:0:
32,192,6059,1,4,0:0:0:0:
32,192,6147,1,4,0:0:0:0:
32,192,6323,1,0,0:0:0:0:
32,192,6411,1,0,0:0:0:0:
480,192,6499,1,8,0:0:0:0:
32,192,6676,1,0,0:0:0:0:
32,192,6852,1,0,0:0:0:0:
480,192,7205,1,8,0:0:0:0:
32,192,7382,1,0,0:0:0:0:
32,192,7470,1,0,0:0:0:0:
32,192,7558,1,0,0:0:0:0:
32,192,7735,1,0,0:0:0:0:
472,192,7911,1,8,0:0:0:0:
32,192,8088,1,0,0:0:0:0:
32,192,8176,1,0,0:0:0:0:
472,192,8264,1,14,0:0:0:0:
32,192,8441,1,4,0:0:0:0:
32,192,8529,1,4,0:0:0:0:
472,192,8617,1,14,0:0:0:0:
472,192,8793,1,14,0:0:0:0:
472,192,8970,1,14,0:0:0:0:
32,192,9147,1,0,0:0:0:0:
472,192,9323,1,8,0:0:0:0:
32,192,9499,1,0,0:0:0:0:
472,192,9676,1,8,0:0:0:0:
32,192,9852,1,0,0:0:0:0:
472,192,10029,1,8,0:0:0:0:
472,192,10117,1,8,0:0:0:0:
472,192,10205,1,8,0:0:0:0:
472,192,10294,1,8,0:0:0:0:
472,192,10382,1,8,0:0:0:0:
32,192,10558,1,0,0:0:0:0:
472,192,10735,1,8,0:0:0:0:
48,192,10911,1,0,0:0:0:0:
48,192,10999,1,0,0:0:0:0:
472,192,11088,1,8,0:0:0:0:
48,192,11264,1,0,0:0:0:0:
48,192,11352,1,0,0:0:0:0:
464,192,11441,1,8,0:0:0:0:
464,192,11617,1,8,0:0:0:0:
464,192,11794,1,14,0:0:0:0:
48,192,11970,1,0,0:0:0:0:
32,192,12058,1,0,0:0:0:0:
32,192,12146,1,0,0:0:0:0:
32,192,12323,1,0,0:0:0:0:
40,192,12411,1,0,0:0:0:0:
464,192,12499,1,8,0:0:0:0:
40,192,12676,1,0,0:0:0:0:
48,192,12852,1,0,0:0:0:0:
40,192,13029,1,0,0:0:0:0:
464,192,13205,1,8,0:0:0:0:
40,192,13558,1,0,0:0:0:0:
40,192,13735,1,0,0:0:0:0:
40,192,13911,1,0,0:0:0:0:
40,192,14088,1,8,0:0:0:0:
40,192,14264,1,0,0:0:0:0:
40,192,14441,1,8,0:0:0:0:
472,192,14617,1,0,0:0:0:0:
40,192,14794,1,0,0:0:0:0:
472,192,14970,1,8,0:0:0:0:
472,192,15058,1,8,0:0:0:0:
472,192,15146,1,8,0:0:0:0:
472,192,15235,1,8,0:0:0:0:
40,192,15323,1,0,0:0:0:0:
40,192,15499,5,0,0:0:0:0:
40,192,15588,1,0,0:0:0:0:
40,192,15677,1,0,0:0:0:0:
40,192,15852,1,0,0:0:0:0:
40,192,15941,1,0,0:0:0:0:
472,192,16029,1,8,0:0:0:0:
40,192,16205,1,0,0:0:0:0:
40,192,16294,1,0,0:0:0:0:
64,184,16382,2,0,L|352:184,2,270.000010299683
48,192,17441,1,4,0:0:0:0:
48,192,17617,1,0,0:0:0:0:
48,192,17705,1,0,0:0:0:0:
472,192,17794,1,8,0:0:0:0:
464,200,17970,1,8,0:0:0:0:
48,192,18146,1,0,0:0:0:0:
48,192,18235,1,0,0:0:0:0:
48,184,18323,1,0,0:0:0:0:
480,200,18499,1,8,0:0:0:0:
56,192,18588,1,0,0:0:0:0:
56,192,18676,1,0,0:0:0:0:
56,192,18764,1,0,0:0:0:0:
464,200,18852,1,8,0:0:0:0:
48,192,19029,1,0,0:0:0:0:
56,192,19117,1,0,0:0:0:0:
448,192,19205,1,8,0:0:0:0:
48,192,19382,1,0,0:0:0:0:
56,192,19470,1,0,0:0:0:0:
456,192,19558,1,8,0:0:0:0:
456,200,19735,1,8,0:0:0:0:
456,200,19911,1,8,0:0:0:0:
48,192,20264,1,4,0:0:0:0:
456,200,20441,1,0,0:0:0:0:
48,192,20529,1,0,0:0:0:0:
48,192,20617,1,12,0:0:0:0:
48,192,20794,1,0,0:0:0:0:
456,200,20971,1,12,0:0:0:0:
40,192,21323,1,0,0:0:0:0:
40,192,21411,1,0,0:0:0:0:
456,200,21499,1,8,0:0:0:0:
456,200,21588,1,8,0:0:0:0:
456,200,21676,1,8,0:0:0:0:
32,192,21852,1,0,0:0:0:0:
40,192,22029,1,0,0:0:0:0:
40,192,22205,1,0,0:0:0:0:
24,200,22294,1,0,0:0:0:0:
456,200,22382,1,8,0:0:0:0:
456,200,22558,1,8,0:0:0:0:
456,200,22735,1,8,0:0:0:0:
40,192,22911,1,0,0:0:0:0:
40,192,23088,1,4,0:0:0:0:
40,192,23264,1,0,0:0:0:0:
456,200,23441,1,8,0:0:0:0:
40,192,23617,1,0,0:0:0:0:
40,192,23705,1,0,0:0:0:0:
456,200,23793,1,8,0:0:0:0:
40,192,23970,1,0,0:0:0:0:
456,200,24146,1,8,0:0:0:0:
32,192,24323,1,0,0:0:0:0:
40,192,24411,1,0,0:0:0:0:
456,200,24499,1,8,0:0:0:0:
456,200,24676,1,8,0:0:0:0:
456,200,24852,1,8,0:0:0:0:
32,192,25029,1,0,0:0:0:0:
40,192,25117,1,0,0:0:0:0:
472,192,25205,1,8,0:0:0:0:
472,192,25382,1,8,0:0:0:0:
472,192,25558,1,8,0:0:0:0:
40,192,25735,1,12,0:0:0:0:
40,192,25823,1,4,0:0:0:0:
40,192,25911,1,12,0:0:0:0:
40,192,26088,1,0,0:0:0:0:
40,192,26176,1,0,0:0:0:0:
40,192,26264,1,8,0:0:0:0:
472,192,26441,1,0,0:0:0:0:
472,192,26617,1,8,0:0:0:0:
472,192,26794,1,12,0:0:0:0:
40,192,26882,1,4,0:0:0:0:
472,192,26970,1,12,0:0:0:0:
472,192,27146,1,12,0:0:0:0:
40,192,27235,1,4,0:0:0:0:
472,192,27324,1,12,0:0:0:0:
40,192,27499,1,0,0:0:0:0:
40,192,27588,1,0,0:0:0:0:
472,192,27676,1,8,0:0:0:0:
40,192,27852,1,0,0:0:0:0:
472,192,28029,1,8,0:0:0:0:
40,192,28205,1,0,0:0:0:0:
40,192,28294,1,0,0:0:0:0:
472,192,28382,1,8,0:0:0:0:
472,192,28558,1,8,0:0:0:0:
472,192,28646,1,8,0:0:0:0:
472,192,28735,1,12,0:0:0:0:
72,192,28823,2,0,L|288:192,4,202.500007724762
472,192,30146,1,8,0:0:0:0:
472,192,30323,1,8,0:0:0:0:
472,192,30499,1,8,0:0:0:0:
40,192,30676,1,0,0:0:0:0:
472,192,30852,1,8,0:0:0:0:
472,192,31029,1,8,0:0:0:0:
464,192,31205,1,8,0:0:0:0:
40,192,31382,1,0,0:0:0:0:
472,192,31558,1,12,0:0:0:0:
256,192,31602,12,8,32970,0:0:0:0:
472,192,33676,5,8,0:0:0:0:
40,192,33852,1,0,0:0:0:0:
40,192,33941,1,0,0:0:0:0:
472,192,34029,1,8,0:0:0:0:
480,192,34205,1,8,0:0:0:0:
40,192,34294,1,8,0:0:0:0:
472,192,34382,1,12,0:0:0:0:
72,192,34470,2,0,L|288:192,4,202.500007724762
472,192,35794,1,8,0:0:0:0:
40,192,35970,1,0,0:0:0:0:
472,192,36146,1,8,0:0:0:0:
472,192,36323,1,8,0:0:0:0:
32,192,36499,1,0,0:0:0:0:
472,192,36676,1,8,0:0:0:0:
32,192,36852,1,0,0:0:0:0:
472,192,37029,1,8,0:0:0:0:
32,192,37205,1,4,0:0:0:0:
256,192,37249,12,8,38617,0:0:0:0:
472,192,38970,5,12,0:0:0:0:
472,192,39146,1,12,0:0:0:0:
472,192,39235,1,12,0:0:0:0:
472,192,39324,1,12,0:0:0:0:
40,192,39499,1,4,0:0:0:0:
40,192,39588,1,4,0:0:0:0:
472,192,39676,1,12,0:0:0:0:
40,192,40029,1,4,0:0:0:0:
40,192,40382,1,0,0:0:0:0:
40,184,40558,1,0,0:0:0:0:
472,192,40735,1,8,0:0:0:0:
48,192,41088,1,0,0:0:0:0:
40,192,41441,1,0,0:0:0:0:
32,192,41794,1,0,0:0:0:0:
40,192,41970,1,0,0:0:0:0:
472,192,42146,1,12,0:0:0:0:
40,192,42764,1,0,0:0:0:0:
40,192,42852,1,4,0:0:0:0:
40,192,43205,1,0,0:0:0:0:
472,192,43558,1,8,0:0:0:0:
40,192,43735,1,0,0:0:0:0:
40,192,43911,1,0,0:0:0:0:
40,192,44264,1,0,0:0:0:0:
40,192,44617,1,0,0:0:0:0:
40,192,44794,1,0,0:0:0:0:
464,192,44970,1,8,0:0:0:0:
40,192,45323,1,0,0:0:0:0:
40,192,45499,1,0,0:0:0:0:
40,192,45676,1,0,0:0:0:0:
40,192,46205,1,0,0:0:0:0:
40,192,46294,1,0,0:0:0:0:
472,192,46382,1,8,0:0:0:0:
40,192,46558,1,0,0:0:0:0:
40,192,46646,1,0,0:0:0:0:
40,200,46735,1,0,0:0:0:0:
40,200,46911,1,0,0:0:0:0:
40,200,46999,1,0,0:0:0:0:
472,192,47088,1,8,0:0:0:0:
472,192,47441,1,8,0:0:0:0:
40,200,47529,1,0,0:0:0:0:
40,200,47617,1,0,0:0:0:0:
472,192,47794,1,8,0:0:0:0:
40,192,48146,1,0,0:0:0:0:
40,192,48235,1,0,0:0:0:0:
472,192,48323,1,8,0:0:0:0:
40,192,48499,1,0,0:0:0:0:
40,192,48852,1,0,0:0:0:0:
40,192,48941,1,0,0:0:0:0:
464,192,49029,1,8,0:0:0:0:
40,192,49205,1,0,0:0:0:0:
40,192,49558,1,4,0:0:0:0:
40,192,49646,1,0,0:0:0:0:
40,192,49735,1,4,0:0:0:0:
472,192,49911,1,12,0:0:0:0:
472,192,50088,1,12,0:0:0:0:
40,192,50264,1,4,0:0:0:0:
40,192,50441,1,4,0:0:0:0:
472,192,50617,1,12,0:0:0:0:
40,192,50705,1,4,0:0:0:0:
40,192,50794,1,4,0:0:0:0:
472,192,50882,1,12,0:0:0:0:
40,192,50970,1,4,0:0:0:0:
40,192,51058,1,4,0:0:0:0:
472,192,51146,1,14,0:0:0:0:
40,192,51235,1,4,0:0:0:0:
472,192,51323,1,10,0:0:0:0:
40,192,51499,1,0,0:0:0:0:
40,192,51588,1,0,0:0:0:0:
40,192,51676,1,0,0:0:0:0:
40,192,51852,1,0,0:0:0:0:
40,192,51941,1,4,0:0:0:0:
472,192,52029,1,12,0:0:0:0:
40,192,52205,1,0,0:0:0:0:
40,192,52294,1,0,0:0:0:0:
472,192,52382,1,8,0:0:0:0:
40,192,52558,1,8,0:0:0:0:
472,192,52735,1,12,0:0:0:0:
472,192,52911,1,8,0:0:0:0:
40,192,52999,1,0,0:0:0:0:
40,192,53088,1,0,0:0:0:0:
472,192,53176,1,12,0:0:0:0:
40,192,53264,1,4,0:0:0:0:
40,192,53352,1,0,0:0:0:0:
472,192,53441,1,8,0:0:0:0:
40,192,53617,1,0,0:0:0:0:
472,192,53705,1,12,0:0:0:0:
472,192,53794,1,12,0:0:0:0:
40,192,53882,1,0,0:0:0:0:
40,192,53970,1,0,0:0:0:0:
40,192,54058,1,0,0:0:0:0:
472,192,54146,1,8,0:0:0:0:
40,192,54323,1,0,0:0:0:0:
40,192,54411,1,0,0:0:0:0:
40,192,54499,1,8,0:0:0:0:
40,192,54676,1,0,0:0:0:0:
40,192,54764,1,0,0:0:0:0:
472,192,54852,1,12,0:0:0:0:
40,192,55029,1,8,0:0:0:0:
40,192,55117,1,8,0:0:0:0:
480,192,55205,1,0,0:0:0:0:
472,192,55382,1,8,0:0:0:0:
40,192,55470,1,0,0:0:0:0:
40,192,55558,1,0,0:0:0:0:
40,192,55646,1,0,0:0:0:0:
40,192,55735,1,0,0:0:0:0:
480,192,55823,1,8,0:0:0:0:
40,192,55911,1,0,0:0:0:0:
480,192,55999,1,8,0:0:0:0:
472,192,56088,1,8,0:0:0:0:
40,192,56176,1,12,0:0:0:0:
480,192,56264,1,4,0:0:0:0:
480,192,56441,1,8,0:0:0:0:
40,192,56529,1,0,0:0:0:0:
480,192,56617,1,8,0:0:0:0:
480,192,56794,1,8,0:0:0:0:
40,192,56882,1,4,0:0:0:0:
40,192,56970,1,4,0:0:0:0:
480,192,57146,1,8,0:0:0:0:
40,192,57235,1,0,0:0:0:0:
480,192,57323,1,8,0:0:0:0:
480,192,57411,1,8,0:0:0:0:
480,192,57499,1,8,0:0:0:0:
40,192,57588,1,0,0:0:0:0:
480,192,57676,1,8,0:0:0:0:
40,192,57852,1,0,0:0:0:0:
40,192,57941,1,4,0:0:0:0:
480,192,58029,1,12,0:0:0:0:
48,192,58205,1,0,0:0:0:0:
48,192,58294,1,0,0:0:0:0:
480,192,58382,1,8,0:0:0:0:
480,192,58558,1,8,0:0:0:0:
480,192,58735,1,8,0:0:0:0:
480,192,58911,1,12,0:0:0:0:
480,192,58999,1,12,0:0:0:0:
40,192,59088,1,0,0:0:0:0:
48,192,59264,1,0,0:0:0:0:
480,192,59352,1,8,0:0:0:0:
480,192,59441,1,8,0:0:0:0:
40,192,59617,1,0,0:0:0:0:
40,192,59705,1,0,0:0:0:0:
480,192,59794,1,8,0:0:0:0:
40,184,59882,1,0,0:0:0:0:
40,192,59970,1,0,0:0:0:0:
40,184,60147,1,8,0:0:0:0:
48,184,60235,1,0,0:0:0:0:
48,184,60323,1,0,0:0:0:0:
48,184,60499,1,8,0:0:0:0:
48,176,60588,1,0,0:0:0:0:
48,176,60676,1,0,0:0:0:0:
480,192,60852,1,8,0:0:0:0:
48,176,61029,1,0,0:0:0:0:
256,192,61205,12,0,62617,0:0:0:0:
40,192,62970,5,0,0:0:0:0:
40,192,63147,1,0,0:0:0:0:
472,192,63323,1,8,0:0:0:0:
40,192,63676,1,0,0:0:0:0:
40,192,63852,1,0,0:0:0:0:
472,192,64029,1,4,0:0:0:0:
40,192,64382,1,0,0:0:0:0:
40,192,64558,1,0,0:0:0:0:
40,192,64646,1,0,0:0:0:0:
472,192,64735,1,12,0:0:0:0:
40,192,64911,1,0,0:0:0:0:
40,192,65088,1,4,0:0:0:0:
40,192,65264,1,0,0:0:0:0:
40,192,65441,1,4,0:0:0:0:
40,192,65794,1,0,0:0:0:0:
40,192,65882,1,0,0:0:0:0:
40,192,65970,1,0,0:0:0:0:
472,192,66147,1,8,0:0:0:0:
40,192,66323,1,0,0:0:0:0:
40,192,66411,1,0,0:0:0:0:
472,192,66499,1,8,0:0:0:0:
40,192,66676,1,0,0:0:0:0:
40,192,66852,1,4,0:0:0:0:
40,192,67029,1,0,0:0:0:0:
40,192,67205,1,0,0:0:0:0:
40,192,67294,1,0,0:0:0:0:
472,192,67382,1,8,0:0:0:0:
472,192,67558,1,8,0:0:0:0:
40,192,67735,1,0,0:0:0:0:
40,192,67911,1,4,0:0:0:0:
40,192,68088,1,0,0:0:0:0:
40,192,68176,1,0,0:0:0:0:
40,192,68264,1,4,0:0:0:0:
40,192,68441,1,0,0:0:0:0:
40,192,68529,1,0,0:0:0:0:
472,192,68617,1,8,0:0:0:0:
40,192,68794,1,0,0:0:0:0:
472,192,68970,1,8,0:0:0:0:
40,192,69147,1,0,0:0:0:0:
40,192,69323,1,0,0:0:0:0:
40,192,69499,1,0,0:0:0:0:
40,192,69588,1,0,0:0:0:0:
40,192,69676,1,4,0:0:0:0:
40,192,69852,1,0,0:0:0:0:
472,192,70029,1,8,0:0:0:0:
472,192,70205,1,8,0:0:0:0:
472,192,70382,1,8,0:0:0:0:
40,192,70558,1,0,0:0:0:0:
40,192,70647,1,0,0:0:0:0:
40,192,70735,1,8,0:0:0:0:
40,192,70911,1,0,0:0:0:0:
40,192,71088,1,4,0:0:0:0:
40,192,71264,1,0,0:0:0:0:
472,192,71441,1,8,0:0:0:0:
40,192,71529,1,0,0:0:0:0:
40,192,71617,1,0,0:0:0:0:
472,192,71794,1,8,0:0:0:0:
40,192,71970,1,0,0:0:0:0:
40,192,72058,1,0,0:0:0:0:
472,192,72147,1,8,0:0:0:0:
40,192,72323,1,0,0:0:0:0:
40,192,72499,1,4,0:0:0:0:
40,192,72676,1,0,0:0:0:0:
40,192,72852,1,4,0:0:0:0:
40,192,73029,1,0,0:0:0:0:
480,192,73205,1,8,0:0:0:0:
40,192,73382,1,0,0:0:0:0:
40,192,73470,1,0,0:0:0:0:
480,192,73558,1,8,0:0:0:0:
40,192,73735,1,0,0:0:0:0:
40,192,73911,1,4,0:0:0:0:
40,192,74088,1,0,0:0:0:0:
40,192,74264,1,0,0:0:0:0:
40,192,74441,1,0,0:0:0:0:
40,192,74529,1,0,0:0:0:0:
40,192,74617,1,8,0:0:0:0:
40,192,74794,1,0,0:0:0:0:
472,192,74970,1,8,0:0:0:0:
40,192,75147,1,0,0:0:0:0:
40,192,75323,1,4,0:0:0:0:
40,192,75499,1,0,0:0:0:0:
40,192,75676,1,0,0:0:0:0:
40,192,75852,1,0,0:0:0:0:
40,192,75941,1,0,0:0:0:0:
472,192,76029,1,8,0:0:0:0:
40,192,76205,1,0,0:0:0:0:
472,192,76382,1,8,0:0:0:0:
32,200,76558,1,0,0:0:0:0:
40,184,76735,1,4,0:0:0:0:
40,192,76911,1,0,0:0:0:0:
40,184,77088,1,0,0:0:0:0:
40,192,77264,1,0,0:0:0:0:
40,184,77352,1,0,0:0:0:0:
480,192,77441,1,8,0:0:0:0:
40,192,77529,1,0,0:0:0:0:
480,192,77617,1,8,0:0:0:0:
480,192,77794,1,8,0:0:0:0:
40,184,77883,1,0,0:0:0:0:
40,192,77971,1,0,0:0:0:0:
40,192,78059,1,0,0:0:0:0:
40,184,78147,1,4,0:0:0:0:
40,184,78323,1,0,0:0:0:0:
40,184,78499,1,4,0:0:0:0:
40,184,78676,1,0,0:0:0:0:
40,192,78764,1,0,0:0:0:0:
472,192,78852,1,8,0:0:0:0:
472,192,79029,1,8,0:0:0:0:
472,192,79205,1,8,0:0:0:0:
32,192,79382,1,0,0:0:0:0:
32,192,79558,1,4,0:0:0:0:
32,192,79735,1,0,0:0:0:0:
32,192,79911,1,8,0:0:0:0:
32,192,80088,1,8,0:0:0:0:
32,192,80264,1,0,0:0:0:0:
472,192,80441,1,8,0:0:0:0:
472,192,80617,1,8,0:0:0:0:
472,192,80705,1,8,0:0:0:0:
472,192,80794,1,8,0:0:0:0:
472,192,80970,1,12,0:0:0:0:
40,192,81147,1,0,0:0:0:0:
40,192,81323,1,0,0:0:0:0:
472,192,81499,1,8,0:0:0:0:
472,192,81588,1,8,0:0:0:0:
472,192,81676,1,8,0:0:0:0:
40,192,81852,1,4,0:0:0:0:
40,192,82029,1,4,0:0:0:0:
472,192,82205,1,8,0:0:0:0:
472,192,82294,1,8,0:0:0:0:
472,192,82382,1,12,0:0:0:0:
40,192,82558,1,0,0:0:0:0:
464,192,82735,1,8,0:0:0:0:
464,192,82911,1,8,0:0:0:0:
464,192,83088,1,8,0:0:0:0:
40,192,83264,1,0,0:0:0:0:
40,192,83441,1,8,0:0:0:0:
40,192,83529,1,8,0:0:0:0:
40,192,83617,1,8,0:0:0:0:
40,192,83705,1,8,0:0:0:0:
40,192,83794,1,12,0:0:0:0:
48,200,83970,1,0,0:0:0:0:
40,192,84147,1,12,0:0:0:0:
40,192,84323,1,0,0:0:0:0:
40,192,84499,1,4,0:0:0:0:
40,192,84676,1,0,0:0:0:0:
480,192,84852,1,8,0:0:0:0:
40,192,85029,1,0,0:0:0:0:
40,192,85205,1,4,0:0:0:0:
40,192,85382,1,0,0:0:0:0:
40,192,85470,1,0,0:0:0:0:
480,192,85558,1,8,0:0:0:0:
40,192,85735,1,0,0:0:0:0:
40,192,85911,1,8,0:0:0:0:
480,192,86088,1,0,0:0:0:0:
40,192,86264,1,0,0:0:0:0:
40,192,86441,1,0,0:0:0:0:
40,192,86529,1,0,0:0:0:0:
40,192,86617,1,4,0:0:0:0:
40,192,86794,1,0,0:0:0:0:
472,192,86970,1,8,0:0:0:0:
472,192,87147,1,8,0:0:0:0:
472,192,87323,1,8,0:0:0:0:
40,192,87499,1,0,0:0:0:0:
456,192,87676,1,8,0:0:0:0:
456,192,87852,1,8,0:0:0:0:
456,192,88029,1,12,0:0:0:0:
40,192,88205,1,0,0:0:0:0:
40,192,88294,1,0,0:0:0:0:
40,192,88382,1,0,0:0:0:0:
40,192,88558,1,0,0:0:0:0:
456,192,88735,1,8,0:0:0:0:
40,192,88911,1,0,0:0:0:0:
40,192,89088,1,0,0:0:0:0:
40,192,89264,1,0,0:0:0:0:
40,192,89352,1,0,0:0:0:0:
456,192,89441,1,8,0:0:0:0:
48,192,89617,1,0,0:0:0:0:
448,192,89794,1,8,0:0:0:0:
48,200,89970,1,0,0:0:0:0:
48,200,90058,1,0,0:0:0:0:
48,200,90147,1,4,0:0:0:0:
48,208,90323,1,0,0:0:0:0:
448,192,90499,1,8,0:0:0:0:
448,192,90676,1,8,0:0:0:0:
448,192,90852,1,4,0:0:0:0:
48,208,91029,1,0,0:0:0:0:
48,200,91117,1,0,0:0:0:0:
48,200,91205,1,0,0:0:0:0:
48,200,91382,1,0,0:0:0:0:
48,184,91558,1,8,0:0:0:0:
48,192,91735,1,0,0:0:0:0:
48,200,91911,1,0,0:0:0:0:
472,192,92088,1,12,0:0:0:0:
472,192,92264,1,12,0:0:0:0:
472,192,92441,1,4,0:0:0:0:
472,192,92617,1,4,0:0:0:0:
472,192,92794,1,12,0:0:0:0:
472,192,92970,1,12,0:0:0:0:
48,192,93147,1,0,0:0:0:0:
48,192,93323,1,0,0:0:0:0:
48,192,93499,1,0,0:0:0:0:
48,192,93588,1,0,0:0:0:0:
48,192,93676,1,4,0:0:0:0:
48,192,93852,1,0,0:0:0:0:
48,192,93941,1,0,0:0:0:0:
48,192,94029,1,8,0:0:0:0:
472,192,94205,1,8,0:0:0:0:
472,192,94382,1,8,0:0:0:0:
48,192,94558,1,0,0:0:0:0:
472,192,94735,1,8,0:0:0:0:
472,192,94911,1,8,0:0:0:0:
472,192,95088,1,12,0:0:0:0:
56,192,95264,1,0,0:0:0:0:
472,192,95441,1,8,0:0:0:0:
56,192,95529,1,0,0:0:0:0:
472,192,95617,1,8,0:0:0:0:
56,192,95705,1,8,0:0:0:0:
472,192,95794,1,8,0:0:0:0:
56,192,95882,1,0,0:0:0:0:
472,192,95970,1,8,0:0:0:0:
464,200,96147,1,8,0:0:0:0:
472,192,96323,1,8,0:0:0:0:
472,192,96499,1,4,0:0:0:0:
256,192,96544,12,0,97558,0:0:0:0:
40,192,97911,6,0,L|320:192,2,270.000010299683
40,192,98794,1,0,0:0:0:0:
40,192,98970,1,0,0:0:0:0:
40,192,99058,1,0,0:0:0:0:
480,192,99147,1,8,0:0:0:0:
480,192,99323,1,12,0:0:0:0:
40,192,99499,1,0,0:0:0:0:
480,192,99676,1,8,0:0:0:0:
480,192,99852,1,8,0:0:0:0:
40,184,100029,1,0,0:0:0:0:
472,192,100205,1,8,0:0:0:0:
40,184,100382,1,0,0:0:0:0:
480,192,100558,1,8,0:0:0:0:
40,184,100735,1,4,0:0:0:0:
256,192,100779,12,0,102147,0:0:0:0:
40,192,102499,5,0,0:0:0:0:
472,192,102676,5,8,0:0:0:0:
472,192,102765,1,8,0:0:0:0:
40,192,102853,1,0,0:0:0:0:
472,192,103029,1,8,0:0:0:0:
40,192,103118,1,8,0:0:0:0:
40,192,103206,1,0,0:0:0:0:
40,192,103382,1,0,0:0:0:0:
88,192,103558,2,0,L|368:192,2,270.000010299683
472,192,104617,1,8,0:0:0:0:
472,192,104705,1,8,0:0:0:0:
472,192,104793,1,8,0:0:0:0:
40,192,104970,1,4,0:0:0:0:
40,192,105147,1,0,0:0:0:0:
472,192,105323,1,8,0:0:0:0:
40,192,105499,1,0,0:0:0:0:
40,192,105676,1,4,0:0:0:0:
40,192,105852,1,0,0:0:0:0:
472,192,106029,1,8,0:0:0:0:
472,192,106205,1,8,0:0:0:0:
472,192,106382,1,8,0:0:0:0:
256,192,106426,12,8,107794,0:0:0:0:
472,192,108147,5,8,0:0:0:0:
472,192,108235,1,8,0:0:0:0:
472,192,108323,1,8,0:0:0:0:
472,192,108411,1,8,0:0:0:0:
472,192,108499,1,8,0:0:0:0:
32,192,108676,1,0,0:0:0:0:
472,192,108852,1,8,0:0:0:0:
32,192,109029,1,0,0:0:0:0:
32,192,109205,1,4,0:0:0:0:
