osu file format v14

[General]
AudioFilename: audio.mp3
AudioLeadIn: 0
PreviewTime: 49514
Countdown: 1
SampleSet: Normal
StackLeniency: 0.7
Mode: 1
LetterboxInBreaks: 0
WidescreenStoryboard: 1

[Editor]
DistanceSpacing: 0.1
BeatDivisor: 8
GridSize: 8
TimelineZoom: 2.6

[Metadata]
Title:Stressed Out
TitleUnicode:Stressed Out
Artist:Twenty One Pilots
ArtistUnicode:Twenty One Pilots
Creator:reeko66
Version:Muzukashii
Source:
Tags:
BeatmapID:1279082
BeatmapSetID:589904

[Difficulty]
HPDrainRate:6
CircleSize:2
OverallDifficulty:6
ApproachRate:7
SliderMultiplier:1.4
SliderTickRate:1

[Events]
//Background and Video events
0,0,"21p-864x474.jpg",0,0
//Break Periods
//Storyboard Layer 0 (Background)
//Storyboard Layer 1 (Fail)
//Storyboard Layer 2 (Pass)
//Storyboard Layer 3 (Foreground)
//Storyboard Sound Samples

[TimingPoints]
500,352.941176470588,4,1,0,100,1,0
49911,-83.3333333333333,4,1,0,100,0,0
50617,-71.4285714285714,4,1,0,100,0,0
51323,-55.5555555555556,4,1,0,100,0,1
61205,-100,4,1,0,100,0,0

[HitObjects]
144,192,323,5,0,0:0:0:0:
144,192,411,1,0,0:0:0:0:
144,192,500,1,4,0:0:0:0:
368,192,852,1,8,0:0:0:0:
136,192,1205,1,4,0:0:0:0:
368,192,1558,1,8,0:0:0:0:
136,192,1735,1,0,0:0:0:0:
136,192,1823,1,0,0:0:0:0:
136,192,1911,1,4,0:0:0:0:
136,192,2088,1,0,0:0:0:0:
368,192,2264,1,8,0:0:0:0:
136,192,2617,1,4,0:0:0:0:
368,192,2970,1,8,0:0:0:0:
368,192,3147,1,8,0:0:0:0:
136,192,3323,1,4,0:0:0:0:
360,192,3676,1,8,0:0:0:0:
136,192,4029,1,4,0:0:0:0:
136,192,4205,1,0,0:0:0:0:
368,184,4382,1,8,0:0:0:0:
136,192,4558,1,0,0:0:0:0:
136,192,4647,1,0,0:0:0:0:
144,192,4735,1,4,0:0:0:0:
136,192,4911,1,0,0:0:0:0:
136,192,5088,1,8,0:0:0:0:
360,192,5264,1,8,0:0:0:0:
360,192,5617,1,4,0:0:0:0:
360,192,5794,1,12,0:0:0:0:
360,192,6058,1,12,0:0:0:0:
160,200,6147,1,4,0:0:0:0:
360,192,6499,1,8,0:0:0:0:
160,200,6676,1,0,0:0:0:0:
160,192,6852,1,0,0:0:0:0:
360,192,7205,1,8,0:0:0:0:
168,192,7382,1,0,0:0:0:0:
168,192,7558,1,0,0:0:0:0:
352,200,7735,1,8,0:0:0:0:
360,192,7911,1,8,0:0:0:0:
168,192,8088,1,0,0:0:0:0:
352,200,8264,1,8,0:0:0:0:
352,200,8441,1,8,0:0:0:0:
352,200,8794,1,8,0:0:0:0:
352,200,8882,1,8,0:0:0:0:
352,200,8970,1,8,0:0:0:0:
136,200,9147,1,0,0:0:0:0:
136,200,9235,1,0,0:0:0:0:
136,200,9323,1,0,0:0:0:0:
352,200,9499,1,8,0:0:0:0:
136,200,9676,1,4,0:0:0:0:
144,208,9852,1,0,0:0:0:0:
352,200,10205,1,8,0:0:0:0:
352,200,10382,1,8,0:0:0:0:
136,200,10558,1,0,0:0:0:0:
136,200,10735,1,0,0:0:0:0:
136,200,10911,1,0,0:0:0:0:
136,200,10999,1,0,0:0:0:0:
136,200,11088,1,0,0:0:0:0:
368,200,11264,1,8,0:0:0:0:
368,208,11441,1,8,0:0:0:0:
368,200,11617,1,8,0:0:0:0:
368,200,11794,1,12,0:0:0:0:
152,200,11970,1,0,0:0:0:0:
152,200,12147,1,0,0:0:0:0:
152,200,12323,1,0,0:0:0:0:
152,200,12499,1,8,0:0:0:0:
144,200,12676,1,0,0:0:0:0:
152,200,12852,1,0,0:0:0:0:
152,200,13029,1,0,0:0:0:0:
152,200,13205,1,8,0:0:0:0:
152,200,13558,1,0,0:0:0:0:
152,200,13735,1,0,0:0:0:0:
152,200,13911,1,0,0:0:0:0:
336,200,14088,1,8,0:0:0:0:
160,208,14264,1,0,0:0:0:0:
176,200,14617,1,4,0:0:0:0:
168,200,14794,1,0,0:0:0:0:
176,200,14970,1,0,0:0:0:0:
176,200,15147,1,0,0:0:0:0:
344,200,15323,1,8,0:0:0:0:
160,184,15499,1,0,0:0:0:0:
160,184,15676,1,0,0:0:0:0:
160,184,15852,1,0,0:0:0:0:
344,192,16029,1,8,0:0:0:0:
160,184,16205,1,0,0:0:0:0:
160,184,16382,1,0,0:0:0:0:
352,200,16558,1,8,0:0:0:0:
336,200,16735,1,8,0:0:0:0:
160,184,16911,1,0,0:0:0:0:
352,200,17088,1,8,0:0:0:0:
160,200,17441,1,4,0:0:0:0:
160,200,17617,1,0,0:0:0:0:
160,200,17794,1,0,0:0:0:0:
160,200,17970,1,0,0:0:0:0:
336,192,18147,1,8,0:0:0:0:
168,200,18323,1,0,0:0:0:0:
168,200,18499,1,0,0:0:0:0:
336,192,18764,1,8,0:0:0:0:
168,200,18852,1,0,0:0:0:0:
168,208,19029,1,0,0:0:0:0:
344,200,19205,1,8,0:0:0:0:
344,200,19382,1,8,0:0:0:0:
160,200,19558,1,0,0:0:0:0:
160,200,19735,1,0,0:0:0:0:
336,192,19911,1,8,0:0:0:0:
168,200,20264,1,4,0:0:0:0:
168,200,20441,1,0,0:0:0:0:
168,200,20617,1,0,0:0:0:0:
168,200,20794,1,0,0:0:0:0:
328,200,20970,1,8,0:0:0:0:
160,192,21147,1,0,0:0:0:0:
168,192,21323,1,0,0:0:0:0:
168,192,21499,1,0,0:0:0:0:
328,200,21676,1,8,0:0:0:0:
168,184,22029,1,0,0:0:0:0:
168,192,22205,1,0,0:0:0:0:
328,200,22382,1,8,0:0:0:0:
328,200,22558,1,8,0:0:0:0:
328,200,22735,1,8,0:0:0:0:
176,192,23088,1,4,0:0:0:0:
176,192,23264,1,0,0:0:0:0:
328,200,23441,1,8,0:0:0:0:
176,192,23617,1,0,0:0:0:0:
328,200,23794,1,8,0:0:0:0:
176,200,23970,1,0,0:0:0:0:
320,208,24147,1,8,0:0:0:0:
208,192,24323,1,0,0:0:0:0:
200,192,24499,1,4,0:0:0:0:
200,192,24676,1,0,0:0:0:0:
320,192,24852,1,8,0:0:0:0:
194,189,25029,1,0,0:0:0:0:
320,192,25205,1,8,0:0:0:0:
320,192,25382,1,8,0:0:0:0:
320,192,25558,1,8,0:0:0:0:
208,192,25735,1,4,0:0:0:0:
208,192,25911,1,4,0:0:0:0:
208,192,26088,1,0,0:0:0:0:
320,192,26264,1,8,0:0:0:0:
200,200,26441,1,0,0:0:0:0:
320,192,26617,1,8,0:0:0:0:
200,192,26970,1,4,0:0:0:0:
200,200,27147,1,0,0:0:0:0:
200,200,27235,1,0,0:0:0:0:
336,192,27323,1,8,0:0:0:0:
208,200,27499,1,0,0:0:0:0:
336,200,27676,1,8,0:0:0:0:
200,216,27852,1,0,0:0:0:0:
328,208,28029,1,8,0:0:0:0:
328,208,28382,1,8,0:0:0:0:
160,208,28735,2,0,L|312:208,4,140
192,200,30499,1,4,0:0:0:0:
320,200,30852,1,8,0:0:0:0:
184,208,31029,1,0,0:0:0:0:
320,200,31205,1,8,0:0:0:0:
320,200,31382,1,8,0:0:0:0:
320,200,31558,1,8,0:0:0:0:
256,192,31602,12,0,32970,0:0:0:0:
176,192,33323,5,0,0:0:0:0:
176,192,33499,1,0,0:0:0:0:
328,192,33676,1,8,0:0:0:0:
328,192,34029,1,8,0:0:0:0:
168,192,34382,2,0,L|320:192,4,140
176,200,36147,1,4,0:0:0:0:
320,192,36499,1,8,0:0:0:0:
192,192,36676,1,0,0:0:0:0:
320,192,36852,1,8,0:0:0:0:
192,192,37029,1,0,0:0:0:0:
320,192,37205,1,8,0:0:0:0:
256,192,37249,12,0,38617,0:0:0:0:
320,192,38970,5,8,0:0:0:0:
192,192,39147,1,8,0:0:0:0:
192,192,39235,1,0,0:0:0:0:
192,192,39323,1,0,0:0:0:0:
184,200,39499,1,0,0:0:0:0:
328,192,39676,1,8,0:0:0:0:
192,192,40029,1,4,0:0:0:0:
256,192,41441,1,4,0:0:0:0:
256,192,42852,1,4,0:0:0:0:
256,192,44264,1,4,0:0:0:0:
256,192,45676,1,4,0:0:0:0:
192,192,46205,1,0,0:0:0:0:
192,192,46294,1,0,0:0:0:0:
328,184,46382,1,8,0:0:0:0:
192,192,46558,1,0,0:0:0:0:
192,184,46735,1,0,0:0:0:0:
192,184,46911,1,0,0:0:0:0:
320,176,47088,1,8,0:0:0:0:
320,176,47441,1,8,0:0:0:0:
320,176,47794,1,8,0:0:0:0:
200,192,48147,1,0,0:0:0:0:
200,192,48323,1,0,0:0:0:0:
328,200,48499,1,8,0:0:0:0:
328,208,48852,1,8,0:0:0:0:
328,208,49205,1,8,0:0:0:0:
208,192,49558,1,4,0:0:0:0:
208,192,49911,1,4,0:0:0:0:
208,192,50264,1,4,0:0:0:0:
312,192,50617,1,8,0:0:0:0:
312,192,50705,1,8,0:0:0:0:
312,192,50794,1,8,0:0:0:0:
312,192,50882,1,8,0:0:0:0:
312,192,50970,1,8,0:0:0:0:
184,200,51147,1,0,0:0:0:0:
184,200,51323,1,4,0:0:0:0:
184,200,51499,1,4,0:0:0:0:
184,200,51676,1,4,0:0:0:0:
184,200,51852,1,4,0:0:0:0:
312,200,52029,1,12,0:0:0:0:
192,192,52205,1,4,0:0:0:0:
192,192,52382,1,4,0:0:0:0:
192,192,52558,1,4,0:0:0:0:
320,192,52735,1,12,0:0:0:0:
192,192,53088,1,4,0:0:0:0:
192,192,53264,1,4,0:0:0:0:
320,192,53441,1,12,0:0:0:0:
320,192,53617,1,12,0:0:0:0:
192,192,53794,1,4,0:0:0:0:
336,184,53970,1,12,0:0:0:0:
200,192,54147,1,4,0:0:0:0:
208,192,54499,1,4,0:0:0:0:
208,192,54676,1,4,0:0:0:0:
328,184,54852,1,12,0:0:0:0:
192,192,55029,1,4,0:0:0:0:
192,192,55117,1,4,0:0:0:0:
320,200,55205,1,12,0:0:0:0:
208,192,55382,1,4,0:0:0:0:
200,200,55558,1,4,0:0:0:0:
200,200,55911,1,4,0:0:0:0:
320,192,56088,1,12,0:0:0:0:
320,192,56264,1,12,0:0:0:0:
328,192,56441,1,12,0:0:0:0:
200,192,56529,1,4,0:0:0:0:
328,192,56617,1,12,0:0:0:0:
208,192,56794,1,4,0:0:0:0:
208,192,56970,1,4,0:0:0:0:
208,200,57323,1,4,0:0:0:0:
208,192,57499,1,4,0:0:0:0:
328,200,57676,1,12,0:0:0:0:
208,200,57852,1,4,0:0:0:0:
328,200,58029,1,12,0:0:0:0:
328,200,58205,1,12,0:0:0:0:
328,200,58382,1,12,0:0:0:0:
328,200,58735,1,12,0:0:0:0:
328,200,59088,1,12,0:0:0:0:
328,200,59441,1,12,0:0:0:0:
192,200,59794,1,4,0:0:0:0:
192,200,59970,1,4,0:0:0:0:
192,200,60147,1,4,0:0:0:0:
192,200,60323,1,0,0:0:0:0:
304,200,60499,1,8,0:0:0:0:
192,200,60676,1,0,0:0:0:0:
312,200,60852,1,8,0:0:0:0:
192,200,61029,1,0,0:0:0:0:
312,200,61205,1,8,0:0:0:0:
256,192,61249,12,0,62617,0:0:0:0:
328,200,62970,5,8,0:0:0:0:
208,192,63147,1,0,0:0:0:0:
184,192,63323,1,0,0:0:0:0:
328,200,63676,1,8,0:0:0:0:
200,192,63852,1,0,0:0:0:0:
192,200,64029,1,4,0:0:0:0:
176,200,64205,1,0,0:0:0:0:
328,200,64382,1,8,0:0:0:0:
328,200,64558,1,8,0:0:0:0:
328,192,64735,1,8,0:0:0:0:
192,200,64911,1,0,0:0:0:0:
336,200,65088,1,8,0:0:0:0:
200,192,65264,1,0,0:0:0:0:
208,200,65441,1,4,0:0:0:0:
328,192,65794,1,8,0:0:0:0:
200,200,65970,1,0,0:0:0:0:
200,200,66147,1,4,0:0:0:0:
208,200,66323,1,0,0:0:0:0:
320,200,66499,1,8,0:0:0:0:
320,200,66676,1,8,0:0:0:0:
200,200,66852,1,4,0:0:0:0:
184,208,67029,1,0,0:0:0:0:
312,208,67205,1,8,0:0:0:0:
192,192,67382,1,0,0:0:0:0:
184,192,67558,1,4,0:0:0:0:
320,200,67735,1,8,0:0:0:0:
320,200,67911,1,8,0:0:0:0:
200,192,68088,1,0,0:0:0:0:
192,192,68264,1,4,0:0:0:0:
320,200,68617,1,8,0:0:0:0:
192,200,68794,1,0,0:0:0:0:
192,200,68970,1,0,0:0:0:0:
320,200,69147,1,8,0:0:0:0:
320,200,69323,1,8,0:0:0:0:
176,200,69499,1,0,0:0:0:0:
176,192,69676,1,4,0:0:0:0:
184,192,69852,1,0,0:0:0:0:
176,200,70029,1,4,0:0:0:0:
192,192,70205,1,0,0:0:0:0:
336,192,70382,1,8,0:0:0:0:
336,192,70558,1,8,0:0:0:0:
336,192,70735,1,8,0:0:0:0:
192,200,70911,1,0,0:0:0:0:
184,200,71088,1,4,0:0:0:0:
184,200,71441,1,0,0:0:0:0:
184,200,71617,1,0,0:0:0:0:
320,192,71794,1,8,0:0:0:0:
176,192,71970,1,0,0:0:0:0:
184,192,72147,1,4,0:0:0:0:
320,192,72323,1,12,0:0:0:0:
328,192,72499,1,12,0:0:0:0:
176,192,72852,1,4,0:0:0:0:
184,192,73029,1,0,0:0:0:0:
328,192,73205,1,8,0:0:0:0:
176,192,73382,1,0,0:0:0:0:
176,192,73470,1,0,0:0:0:0:
320,200,73558,1,8,0:0:0:0:
176,192,73735,1,0,0:0:0:0:
176,192,73911,1,4,0:0:0:0:
168,192,74088,1,0,0:0:0:0:
160,192,74264,1,4,0:0:0:0:
152,192,74441,1,0,0:0:0:0:
320,192,74617,1,8,0:0:0:0:
152,200,74794,1,0,0:0:0:0:
320,192,74970,1,8,0:0:0:0:
152,200,75147,1,0,0:0:0:0:
160,200,75323,1,4,0:0:0:0:
152,208,75499,1,0,0:0:0:0:
304,200,75676,1,8,0:0:0:0:
304,200,75852,1,8,0:0:0:0:
152,200,75941,1,0,0:0:0:0:
304,200,76029,1,8,0:0:0:0:
160,200,76205,1,0,0:0:0:0:
304,200,76382,1,8,0:0:0:0:
152,200,76735,1,4,0:0:0:0:
152,200,76911,1,0,0:0:0:0:
160,200,77088,1,0,0:0:0:0:
160,200,77308,1,0,0:0:0:0:
320,200,77441,1,8,0:0:0:0:
320,200,77661,1,8,0:0:0:0:
320,200,77926,1,8,0:0:0:0:
320,200,78147,1,8,0:0:0:0:
176,200,78499,1,4,0:0:0:0:
176,200,78676,1,0,0:0:0:0:
176,200,78764,1,0,0:0:0:0:
320,200,78852,1,8,0:0:0:0:
184,208,79029,1,0,0:0:0:0:
320,200,79205,1,8,0:0:0:0:
176,208,79382,1,4,0:0:0:0:
184,208,79558,1,4,0:0:0:0:
176,200,79735,1,0,0:0:0:0:
312,208,79911,1,8,0:0:0:0:
320,200,80088,1,8,0:0:0:0:
312,208,80264,1,8,0:0:0:0:
176,200,80441,1,0,0:0:0:0:
304,208,80617,1,8,0:0:0:0:
304,208,80705,1,8,0:0:0:0:
304,208,80794,1,8,0:0:0:0:
184,200,80970,1,4,0:0:0:0:
184,208,81147,1,0,0:0:0:0:
304,208,81323,1,8,0:0:0:0:
304,208,81499,1,8,0:0:0:0:
184,208,81676,1,4,0:0:0:0:
304,208,81852,1,8,0:0:0:0:
304,208,82029,1,8,0:0:0:0:
184,208,82205,1,0,0:0:0:0:
184,208,82382,1,4,0:0:0:0:
184,208,82558,1,0,0:0:0:0:
184,208,82735,1,0,0:0:0:0:
328,200,82911,1,8,0:0:0:0:
328,200,83088,1,8,0:0:0:0:
184,208,83264,1,0,0:0:0:0:
328,200,83441,1,8,0:0:0:0:
328,200,83529,1,8,0:0:0:0:
328,200,83617,1,8,0:0:0:0:
328,200,83705,1,8,0:0:0:0:
328,200,83794,1,8,0:0:0:0:
184,200,83970,1,0,0:0:0:0:
184,200,84058,1,0,0:0:0:0:
328,200,84147,1,8,0:0:0:0:
184,200,84323,1,0,0:0:0:0:
328,200,84499,1,8,0:0:0:0:
328,200,84676,1,8,0:0:0:0:
328,200,84852,1,8,0:0:0:0:
192,192,85205,1,4,0:0:0:0:
192,192,85382,1,0,0:0:0:0:
192,192,85470,1,0,0:0:0:0:
328,200,85558,1,8,0:0:0:0:
192,192,85735,1,0,0:0:0:0:
192,208,85911,1,8,0:0:0:0:
320,192,86088,1,8,0:0:0:0:
192,200,86264,1,0,0:0:0:0:
192,200,86441,1,0,0:0:0:0:
192,200,86529,1,0,0:0:0:0:
320,192,86617,1,8,0:0:0:0:
192,200,86794,1,0,0:0:0:0:
320,192,86970,1,12,0:0:0:0:
320,192,87323,1,12,0:0:0:0:
320,192,87675,1,12,0:0:0:0:
200,192,87852,1,0,0:0:0:0:
320,192,88028,1,12,0:0:0:0:
200,192,88205,1,0,0:0:0:0:
200,192,88382,1,0,0:0:0:0:
200,192,88558,1,0,0:0:0:0:
200,192,88647,1,0,0:0:0:0:
320,192,88735,1,8,0:0:0:0:
200,200,88911,1,0,0:0:0:0:
328,192,89088,1,8,0:0:0:0:
200,200,89264,1,0,0:0:0:0:
200,200,89352,1,0,0:0:0:0:
192,200,89441,1,4,0:0:0:0:
208,200,89617,1,0,0:0:0:0:
328,192,89794,1,8,0:0:0:0:
200,200,89970,1,0,0:0:0:0:
328,200,90147,1,8,0:0:0:0:
328,200,90323,1,8,0:0:0:0:
328,200,90499,1,8,0:0:0:0:
200,200,90852,1,4,0:0:0:0:
200,200,91029,1,0,0:0:0:0:
200,200,91117,1,0,0:0:0:0:
200,200,91205,1,0,0:0:0:0:
216,200,91382,1,0,0:0:0:0:
336,200,91558,1,8,0:0:0:0:
200,200,91735,1,0,0:0:0:0:
336,200,91911,1,8,0:0:0:0:
336,200,92088,1,12,0:0:0:0:
336,200,92264,1,12,0:0:0:0:
200,200,92441,1,4,0:0:0:0:
200,200,92617,1,4,0:0:0:0:
336,200,92794,1,12,0:0:0:0:
336,200,92970,1,12,0:0:0:0:
208,200,93147,1,0,0:0:0:0:
208,200,93323,1,0,0:0:0:0:
336,200,93499,1,8,0:0:0:0:
336,208,93676,1,12,0:0:0:0:
184,192,93852,1,0,0:0:0:0:
336,200,94029,1,8,0:0:0:0:
192,192,94205,1,0,0:0:0:0:
336,200,94382,1,8,0:0:0:0:
336,200,94558,1,8,0:0:0:0:
336,200,94735,1,8,0:0:0:0:
184,200,94911,1,0,0:0:0:0:
184,200,94999,1,0,0:0:0:0:
192,200,95088,1,4,0:0:0:0:
192,192,95264,1,0,0:0:0:0:
320,200,95441,1,8,0:0:0:0:
320,200,95617,1,8,0:0:0:0:
320,200,95794,1,8,0:0:0:0:
320,200,95970,1,8,0:0:0:0:
256,192,96147,12,0,96499,0:0:0:0:
256,192,96852,12,0,97558,0:0:0:0:
200,192,97911,5,4,0:0:0:0:
208,192,98264,1,0,0:0:0:0:
208,192,98441,1,0,0:0:0:0:
320,200,98617,1,8,0:0:0:0:
208,192,98970,1,0,0:0:0:0:
200,200,99323,2,0,L|352:200,2,140
200,192,100382,1,0,0:0:0:0:
200,192,100558,1,0,0:0:0:0:
328,192,100735,1,12,0:0:0:0:
256,192,100779,12,0,102147,0:0:0:0:
192,208,102499,5,0,0:0:0:0:
192,208,102676,1,0,0:0:0:0:
312,200,102852,1,8,0:0:0:0:
312,200,103205,1,8,0:0:0:0:
176,192,103558,1,4,0:0:0:0:
176,192,103735,1,0,0:0:0:0:
176,192,103911,1,4,0:0:0:0:
304,200,104088,1,8,0:0:0:0:
304,200,104264,1,8,0:0:0:0:
176,192,104617,1,0,0:0:0:0:
176,192,104794,1,0,0:0:0:0:
160,200,104970,2,0,L|312:200,2,140
184,192,105852,1,0,0:0:0:0:
328,192,106029,1,8,0:0:0:0:
328,192,106205,1,8,0:0:0:0:
328,192,106382,1,8,0:0:0:0:
256,192,106426,12,0,107794,0:0:0:0:
320,200,108147,5,8,0:0:0:0:
320,200,108323,1,8,0:0:0:0:
320,200,108499,1,8,0:0:0:0:
184,200,108676,1,0,0:0:0:0:
320,200,108852,1,8,0:0:0:0:
184,200,109029,1,0,0:0:0:0:
256,200,109205,1,12,0:0:0:0:
