osu file format v14

[General]
AudioFilename: audio.mp3
AudioLeadIn: 0
PreviewTime: 49514
Countdown: 1
SampleSet: Normal
StackLeniency: 0.7
Mode: 1
LetterboxInBreaks: 0
WidescreenStoryboard: 1

[Editor]
Bookmarks: 40029,42852,45676,62617,65441,67558,68264,71088,73911
DistanceSpacing: 0.1
BeatDivisor: 8
GridSize: 8
TimelineZoom: 2.6

[Metadata]
Title:Stressed Out
TitleUnicode:Stressed Out
Artist:Twenty One Pilots
ArtistUnicode:Twenty One Pilots
Creator:reeko66
Version:Kantan
Source:
Tags:
BeatmapID:1281718
BeatmapSetID:589904

[Difficulty]
HPDrainRate:2
CircleSize:2
OverallDifficulty:2
ApproachRate:7
SliderMultiplier:1.4
SliderTickRate:1

[Events]
//Background and Video events
0,0,"21p-864x474.jpg",0,0
//Break Periods
2,40229,41952
2,43052,44776
2,62817,64541
2,65641,66658
2,68464,70188
2,71288,73011
//Storyboard Layer 0 (Background)
//Storyboard Layer 1 (Fail)
//Storyboard Layer 2 (Pass)
//Storyboard Layer 3 (Foreground)
//Storyboard Sound Samples

[TimingPoints]
500,352.941176470588,4,1,0,100,1,0
49911,-83.3333333333333,4,1,0,100,0,0
50617,-71.4285714285714,4,1,0,100,0,0
51323,-55.5555555555556,4,1,0,100,0,1
61205,-100,4,1,0,100,0,0
96499,-100,4,1,0,25,0,0
96852,-100,4,1,0,38,0,0
97205,-100,4,1,0,70,0,0
97558,-100,4,1,0,100,0,0

[HitObjects]
208,200,500,5,4,0:0:0:0:
312,192,1205,1,8,0:0:0:0:
208,192,1911,1,4,0:0:0:0:
208,192,2264,1,0,0:0:0:0:
320,192,2617,1,8,0:0:0:0:
184,192,3323,1,4,0:0:0:0:
312,200,4029,1,8,0:0:0:0:
200,192,4735,1,4,0:0:0:0:
336,192,5088,1,8,0:0:0:0:
336,192,5441,1,8,0:0:0:0:
192,200,5794,1,0,0:0:0:0:
200,208,6147,1,4,0:0:0:0:
192,208,6852,1,4,0:0:0:0:
320,200,7205,1,8,0:0:0:0:
192,208,7558,1,0,0:0:0:0:
328,208,8264,1,8,0:0:0:0:
328,208,8617,1,8,0:0:0:0:
208,208,8970,1,4,0:0:0:0:
320,208,9323,1,8,0:0:0:0:
208,208,9676,1,0,0:0:0:0:
208,208,10029,1,0,0:0:0:0:
208,200,10382,1,4,0:0:0:0:
320,200,11088,1,0,0:0:0:0:
320,200,11441,1,8,0:0:0:0:
208,192,11794,1,4,0:0:0:0:
328,200,12499,1,8,0:0:0:0:
328,200,12852,1,8,0:0:0:0:
328,200,13205,1,8,0:0:0:0:
208,192,13558,1,0,0:0:0:0:
328,192,13911,1,8,0:0:0:0:
208,192,14264,1,0,0:0:0:0:
224,192,14617,1,4,0:0:0:0:
336,200,15323,1,8,0:0:0:0:
208,200,15676,1,0,0:0:0:0:
336,200,16029,1,8,0:0:0:0:
336,200,16382,1,8,0:0:0:0:
336,200,16735,1,8,0:0:0:0:
200,200,17088,1,0,0:0:0:0:
200,200,17441,1,4,0:0:0:0:
320,200,18147,1,8,0:0:0:0:
320,200,18499,1,8,0:0:0:0:
320,200,18852,1,12,0:0:0:0:
336,200,19558,1,8,0:0:0:0:
336,200,19911,1,8,0:0:0:0:
344,192,20264,1,12,0:0:0:0:
184,192,20617,1,0,0:0:0:0:
352,192,20970,1,8,0:0:0:0:
352,192,21323,1,8,0:0:0:0:
352,208,21676,1,12,0:0:0:0:
200,208,22382,1,0,0:0:0:0:
200,208,22735,1,0,0:0:0:0:
208,216,23088,1,4,0:0:0:0:
336,208,23441,1,8,0:0:0:0:
336,208,24147,1,8,0:0:0:0:
200,200,24499,1,4,0:0:0:0:
336,208,24852,1,8,0:0:0:0:
336,208,25558,1,8,0:0:0:0:
192,200,25911,1,4,0:0:0:0:
328,200,26264,1,8,0:0:0:0:
328,200,26970,1,8,0:0:0:0:
328,200,27323,1,12,0:0:0:0:
200,200,27676,1,0,0:0:0:0:
328,200,28029,1,8,0:0:0:0:
328,200,28382,1,8,0:0:0:0:
256,192,28735,12,8,31558,0:0:0:0:
336,200,32264,5,8,0:0:0:0:
336,200,32617,1,8,0:0:0:0:
312,208,32970,1,12,0:0:0:0:
200,208,33676,1,0,0:0:0:0:
368,200,34029,1,8,0:0:0:0:
256,192,34382,12,8,37205,0:0:0:0:
176,200,37911,5,0,0:0:0:0:
328,200,38264,1,8,0:0:0:0:
328,200,38617,1,8,0:0:0:0:
192,208,38970,1,0,0:0:0:0:
328,200,39323,1,8,0:0:0:0:
200,200,39676,1,0,0:0:0:0:
200,200,40029,1,4,0:0:0:0:
256,192,42852,5,4,0:0:0:0:
256,192,45676,5,4,0:0:0:0:
328,200,46382,1,8,0:0:0:0:
184,208,47088,1,4,0:0:0:0:
184,208,47441,1,0,0:0:0:0:
320,200,47794,1,8,0:0:0:0:
176,200,48499,1,4,0:0:0:0:
184,200,48852,1,0,0:0:0:0:
328,192,49205,1,8,0:0:0:0:
328,200,49558,1,8,0:0:0:0:
192,200,49911,1,4,0:0:0:0:
200,200,50617,1,4,0:0:0:0:
200,200,51323,1,4,0:0:0:0:
320,208,52029,1,12,0:0:0:0:
208,192,52735,1,4,0:0:0:0:
320,200,53088,1,12,0:0:0:0:
320,200,53441,1,12,0:0:0:0:
200,208,54147,1,4,0:0:0:0:
200,208,54499,1,4,0:0:0:0:
328,192,54852,1,12,0:0:0:0:
208,200,55205,1,4,0:0:0:0:
328,200,55558,1,12,0:0:0:0:
328,200,55911,1,12,0:0:0:0:
328,200,56264,1,12,0:0:0:0:
192,200,56970,1,4,0:0:0:0:
200,208,57323,1,4,0:0:0:0:
352,208,57676,1,12,0:0:0:0:
200,208,58029,1,4,0:0:0:0:
368,216,58382,1,12,0:0:0:0:
368,216,58735,1,12,0:0:0:0:
368,216,59088,1,12,0:0:0:0:
208,200,59794,1,4,0:0:0:0:
208,200,60499,1,4,0:0:0:0:
256,192,61205,12,0,62617,0:0:0:0:
256,200,65441,5,4,0:0:0:0:
248,192,67558,5,4,0:0:0:0:
248,192,67911,1,4,0:0:0:0:
248,192,68264,1,4,0:0:0:0:
248,192,71088,5,4,0:0:0:0:
200,192,73911,5,4,0:0:0:0:
320,200,74617,1,8,0:0:0:0:
216,192,75323,1,4,0:0:0:0:
216,208,75676,1,0,0:0:0:0:
320,192,76029,1,8,0:0:0:0:
216,192,76735,1,4,0:0:0:0:
208,200,77088,1,0,0:0:0:0:
320,200,77441,1,8,0:0:0:0:
320,200,77794,1,8,0:0:0:0:
320,200,78147,1,8,0:0:0:0:
216,192,78499,1,0,0:0:0:0:
320,200,78852,1,8,0:0:0:0:
320,200,79205,1,8,0:0:0:0:
208,200,79558,1,4,0:0:0:0:
304,208,80264,1,8,0:0:0:0:
216,192,80617,1,0,0:0:0:0:
224,200,80970,1,4,0:0:0:0:
304,200,81323,1,8,0:0:0:0:
304,200,81676,1,8,0:0:0:0:
208,200,82029,1,0,0:0:0:0:
208,200,82382,1,4,0:0:0:0:
208,200,82735,1,0,0:0:0:0:
208,200,83088,1,0,0:0:0:0:
304,192,83441,1,8,0:0:0:0:
304,200,83794,1,8,0:0:0:0:
208,192,84147,1,0,0:0:0:0:
320,208,84499,1,8,0:0:0:0:
320,208,84852,1,8,0:0:0:0:
216,192,85205,1,4,0:0:0:0:
312,200,85911,1,8,0:0:0:0:
312,200,86264,1,8,0:0:0:0:
200,192,86617,1,4,0:0:0:0:
200,208,86970,1,0,0:0:0:0:
304,200,87323,1,8,0:0:0:0:
200,208,87676,1,4,0:0:0:0:
200,208,88029,1,4,0:0:0:0:
304,192,88735,1,8,0:0:0:0:
304,192,89088,1,8,0:0:0:0:
192,192,89441,1,4,0:0:0:0:
192,192,89794,1,0,0:0:0:0:
320,200,90147,1,12,0:0:0:0:
176,192,90499,1,0,0:0:0:0:
184,192,90852,1,4,0:0:0:0:
304,192,91558,1,8,0:0:0:0:
192,200,91911,1,0,0:0:0:0:
320,192,92264,1,12,0:0:0:0:
320,192,92617,1,12,0:0:0:0:
320,192,92970,1,12,0:0:0:0:
208,200,93323,1,0,0:0:0:0:
320,192,93676,1,12,0:0:0:0:
320,192,94382,1,8,0:0:0:0:
208,192,94735,1,0,0:0:0:0:
320,192,95088,1,8,0:0:0:0:
328,192,95794,1,8,0:0:0:0:
208,192,96499,1,0,0:0:0:0:
208,192,96852,1,0,0:0:0:0:
208,192,97205,1,0,0:0:0:0:
208,192,97558,1,0,0:0:0:0:
256,192,97911,12,0,100735,0:0:0:0:
304,192,101441,5,8,0:0:0:0:
304,192,101794,1,8,0:0:0:0:
216,200,102147,1,0,0:0:0:0:
216,200,102499,1,4,0:0:0:0:
320,208,102852,1,8,0:0:0:0:
320,208,103205,1,8,0:0:0:0:
256,192,103558,12,0,106382,0:0:0:0:
320,184,107794,5,8,0:0:0:0:
320,184,108147,1,8,0:0:0:0:
320,184,108499,1,8,0:0:0:0:
200,200,108852,1,4,0:0:0:0:
320,192,109205,1,12,0:0:0:0:
