osu file format v14

[General]
AudioFilename: audio.mp3
AudioLeadIn: 0
PreviewTime: 49514
Countdown: 1
SampleSet: Normal
StackLeniency: 0.7
Mode: 1
LetterboxInBreaks: 0
WidescreenStoryboard: 1

[Editor]
Bookmarks: 40029,45676,62617,67205,68264,73911
DistanceSpacing: 0.1
BeatDivisor: 8
GridSize: 8
TimelineZoom: 2.6

[Metadata]
Title:Stressed Out
TitleUnicode:Stressed Out
Artist:Twenty One Pilots
ArtistUnicode:Twenty One Pilots
Creator:reeko66
Version:Futsuu
Source:
Tags:
BeatmapID:1279973
BeatmapSetID:589904

[Difficulty]
HPDrainRate:4
CircleSize:2
OverallDifficulty:4
ApproachRate:7
SliderMultiplier:1.4
SliderTickRate:1

[Events]
//Background and Video events
0,0,"21p-864x474.jpg",0,0
//Break Periods
2,40229,44776
2,62817,66305
2,68464,73011
//Storyboard Layer 0 (Background)
//Storyboard Layer 1 (Fail)
//Storyboard Layer 2 (Pass)
//Storyboard Layer 3 (Foreground)
//Storyboard Sound Samples

[TimingPoints]
500,352.941176470588,4,1,0,100,1,0
49911,-83.3333333333333,4,1,0,100,0,0
50617,-71.4285714285714,4,1,0,100,0,0
51323,-55.5555555555556,4,1,0,100,0,1
61205,-100,4,1,0,100,0,0

[HitObjects]
192,192,323,5,0,0:0:0:0:
192,192,500,1,4,0:0:0:0:
312,192,852,1,8,0:0:0:0:
192,192,1205,1,0,0:0:0:0:
304,192,1558,1,8,0:0:0:0:
192,192,1735,1,0,0:0:0:0:
192,192,1911,1,0,0:0:0:0:
304,192,2264,1,8,0:0:0:0:
192,192,2441,1,0,0:0:0:0:
304,192,2617,1,8,0:0:0:0:
320,192,2970,1,8,0:0:0:0:
312,192,3147,1,8,0:0:0:0:
192,208,3323,1,0,0:0:0:0:
312,192,3676,1,8,0:0:0:0:
192,208,4029,1,0,0:0:0:0:
312,208,4382,1,8,0:0:0:0:
192,208,4558,1,0,0:0:0:0:
192,200,4911,1,0,0:0:0:0:
304,208,5088,1,8,0:0:0:0:
304,208,5441,1,8,0:0:0:0:
304,208,5617,1,8,0:0:0:0:
184,200,5970,1,0,0:0:0:0:
176,208,6147,1,4,0:0:0:0:
312,200,6499,1,8,0:0:0:0:
184,208,6852,1,0,0:0:0:0:
312,200,7205,1,8,0:0:0:0:
312,200,7382,1,8,0:0:0:0:
184,208,7558,1,4,0:0:0:0:
328,200,7735,1,8,0:0:0:0:
320,200,7911,1,8,0:0:0:0:
184,208,8264,1,4,0:0:0:0:
176,200,8441,1,0,0:0:0:0:
312,216,8617,1,8,0:0:0:0:
176,200,8970,1,4,0:0:0:0:
312,192,9323,1,8,0:0:0:0:
168,176,9676,1,0,0:0:0:0:
168,176,9852,1,0,0:0:0:0:
312,208,10029,1,8,0:0:0:0:
288,200,10382,1,8,0:0:0:0:
304,200,10558,1,8,0:0:0:0:
192,192,10735,1,0,0:0:0:0:
304,200,11088,1,8,0:0:0:0:
200,208,11264,1,0,0:0:0:0:
304,200,11441,1,8,0:0:0:0:
184,208,11617,1,0,0:0:0:0:
192,200,11794,1,4,0:0:0:0:
192,200,12147,1,4,0:0:0:0:
184,200,12323,1,0,0:0:0:0:
328,200,12499,1,8,0:0:0:0:
192,192,12676,1,0,0:0:0:0:
192,208,12852,1,0,0:0:0:0:
192,200,13029,1,0,0:0:0:0:
328,200,13205,1,8,0:0:0:0:
192,200,13558,1,0,0:0:0:0:
192,200,13735,1,0,0:0:0:0:
328,200,13911,1,8,0:0:0:0:
328,200,14088,1,8,0:0:0:0:
328,200,14264,1,8,0:0:0:0:
232,192,14794,1,0,0:0:0:0:
328,200,14970,1,8,0:0:0:0:
208,208,15147,1,0,0:0:0:0:
328,200,15323,1,8,0:0:0:0:
208,208,15499,1,0,0:0:0:0:
328,200,15676,1,8,0:0:0:0:
200,208,15852,1,0,0:0:0:0:
336,200,16029,1,8,0:0:0:0:
208,208,16205,1,0,0:0:0:0:
336,200,16382,1,8,0:0:0:0:
336,200,16558,1,8,0:0:0:0:
336,200,16735,1,8,0:0:0:0:
208,208,16911,1,0,0:0:0:0:
336,200,17088,1,8,0:0:0:0:
216,224,17617,1,0,0:0:0:0:
328,208,17794,1,8,0:0:0:0:
216,224,17970,1,0,0:0:0:0:
328,208,18147,1,8,0:0:0:0:
208,216,18323,1,0,0:0:0:0:
328,208,18499,1,8,0:0:0:0:
208,208,18852,1,4,0:0:0:0:
208,200,19029,1,0,0:0:0:0:
320,208,19205,1,8,0:0:0:0:
328,208,19382,1,8,0:0:0:0:
208,200,19558,1,0,0:0:0:0:
208,200,19735,1,0,0:0:0:0:
328,216,19911,1,8,0:0:0:0:
176,208,20441,1,0,0:0:0:0:
328,208,20617,1,8,0:0:0:0:
192,208,20794,1,0,0:0:0:0:
328,208,20970,1,8,0:0:0:0:
192,208,21147,1,0,0:0:0:0:
328,208,21323,1,8,0:0:0:0:
328,208,21499,1,8,0:0:0:0:
328,208,21676,1,8,0:0:0:0:
200,208,22029,1,0,0:0:0:0:
200,208,22205,1,0,0:0:0:0:
336,200,22382,1,8,0:0:0:0:
336,200,22558,1,8,0:0:0:0:
336,200,22735,1,8,0:0:0:0:
208,192,23088,1,4,0:0:0:0:
352,200,23441,1,8,0:0:0:0:
360,192,23794,1,8,0:0:0:0:
352,200,24147,1,8,0:0:0:0:
360,200,24499,1,8,0:0:0:0:
352,200,24852,1,8,0:0:0:0:
352,200,25029,1,8,0:0:0:0:
360,200,25205,1,8,0:0:0:0:
208,192,25382,1,0,0:0:0:0:
352,200,25558,1,8,0:0:0:0:
224,200,25911,1,4,0:0:0:0:
216,192,26088,1,0,0:0:0:0:
336,200,26264,1,8,0:0:0:0:
336,200,26617,1,8,0:0:0:0:
216,192,26970,1,0,0:0:0:0:
216,192,27147,1,0,0:0:0:0:
208,200,27323,1,4,0:0:0:0:
216,192,27499,1,0,0:0:0:0:
320,200,27676,1,8,0:0:0:0:
320,200,28029,1,8,0:0:0:0:
320,200,28382,1,8,0:0:0:0:
256,192,28735,12,8,30147,0:0:0:0:
336,192,30499,5,8,0:0:0:0:
336,192,30852,1,8,0:0:0:0:
192,200,31205,1,0,0:0:0:0:
336,208,31558,1,8,0:0:0:0:
192,208,31911,1,0,0:0:0:0:
192,200,32264,1,4,0:0:0:0:
328,192,32617,1,8,0:0:0:0:
328,192,32970,1,8,0:0:0:0:
192,192,33323,1,0,0:0:0:0:
328,192,33676,1,8,0:0:0:0:
328,192,34029,1,8,0:0:0:0:
256,192,34382,12,8,35794,0:0:0:0:
328,192,36147,5,8,0:0:0:0:
192,192,36499,1,0,0:0:0:0:
328,192,36852,1,8,0:0:0:0:
328,192,37205,1,8,0:0:0:0:
200,192,37558,1,4,0:0:0:0:
344,192,37911,1,8,0:0:0:0:
208,200,38264,1,0,0:0:0:0:
208,200,38441,1,0,0:0:0:0:
200,208,38617,1,4,0:0:0:0:
320,192,38970,1,8,0:0:0:0:
320,192,39147,1,8,0:0:0:0:
200,192,39323,1,0,0:0:0:0:
200,192,39499,1,0,0:0:0:0:
312,192,39676,1,8,0:0:0:0:
304,192,39852,1,8,0:0:0:0:
200,192,40029,1,4,0:0:0:0:
192,200,45676,5,4,0:0:0:0:
336,200,46382,1,8,0:0:0:0:
184,192,47088,1,4,0:0:0:0:
320,200,47441,1,8,0:0:0:0:
320,200,47794,1,8,0:0:0:0:
200,200,48147,1,0,0:0:0:0:
200,200,48323,1,0,0:0:0:0:
200,200,48499,1,4,0:0:0:0:
304,192,48852,1,8,0:0:0:0:
304,192,49205,1,8,0:0:0:0:
184,200,49558,1,0,0:0:0:0:
184,200,49911,1,4,0:0:0:0:
192,192,50264,1,4,0:0:0:0:
184,200,50617,1,4,0:0:0:0:
192,192,50970,1,4,0:0:0:0:
320,200,51323,1,12,0:0:0:0:
200,192,51676,1,4,0:0:0:0:
320,192,52029,1,12,0:0:0:0:
200,192,52382,1,4,0:0:0:0:
320,192,52735,1,12,0:0:0:0:
320,192,53088,1,12,0:0:0:0:
320,192,53441,1,12,0:0:0:0:
200,192,53794,1,4,0:0:0:0:
200,192,54147,1,4,0:0:0:0:
200,192,54499,1,4,0:0:0:0:
304,200,54852,1,12,0:0:0:0:
200,192,55205,1,4,0:0:0:0:
200,192,55558,1,4,0:0:0:0:
328,192,55911,1,12,0:0:0:0:
328,192,56264,1,12,0:0:0:0:
200,192,56617,1,4,0:0:0:0:
200,192,56970,1,4,0:0:0:0:
200,192,57323,1,4,0:0:0:0:
200,192,57676,1,4,0:0:0:0:
328,192,58029,1,12,0:0:0:0:
328,192,58382,1,12,0:0:0:0:
200,200,58558,1,4,0:0:0:0:
328,192,58735,1,12,0:0:0:0:
200,200,58911,1,4,0:0:0:0:
328,192,59088,1,12,0:0:0:0:
192,200,59441,1,4,0:0:0:0:
192,200,59794,1,4,0:0:0:0:
192,200,60147,1,0,0:0:0:0:
256,192,60499,12,0,61205,0:0:0:0:
336,192,61911,5,8,0:0:0:0:
336,192,62264,1,8,0:0:0:0:
336,200,62617,1,12,0:0:0:0:
200,200,67205,5,4,0:0:0:0:
200,200,67558,1,4,0:0:0:0:
320,192,67911,1,12,0:0:0:0:
320,192,68264,1,12,0:0:0:0:
176,192,73911,5,4,0:0:0:0:
168,192,74088,1,0,0:0:0:0:
176,192,74264,1,4,0:0:0:0:
320,200,74617,1,8,0:0:0:0:
320,200,74970,1,8,0:0:0:0:
200,192,75323,1,4,0:0:0:0:
200,192,75499,1,0,0:0:0:0:
320,200,75676,1,8,0:0:0:0:
320,200,75852,1,8,0:0:0:0:
320,200,76029,1,8,0:0:0:0:
320,200,76382,1,8,0:0:0:0:
208,200,76735,1,4,0:0:0:0:
216,192,77088,1,0,0:0:0:0:
216,200,77264,1,0,0:0:0:0:
328,192,77441,1,8,0:0:0:0:
200,200,77617,1,0,0:0:0:0:
328,192,77794,1,8,0:0:0:0:
200,200,77970,1,0,0:0:0:0:
328,192,78147,1,12,0:0:0:0:
200,208,78499,1,0,0:0:0:0:
200,208,78676,1,0,0:0:0:0:
336,200,78852,1,8,0:0:0:0:
336,200,79029,1,8,0:0:0:0:
336,200,79205,1,8,0:0:0:0:
192,200,79558,1,4,0:0:0:0:
192,208,79911,1,0,0:0:0:0:
192,208,80088,1,0,0:0:0:0:
336,192,80264,1,8,0:0:0:0:
184,192,80441,1,0,0:0:0:0:
336,192,80617,1,8,0:0:0:0:
184,200,80970,1,4,0:0:0:0:
184,192,81323,1,0,0:0:0:0:
184,200,81499,1,0,0:0:0:0:
320,192,81676,1,8,0:0:0:0:
320,192,82029,1,8,0:0:0:0:
184,192,82205,1,0,0:0:0:0:
320,192,82382,1,8,0:0:0:0:
320,192,82735,1,8,0:0:0:0:
320,192,82911,1,8,0:0:0:0:
184,192,83088,1,0,0:0:0:0:
192,200,83441,1,0,0:0:0:0:
192,200,83617,1,0,0:0:0:0:
184,200,83794,1,4,0:0:0:0:
192,208,83970,1,0,0:0:0:0:
328,208,84147,1,8,0:0:0:0:
192,200,84323,1,0,0:0:0:0:
336,208,84499,1,8,0:0:0:0:
336,208,84852,1,8,0:0:0:0:
208,192,85205,1,4,0:0:0:0:
208,200,85558,1,0,0:0:0:0:
200,200,85735,1,0,0:0:0:0:
312,200,85911,1,8,0:0:0:0:
208,200,86088,1,0,0:0:0:0:
328,192,86264,1,8,0:0:0:0:
224,200,86441,1,0,0:0:0:0:
328,200,86617,1,8,0:0:0:0:
328,200,86794,1,8,0:0:0:0:
216,200,86970,1,0,0:0:0:0:
216,200,87147,1,0,0:0:0:0:
336,208,87323,1,8,0:0:0:0:
328,200,87499,1,8,0:0:0:0:
224,192,87676,1,0,0:0:0:0:
216,200,88029,1,4,0:0:0:0:
216,200,88382,1,0,0:0:0:0:
216,200,88558,1,0,0:0:0:0:
320,200,88735,1,8,0:0:0:0:
224,208,88911,1,0,0:0:0:0:
328,192,89088,1,8,0:0:0:0:
216,200,89441,1,0,0:0:0:0:
216,208,89617,1,0,0:0:0:0:
320,200,89794,1,8,0:0:0:0:
320,200,89970,1,8,0:0:0:0:
208,216,90147,1,0,0:0:0:0:
208,216,90323,1,0,0:0:0:0:
200,200,90499,1,4,0:0:0:0:
200,200,90852,1,4,0:0:0:0:
200,208,91029,1,0,0:0:0:0:
200,208,91205,1,0,0:0:0:0:
328,200,91558,1,8,0:0:0:0:
192,216,91735,1,0,0:0:0:0:
328,200,91911,1,8,0:0:0:0:
312,192,92264,1,12,0:0:0:0:
320,192,92441,1,12,0:0:0:0:
192,200,92617,1,4,0:0:0:0:
328,184,92970,1,12,0:0:0:0:
192,200,93323,1,0,0:0:0:0:
192,200,93499,1,0,0:0:0:0:
192,200,93676,1,4,0:0:0:0:
184,200,93852,1,0,0:0:0:0:
200,192,94029,1,4,0:0:0:0:
328,192,94382,1,8,0:0:0:0:
208,200,94558,1,0,0:0:0:0:
328,192,94735,1,8,0:0:0:0:
328,192,94911,1,8,0:0:0:0:
200,200,95088,1,0,0:0:0:0:
200,200,95264,1,0,0:0:0:0:
336,192,95441,1,8,0:0:0:0:
200,200,95617,1,0,0:0:0:0:
200,200,95794,1,0,0:0:0:0:
344,200,96147,1,8,0:0:0:0:
344,200,96323,1,8,0:0:0:0:
344,200,96499,1,8,0:0:0:0:
192,200,96852,1,4,0:0:0:0:
192,200,97205,1,4,0:0:0:0:
192,200,97558,1,4,0:0:0:0:
256,192,97911,12,4,99323,0:0:0:0:
312,192,99676,5,8,0:0:0:0:
312,192,100029,1,8,0:0:0:0:
200,208,100205,1,0,0:0:0:0:
320,200,100382,1,8,0:0:0:0:
208,200,100735,1,4,0:0:0:0:
208,200,101088,1,4,0:0:0:0:
208,200,101441,1,0,0:0:0:0:
208,200,101617,1,0,0:0:0:0:
328,208,101794,1,8,0:0:0:0:
200,216,102147,1,4,0:0:0:0:
200,216,102323,1,4,0:0:0:0:
336,208,102499,1,8,0:0:0:0:
336,208,102852,1,8,0:0:0:0:
336,208,103029,1,8,0:0:0:0:
224,208,103205,1,4,0:0:0:0:
256,192,103558,12,0,104970,0:0:0:0:
336,200,105323,5,8,0:0:0:0:
336,200,105676,1,8,0:0:0:0:
176,200,105852,1,0,0:0:0:0:
328,208,106029,1,8,0:0:0:0:
184,200,106205,1,0,0:0:0:0:
328,208,106382,1,8,0:0:0:0:
192,200,106735,1,0,0:0:0:0:
192,200,106911,1,0,0:0:0:0:
320,200,107088,1,8,0:0:0:0:
320,200,107264,1,8,0:0:0:0:
176,208,107441,1,0,0:0:0:0:
176,208,107617,1,0,0:0:0:0:
320,200,107794,1,8,0:0:0:0:
168,216,108147,1,4,0:0:0:0:
168,216,108499,1,4,0:0:0:0:
168,216,108852,1,4,0:0:0:0:
168,216,109205,1,4,0:0:0:0:
