osu file format v14

[General]
AudioFilename: audio.mp3
AudioLeadIn: 0
PreviewTime: 49586
Countdown: 0
SampleSet: Soft
StackLeniency: 0.7
Mode: 2
LetterboxInBreaks: 0
WidescreenStoryboard: 0

[Editor]
DistanceSpacing: 0.8
BeatDivisor: 4
GridSize: 32
TimelineZoom: 1

[Metadata]
Title:Stressed Out
TitleUnicode:Stressed Out
Artist:twenty one pilots
ArtistUnicode:twenty one pilots
Creator:Secre
Version:Good Old Days
Source:
Tags:chickenbible english rock 21 blurryface alternative
BeatmapID:3835644
BeatmapSetID:1864922

[Difficulty]
HPDrainRate:4
CircleSize:3.8
OverallDifficulty:8.3
ApproachRate:8.3
SliderMultiplier:1.6
SliderTickRate:2

[Events]
//Background and Video events
0,0,"blurryface is what i have after watching kronii sandwich stream.jpg",0,0
//Break Periods
//Storyboard Layer 0 (Background)
//Storyboard Layer 1 (Fail)
//Storyboard Layer 2 (Pass)
//Storyboard Layer 3 (Foreground)
//Storyboard Layer 4 (Overlay)
//Storyboard Sound Samples

[TimingPoints]
562,352.941176470588,4,2,1,50,1,0
10410,352.941176470588,4,2,1,70,1,0
40057,-100,4,2,1,55,0,0
45704,-100,4,2,1,65,0,0
50645,-100,4,2,1,75,0,0
51351,-100,4,2,1,85,0,1
61233,-100,4,2,1,50,0,0
73939,-100,4,2,1,65,0,0
96527,-100,4,2,1,30,0,0
96880,-100,4,2,1,40,0,0
97233,-100,4,2,1,50,0,0
97586,-100,4,2,1,60,0,0
97939,-100,4,2,1,70,0,0
109233,-100,4,2,1,55,0,0
114880,-100,4,2,1,65,0,0
119821,-100,4,2,1,75,0,0
120527,-100,4,2,1,85,0,1
131821,-100,4,2,1,70,0,0
143115,-100,4,2,1,85,0,0
154409,-100,4,2,1,55,0,0
160057,-100,4,2,1,65,0,0
164998,-100,4,2,1,75,0,0
165704,-100,4,2,1,85,0,1
175586,-100,4,2,1,55,0,0
176998,-100,4,2,1,65,0,0
188292,-100,4,2,1,55,0,0
196762,-100,4,2,1,65,0,0

[Colours]
Combo1 : 70,190,236
Combo2 : 104,122,244

[HitObjects]
256,192,10410,12,0,11468,0:0:0:0:
312,102,11821,6,0,P|369:131|298:170,1,160,0|0,3:0|0:0,0:0:0:0:
59,222,12527,1,8,0:0:0:0:
59,222,12880,1,0,0:0:0:0:
152,215,13057,1,0,3:0:0:0:
319,199,13233,5,0,3:0:0:0:
183,116,13586,1,0,3:0:0:0:
463,93,13939,2,0,L|464:264,1,160,8|0,0:0|0:0,0:0:0:0:
376,272,14468,1,0,3:0:0:0:
191,244,14645,6,0,P|127:215|199:95,1,240,0|0,3:0|0:0,0:0:0:0:
343,78,15351,1,8,0:0:0:0:
195,128,15704,1,0,0:0:0:0:
118,127,15880,1,0,3:0:0:0:
276,118,16057,5,0,3:0:0:0:
129,189,16409,1,0,3:0:0:0:
404,214,16762,1,8,0:0:0:0:
404,214,16939,1,2,0:0:0:0:
253,209,17115,2,0,L|254:95,1,80,2|0,0:0|0:0,0:0:0:0:
420,103,17468,6,0,P|470:115|416:177,1,160,0|0,3:0|0:0,0:0:0:0:
129,189,18174,1,8,0:0:0:0:
281,134,18527,1,0,0:0:0:0:
355,127,18704,1,0,3:0:0:0:
196,74,18880,6,0,L|20:73,1,160,0|0,3:0|3:0,0:0:0:0:
292,90,19586,2,0,L|287:260,1,160,8|0,0:0|0:0,0:0:0:0:
191,273,20115,1,0,3:0:0:0:
24,196,20292,6,0,L|20:21,1,160,0|0,3:0|0:0,0:0:0:0:
288,108,20998,2,0,L|102:102,1,160,8|0,0:0|0:0,0:0:0:0:
220,184,21527,1,0,3:0:0:0:
388,193,21704,6,0,L|389:23,1,160,0|0,3:0|3:0,0:0:0:0:
113,66,22409,1,8,0:0:0:0:
113,66,22586,1,2,0:0:0:0:
273,71,22762,1,2,0:0:0:0:
19,120,23115,5,0,3:0:0:0:
177,115,23468,1,0,0:0:0:0:
461,118,23821,1,8,0:0:0:0:
312,110,24174,1,0,0:0:0:0:
388,115,24351,1,0,3:0:0:0:
229,119,24527,6,0,L|229:287,1,160,0|0,3:0|3:0,0:0:0:0:
485,282,25233,1,8,0:0:0:0:
331,248,25586,1,0,0:0:0:0:
257,237,25762,1,0,3:0:0:0:
90,192,25939,5,0,3:0:0:0:
238,160,26292,1,0,0:0:0:0:
9,160,26645,2,0,L|6:-16,1,160,8|0,0:0|0:0,0:0:0:0:
96,13,27174,1,0,3:0:0:0:
285,36,27351,5,0,3:0:0:0:
136,22,27704,1,0,3:0:0:0:
439,72,28057,1,8,0:0:0:0:
364,70,28233,1,2,0:0:0:0:
201,68,28409,2,0,L|86:67,1,80,2|0,0:0|0:0,0:0:0:0:
401,77,28762,6,0,P|448:85|380:197,1,240,0|0,3:0|0:0,0:0:0:0:
237,256,29468,2,0,L|235:71,1,160,8|0,0:0|0:0,0:0:0:0:
318,81,29998,1,0,3:0:0:0:
156,159,30174,6,0,P|105:147|174:127,1,160,0|0,3:0|3:0,0:0:0:0:
453,183,30880,2,0,L|338:182,1,80,8|0,0:0|0:0,0:0:0:0:
453,183,31233,2,0,L|454:295,1,80,0|0,0:0|3:0,0:0:0:0:
286,283,31586,6,0,L|126:279,1,160,0|0,3:0|0:0,0:0:0:0:
286,283,32292,2,0,L|446:279,1,160,8|0,0:0|0:0,0:0:0:0:
353,210,32821,1,0,3:0:0:0:
188,193,32998,6,0,L|185:18,1,160,0|0,3:0|3:0,0:0:0:0:
436,26,33704,1,8,0:0:0:0:
436,26,33880,1,2,0:0:0:0:
268,54,34057,2,0,L|264:147,1,80,2|0,0:0|0:0,0:0:0:0:
500,154,34409,6,0,P|506:211|351:285,1,240,0|0,3:0|0:0,0:0:0:0:
211,213,35115,2,0,L|389:216,1,160,8|0,0:0|0:0,0:0:0:0:
287,138,35645,1,0,3:0:0:0:
116,253,35821,6,0,L|117:64,1,160,0|0,3:0|3:0,0:0:0:0:
371,71,36527,1,8,0:0:0:0:
371,71,36704,1,0,0:0:0:0:
207,78,36880,1,0,0:0:0:0:
283,76,37057,1,0,3:0:0:0:
442,81,37233,6,0,L|441:252,1,160,0|0,3:0|0:0,0:0:0:0:
168,263,37939,2,0,L|358:264,1,160,8|0,0:0|0:0,0:0:0:0:
234,195,38468,1,0,3:0:0:0:
55,188,38645,6,0,L|51:16,1,160,0|0,3:0|3:0,0:0:0:0:
307,52,39351,1,8,0:0:0:0:
220,51,39527,2,0,L|130:53,1,80,2|2,0:0|0:0,0:0:0:0:
436,130,40057,5,0,3:0:0:0:
191,204,40939,2,0,L|275:191,2,80
348,158,41468,6,0,P|393:178|335:241,1,160,0|0,3:0|0:0,0:0:0:0:
66,248,42174,2,0,L|61:53,1,160
362,67,42880,5,0,3:0:0:0:
133,78,43939,2,0,L|126:192,1,80
295,170,44292,6,0,L|470:169,1,160,0|0,3:0|0:0,0:0:0:0:
234,93,44998,2,0,P|171:92|91:253,1,240
251,228,45704,6,0,L|426:230,1,160,0|0,3:0|0:0,0:0:0:0:
331,157,46233,1,0,3:0:0:0:
410,229,46409,1,8,0:0:0:0:
251,108,46762,2,0,L|147:108,1,80
335,98,47115,6,0,P|382:99|425:212,1,160,0|0,3:0|0:0,0:0:0:0:
164,220,47821,2,0,L|-11:220,1,160,8|0,0:0|3:0,0:0:0:0:
83,155,48351,1,0,3:0:0:0:
242,162,48527,5,0,3:0:0:0:
83,155,48880,1,0,0:0:0:0:
160,158,49057,1,0,3:0:0:0:
324,163,49233,2,0,L|491:161,1,160,8|0,0:0|0:0,0:0:0:0:
192,258,49939,6,0,L|365:256,1,160,0|0,3:0|0:0,0:0:0:0:
83,208,50645,1,8,0:0:0:0:
39,206,50733,1,8,0:0:0:0:
14,173,50821,1,8,0:0:0:0:
45,141,50909,1,8,0:0:0:0:
87,135,50997,1,0,3:0:0:0:
169,131,51174,1,0,3:0:0:0:
439,128,51351,6,0,L|264:127,2,160,4|0|8,3:0|3:0|0:0,0:0:0:0:
483,138,52145,2,0,L|483:185,1,40,8|8,0:0|0:0,0:0:0:0:
324,230,52409,2,0,L|241:223,1,80,8|0,0:0|0:0,0:0:0:0:
495,270,52762,6,0,L|497:89,1,160,0|0,3:0|3:0,0:0:0:0:
233,94,53468,1,8,0:0:0:0:
272,94,53556,1,8,0:0:0:0:
312,94,53644,1,8,0:0:0:0:
352,94,53732,1,8,0:0:0:0:
392,94,53820,1,8,0:0:0:0:
392,94,53998,1,0,0:0:0:0:
151,213,54174,6,0,P|89:197|61:97,2,160,0|0|8,3:0|3:0|0:0,0:0:0:0:
206,176,54968,1,8,0:0:0:0:
151,213,55057,1,8,0:0:0:0:
296,213,55233,2,0,L|384:211,1,80,8|0,0:0|0:0,0:0:0:0:
129,269,55586,6,0,L|129:94,1,160,0|0,3:0|3:0,0:0:0:0:
402,103,56292,1,8,0:0:0:0:
362,101,56380,1,8,0:0:0:0:
322,100,56468,1,8,0:0:0:0:
282,98,56556,1,8,0:0:0:0:
242,97,56644,1,8,0:0:0:0:
322,100,56821,1,0,0:0:0:0:
80,203,56998,6,0,L|262:203,2,160,0|0|8,3:0|3:0|0:0,0:0:0:0:
36,163,57792,1,8,0:0:0:0:
80,203,57880,1,8,0:0:0:0:
249,203,58057,2,0,L|133:203,1,80,8|0,0:0|0:0,0:0:0:0:
414,285,58409,6,0,L|416:99,1,160,0|0,3:0|3:0,0:0:0:0:
136,84,59115,1,8,0:0:0:0:
174,75,59203,1,8,0:0:0:0:
220,87,59291,1,8,0:0:0:0:
248,119,59379,1,8,0:0:0:0:
250,166,59467,1,8,0:0:0:0:
163,165,59645,1,0,0:0:0:0:
446,224,59821,6,0,L|446:48,1,160,0|0,3:0|3:0,0:0:0:0:
357,41,60351,1,0,0:0:0:0:
114,48,60527,2,0,L|44:50,2,40,8|8|8,0:0|0:0|0:0,0:0:0:0:
270,143,60880,2,0,L|361:148,1,80,8|0,0:0|0:0,0:0:0:0:
186,237,61233,6,0,P|131:211|190:153,1,160,0|0,3:0|0:0,0:0:0:0:
339,140,61939,2,0,L|499:141,1,160
419,199,62468,1,0,0:0:0:0:
175,178,62645,5,0,3:0:0:0:
256,192,62998,12,0,65468,3:0:0:0:
384,179,67233,5,0,3:0:0:0:
119,150,67586,1,8,0:0:0:0:
119,150,67762,1,2,0:0:0:0:
277,151,67939,2,0,L|387:150,1,80,2|0,0:0|0:0,0:0:0:0:
113,223,68292,5,0,3:0:0:0:
256,192,68645,12,0,71115,3:0:0:0:
169,252,72527,6,0,L|167:67,1,160,0|0,3:0|3:0,0:0:0:0:
429,81,73233,1,8,0:0:0:0:
429,81,73409,1,2,0:0:0:0:
268,127,73586,2,0,L|179:123,1,80,2|0,0:0|0:0,0:0:0:0:
432,234,73939,6,0,P|476:224|428:154,1,160,0|0,3:0|0:0,0:0:0:0:
181,137,74645,2,0,L|356:140,1,160,8|0,0:0|0:0,0:0:0:0:
77,271,75351,6,0,L|77:84,1,160,0|0,3:0|3:0,0:0:0:0:
319,122,76057,2,0,L|127:119,1,160,8|0,0:0|0:0,0:0:0:0:
425,237,76762,6,0,P|466:226|414:152,1,160,0|0,3:0|0:0,0:0:0:0:
148,183,77468,2,0,P|99:163|156:104,1,160,8|0,0:0|0:0,0:0:0:0:
411,180,78174,6,0,L|239:182,1,160,0|0,3:0|3:0,0:0:0:0:
499,85,78880,1,8,0:0:0:0:
499,85,79057,1,0,3:0:0:0:
338,80,79233,2,0,L|428:82,1,80,2|0,0:0|0:0,0:0:0:0:
165,222,79586,6,0,P|109:220|77:313,1,160,0|0,3:0|0:0,0:0:0:0:
344,287,80292,2,0,L|508:279,1,160,8|0,0:0|0:0,0:0:0:0:
229,146,80998,6,0,L|49:146,1,160,0|0,3:0|3:0,0:0:0:0:
333,169,81704,2,0,P|389:169|437:273,1,160,8|0,0:0|0:0,0:0:0:0:
168,256,82409,6,0,L|366:258,1,160,0|0,3:0|0:0,0:0:0:0:
51,249,83115,2,0,L|50:60,1,160,8|0,0:0|0:0,0:0:0:0:
325,129,83821,6,0,L|156:126,1,160,0|0,3:0|3:0,0:0:0:0:
436,53,84527,1,8,0:0:0:0:
128,227,85233,6,0,P|81:210|146:152,1,160,0|0,3:0|0:0,0:0:0:0:
396,253,85939,2,0,L|401:78,1,160,8|0,0:0|0:0,0:0:0:0:
309,66,86468,1,0,0:0:0:0:
140,67,86645,6,0,P|71:81|47:181,1,160,0|0,3:0|3:0,0:0:0:0:
296,170,87351,2,0,L|460:169,1,160,8|0,0:0|0:0,0:0:0:0:
183,279,88057,6,0,L|181:108,1,160,0|0,3:0|0:0,0:0:0:0:
451,95,88762,2,0,L|456:274,1,160,8|0,0:0|0:0,0:0:0:0:
363,273,89292,1,0,0:0:0:0:
183,229,89468,5,0,3:0:0:0:
327,157,89821,1,0,3:0:0:0:
41,144,90174,1,8,0:0:0:0:
41,144,90351,1,0,3:0:0:0:
204,145,90527,2,0,L|301:147,1,80,2|0,0:0|0:0,0:0:0:0:
36,262,90880,6,0,L|36:94,1,160,0|0,3:0|0:0,0:0:0:0:
314,158,91586,2,0,L|139:156,1,160,8|0,0:0|0:0,0:0:0:0:
246,80,92115,1,0,0:0:0:0:
411,81,92292,6,0,L|411:256,1,160,0|0,3:0|3:0,0:0:0:0:
158,263,92998,2,0,P|117:252|171:182,1,160,8|0,0:0|0:0,0:0:0:0:
250,171,93527,1,0,0:0:0:0:
424,167,93704,6,0,P|476:147|404:97,1,160,0|0,3:0|0:0,0:0:0:0:
166,83,94409,2,0,L|2:79,1,160,8|0,0:0|0:0,0:0:0:0:
95,172,94939,1,0,0:0:0:0:
257,188,95115,6,0,P|328:192|346:278,1,160,0|0,3:0|3:0,0:0:0:0:
89,218,95821,1,8,0:0:0:0:
89,218,95998,1,0,3:0:0:0:
244,222,96174,1,2,0:0:0:0:
171,134,96527,5,0,3:0:0:0:
314,130,96880,2,0,L|218:269,1,160,0|0,3:0|3:0,0:0:0:0:
390,220,97586,1,2,0:0:0:0:
111,77,97939,6,0,P|64:85|132:197,1,240,0|0,3:0|0:0,0:0:0:0:
275,256,98645,2,0,L|277:71,1,160,8|0,0:0|0:0,0:0:0:0:
194,81,99175,1,0,3:0:0:0:
356,159,99351,6,0,P|407:147|338:127,1,160,0|0,3:0|3:0,0:0:0:0:
59,183,100057,2,0,L|174:182,1,80,8|0,0:0|0:0,0:0:0:0:
59,183,100410,2,0,L|58:295,1,80,0|0,0:0|3:0,0:0:0:0:
226,283,100763,6,0,L|386:279,1,160,0|0,3:0|0:0,0:0:0:0:
226,283,101469,2,0,L|66:279,1,160,8|0,0:0|0:0,0:0:0:0:
156,217,101998,1,0,3:0:0:0:
322,215,102175,6,0,L|325:40,1,160,0|0,3:0|3:0,0:0:0:0:
76,26,102881,1,8,0:0:0:0:
76,26,103057,1,2,0:0:0:0:
244,54,103234,2,0,L|248:147,1,80,2|0,0:0|0:0,0:0:0:0:
12,154,103586,6,0,P|6:211|161:285,1,240,0|0,3:0|0:0,0:0:0:0:
301,213,104292,2,0,L|123:216,1,160,8|0,0:0|0:0,0:0:0:0:
235,142,104822,1,0,3:0:0:0:
403,253,104998,6,0,L|402:64,1,160,0|0,3:0|3:0,0:0:0:0:
162,68,105704,1,8,0:0:0:0:
162,68,105881,1,0,0:0:0:0:
326,75,106057,1,0,0:0:0:0:
250,73,106234,1,0,3:0:0:0:
91,78,106410,6,0,L|92:249,1,160,0|0,3:0|0:0,0:0:0:0:
360,260,107116,2,0,L|170:261,1,160,8|0,0:0|0:0,0:0:0:0:
295,191,107645,1,0,3:0:0:0:
462,185,107822,6,0,L|466:13,1,160,0|0,3:0|3:0,0:0:0:0:
205,52,108528,1,8,0:0:0:0:
292,51,108704,2,0,L|382:53,1,80,2|2,0:0|0:0,0:0:0:0:
76,130,109234,5,0,3:0:0:0:
321,204,110115,2,0,L|237:191,2,80
164,158,110644,6,0,P|119:178|177:241,1,160,0|0,3:0|0:0,0:0:0:0:
446,248,111350,2,0,L|451:53,1,160
150,67,112056,5,0,3:0:0:0:
379,78,113115,2,0,L|386:192,1,80
217,170,113468,6,0,L|42:169,1,160,0|0,3:0|0:0,0:0:0:0:
278,93,114174,2,0,P|341:92|421:253,1,240
261,228,114880,6,0,L|86:230,1,160,0|0,3:0|0:0,0:0:0:0:
181,157,115409,1,0,3:0:0:0:
102,229,115585,1,8,0:0:0:0:
261,108,115938,2,0,L|365:108,1,80
177,98,116291,6,0,P|130:99|87:212,1,160,0|0,3:0|0:0,0:0:0:0:
348,220,116997,2,0,L|523:220,1,160,8|0,0:0|3:0,0:0:0:0:
429,155,117527,1,0,3:0:0:0:
270,162,117703,5,0,3:0:0:0:
429,155,118056,1,0,0:0:0:0:
352,158,118233,1,0,3:0:0:0:
188,163,118409,2,0,L|21:161,1,160,8|0,0:0|0:0,0:0:0:0:
320,258,119115,6,0,L|147:256,1,160,0|0,3:0|0:0,0:0:0:0:
429,208,119821,1,8,0:0:0:0:
473,206,119909,1,8,0:0:0:0:
498,173,119997,1,8,0:0:0:0:
467,141,120085,1,8,0:0:0:0:
425,135,120173,1,0,3:0:0:0:
343,131,120350,1,0,3:0:0:0:
58,127,120527,6,0,L|233:126,2,160,4|0|8,3:0|3:0|0:0,0:0:0:0:
3,136,121321,2,0,L|3:183,1,40,8|8,0:0|0:0,0:0:0:0:
182,226,121585,2,0,L|271:223,1,80,8|0,0:0|0:0,0:0:0:0:
17,270,121938,6,0,L|15:89,1,160,0|0,3:0|3:0,0:0:0:0:
279,94,122644,1,8,0:0:0:0:
240,94,122732,1,8,0:0:0:0:
200,94,122820,1,8,0:0:0:0:
160,94,122908,1,8,0:0:0:0:
120,94,122998,1,8,0:0:0:0:
120,94,123174,1,0,0:0:0:0:
361,213,123350,6,0,P|423:197|451:97,2,160,0|0|8,3:0|3:0|0:0,0:0:0:0:
306,176,124144,1,8,0:0:0:0:
361,213,124233,1,8,0:0:0:0:
216,213,124409,2,0,L|128:211,1,80,8|0,0:0|0:0,0:0:0:0:
383,269,124762,6,0,L|383:94,1,160,0|0,3:0|3:0,0:0:0:0:
110,103,125468,1,8,0:0:0:0:
150,101,125556,1,8,0:0:0:0:
190,100,125644,1,8,0:0:0:0:
230,98,125732,1,8,0:0:0:0:
270,97,125820,1,8,0:0:0:0:
190,100,125997,1,0,0:0:0:0:
432,203,126174,6,0,L|250:203,2,160,0|0|8,3:0|3:0|0:0,0:0:0:0:
476,163,126968,1,8,0:0:0:0:
432,203,127056,1,8,0:0:0:0:
263,203,127233,2,0,L|379:203,1,80,8|0,0:0|0:0,0:0:0:0:
98,285,127585,6,0,L|96:99,1,160,0|0,3:0|3:0,0:0:0:0:
376,84,128291,1,8,0:0:0:0:
338,75,128379,1,8,0:0:0:0:
292,87,128467,1,8,0:0:0:0:
264,119,128557,1,8,0:0:0:0:
262,166,128645,1,8,0:0:0:0:
349,165,128821,1,0,0:0:0:0:
66,224,128997,6,0,L|66:48,1,160,0|0,3:0|3:0,0:0:0:0:
155,41,129527,1,0,0:0:0:0:
398,48,129703,2,0,L|468:50,2,40,8|8|8,0:0|0:0|0:0,0:0:0:0:
242,143,130056,2,0,L|151:148,1,80,8|0,0:0|0:0,0:0:0:0:
326,237,130409,6,0,P|381:211|322:153,1,160,0|0,3:0|0:0,0:0:0:0:
173,140,131115,2,0,L|13:141,1,160
93,199,131644,1,0,0:0:0:0:
337,178,131821,6,0,L|426:176,1,80,0|0,3:0|0:0,0:0:0:0:
260,105,132174,2,0,L|156:103,1,80,0|0,3:0|0:0,0:0:0:0:
341,100,132527,2,0,L|340:294,1,160,2|0,0:0|3:0,0:0:0:0:
264,278,133057,1,0,3:0:0:0:
96,197,133233,6,0,L|96:98,1,80,0|0,3:0|0:0,0:0:0:0:
259,99,133586,2,0,L|345:100,1,80,0|0,3:0|0:0,0:0:0:0:
178,125,133939,2,0,L|181:297,1,160,2|0,0:0|3:0,0:0:0:0:
261,276,134468,1,0,0:0:0:0:
98,157,134645,6,0,L|95:268,1,80,0|0,3:0|0:0,0:0:0:0:
178,106,134998,2,0,L|271:106,1,80,0|0,3:0|0:0,0:0:0:0:
99,226,135351,2,0,L|98:118,1,80,2|0,0:0|0:0,0:0:0:0:
254,130,135704,2,0,L|137:131,1,80,0|0,3:0|3:0,0:0:0:0:
334,93,136057,6,0,L|430:90,1,80,0|0,3:0|0:0,0:0:0:0:
334,93,136409,2,0,L|219:92,1,80,0|0,3:0|0:0,0:0:0:0:
411,229,136762,1,2,0:0:0:0:
411,229,137115,2,0,L|306:229,1,80,0|0,3:0|0:0,0:0:0:0:
86,225,137468,6,0,L|86:130,1,80,0|0,3:0|0:0,0:0:0:0:
242,123,137821,2,0,L|346:127,1,80,0|0,3:0|0:0,0:0:0:0:
164,55,138174,2,0,L|164:169,1,80,2|0,0:0|0:0,0:0:0:0:
246,58,138527,2,0,L|248:156,1,80,0|0,3:0|3:0,0:0:0:0:
86,195,138880,6,0,L|169:193,1,80,0|0,3:0|0:0,0:0:0:0:
331,182,139233,2,0,L|336:79,1,80,0|0,3:0|0:0,0:0:0:0:
172,62,139586,2,0,P|117:63|84:165,1,160,2|0,0:0|3:0,0:0:0:0:
157,159,140115,1,0,0:0:0:0:
403,174,140292,6,0,L|406:356,1,160,0|0,3:0|3:0,0:0:0:0:
243,268,140821,2,0,L|151:261,1,80,0|2,0:0|0:0,0:0:0:0:
319,175,141174,2,0,L|404:173,1,80,0|0,0:0|3:0,0:0:0:0:
107,202,141704,6,0,L|103:106,1,80,0|0,3:0|0:0,0:0:0:0:
185,83,142057,2,0,L|186:192,1,80,0|0,3:0|3:0,0:0:0:0:
22,235,142409,2,0,L|21:41,1,160,2|2,0:0|0:0,0:0:0:0:
455,173,143115,6,0,L|457:289,1,80,0|0,3:0|0:0,0:0:0:0:
297,269,143468,2,0,L|202:267,1,80,0|0,3:0|3:0,0:0:0:0:
380,286,143821,2,0,L|381:99,1,160,8|8,0:0|0:0,0:0:0:0:
300,110,144351,1,0,3:0:0:0:
137,128,144527,6,0,L|134:221,1,80,0|8,3:0|0:0,0:0:0:0:
296,218,144880,2,0,L|395:217,1,80,0|0,3:0|0:0,0:0:0:0:
214,197,145233,2,0,P|170:173|227:106,1,160,8|2,0:0|0:0,0:0:0:0:
301,89,145762,1,0,0:0:0:0:
64,203,145939,6,0,L|61:108,1,80,0|0,3:0|0:0,0:0:0:0:
229,100,146292,2,0,L|316:102,1,80,0|0,3:0|3:0,0:0:0:0:
149,100,146645,2,0,L|149:192,1,80,8|0,0:0|0:0,0:0:0:0:
233,210,146998,2,0,L|331:213,1,80,8|0,0:0|3:0,0:0:0:0:
146,150,147351,6,0,L|146:63,1,80,0|8,3:0|0:0,0:0:0:0:
305,68,147704,2,0,L|392:68,1,80,0|0,3:0|0:0,0:0:0:0:
227,88,148057,2,0,L|229:262,1,160,8|2,0:0|0:0,0:0:0:0:
311,246,148586,1,0,0:0:0:0:
71,179,148762,6,0,L|69:83,1,80,0|0,3:0|0:0,0:0:0:0:
152,110,149115,2,0,L|253:110,1,80,0|0,3:0|3:0,0:0:0:0:
71,179,149468,2,0,L|166:182,1,80,8|0,0:0|0:0,0:0:0:0:
310,185,149821,2,0,L|396:187,1,80,8|0,0:0|3:0,0:0:0:0:
226,142,150174,6,0,L|225:45,1,80,0|8,3:0|0:0,0:0:0:0:
309,81,150527,2,0,L|401:82,1,80,0|0,3:0|0:0,0:0:0:0:
233,145,150880,2,0,L|140:143,1,80,8|0,0:0|0:0,0:0:0:0:
307,204,151233,2,0,L|416:202,1,80,2|0,0:0|3:0,0:0:0:0:
132,234,151586,6,0,P|92:220|156:149,1,160,0|0,3:0|3:0,0:0:0:0:
276,133,152115,1,0,3:0:0:0:
425,132,152292,1,8,0:0:0:0:
425,132,152468,1,0,0:0:0:0:
276,133,152645,1,8,0:0:0:0:
126,110,152998,6,0,L|127:226,1,80,0|8,3:0|0:0,0:0:0:0:
287,230,153351,2,0,L|377:233,1,80,0|0,3:0|3:0,0:0:0:0:
205,139,153704,2,0,L|99:140,2,80,8|0|2,0:0|3:0|0:0,0:0:0:0:
367,136,154233,1,0,0:0:0:0:
221,157,155292,6,0,L|320:154,2,80
55,214,155821,6,0,L|55:39,1,160,0|0,3:0|0:0,0:0:0:0:
278,87,156527,2,0,L|280:268,1,160
435,190,157233,5,0,3:0:0:0:
184,172,157939,1,0,0:0:0:0:
335,117,158292,2,0,L|335:222,1,80
175,229,158645,6,0,P|127:212|187:144,1,160,0|0,3:0|0:0,0:0:0:0:
458,87,159351,2,0,P|361:265|332:266,1,240
199,154,160057,6,0,P|140:153|92:257,2,160,0|0|0,3:0|0:0|0:0,0:0:0:0:
356,136,161115,2,0,L|353:244,1,80
193,263,161468,6,0,P|146:256|209:219,1,160,0|0,3:0|0:0,0:0:0:0:
344,183,162174,2,0,L|68:185,1,240
267,99,162880,6,0,L|449:96,3,160,0|0|0|0,3:0|0:0|0:0|0:0,0:0:0:0:
116,260,164292,6,0,L|111:63,1,160,0|0,3:0|3:0,0:0:0:0:
410,78,164998,1,8,0:0:0:0:
370,77,165086,1,8,0:0:0:0:
330,77,165174,1,8,0:0:0:0:
290,77,165262,1,8,0:0:0:0:
250,77,165350,1,0,3:0:0:0:
330,77,165527,1,0,3:0:0:0:
73,241,165704,6,0,P|24:216|81:155,1,160,4|0,3:0|3:0,0:0:0:0:
337,163,166409,1,8,0:0:0:0:
297,163,166497,1,8,0:0:0:0:
257,164,166585,1,8,0:0:0:0:
217,165,166673,1,8,0:0:0:0:
177,166,166761,1,8,0:0:0:0:
257,164,166939,1,0,0:0:0:0:
18,216,167115,6,0,L|19:22,1,160,0|0,3:0|3:0,0:0:0:0:
324,51,167821,1,8,0:0:0:0:
375,48,167909,1,8,0:0:0:0:
420,72,167997,1,8,0:0:0:0:
446,116,168085,1,8,0:0:0:0:
446,167,168173,1,8,0:0:0:0:
25,165,168527,6,0,L|191:165,2,160,0|0|8,3:0|3:0|0:0,0:0:0:0:
72,108,169321,1,8,0:0:0:0:
117,97,169409,1,8,0:0:0:0:
290,95,169586,2,0,L|188:96,1,80,8|0,0:0|0:0,0:0:0:0:
458,99,169939,6,0,P|465:219|465:274,1,160,0|0,3:0|3:0,0:0:0:0:
157,47,170645,1,8,0:0:0:0:
105,40,170733,1,8,0:0:0:0:
58,61,170821,1,8,0:0:0:0:
28,103,170909,1,8,0:0:0:0:
23,154,170997,1,8,0:0:0:0:
497,139,171351,6,0,L|314:140,2,160,0|0|8,3:0|3:0|0:0,0:0:0:0:
450,77,172145,1,8,0:0:0:0:
404,64,172233,1,8,0:0:0:0:
244,69,172409,2,0,L|349:65,1,80,8|0,0:0|0:0,0:0:0:0:
78,237,172762,6,0,L|76:54,1,160,0|0,3:0|3:0,0:0:0:0:
352,113,173468,1,8,0:0:0:0:
312,111,173556,1,8,0:0:0:0:
272,110,173644,1,8,0:0:0:0:
232,109,173732,1,8,0:0:0:0:
192,108,173820,1,8,0:0:0:0:
272,110,173998,1,0,0:0:0:0:
19,220,174174,6,0,L|13:37,1,160,0|0,3:0|3:0,0:0:0:0:
97,27,174704,1,0,0:0:0:0:
348,52,174880,2,0,L|408:53,2,40,8|8|8,0:0|0:0|0:0,0:0:0:0:
187,137,175233,2,0,L|78:136,1,80,8|0,0:0|0:0,0:0:0:0:
262,65,175586,6,0,P|315:68|364:166,1,160,0|0,3:0|0:0,0:0:0:0:
207,206,176292,2,0,L|371:207,1,160
287,149,176821,1,0,0:0:0:0:
45,194,176998,6,0,L|45:86,1,80,0|0,3:0|0:0,0:0:0:0:
124,114,177351,2,0,L|12:113,1,80
213,64,177704,1,8,0:0:0:0:
357,70,178057,2,0,L|450:72,1,80,0|0,0:0|3:0,0:0:0:0:
186,120,178409,6,0,L|185:222,1,80,0|0,3:0|0:0,0:0:0:0:
345,205,178762,1,0,3:0:0:0:
67,213,179115,2,0,L|65:98,1,80,8|0,0:0|0:0,0:0:0:0:
63,108,179645,1,0,3:0:0:0:
310,113,179821,6,0,L|412:115,1,80,0|0,3:0|0:0,0:0:0:0:
228,191,180174,2,0,L|138:187,1,80
307,256,180527,2,0,P|364:231|302:186,1,160,8|0,0:0|0:0,0:0:0:0:
232,182,181057,1,0,3:0:0:0:
398,187,181233,6,0,L|399:94,1,80,0|0,3:0|0:0,0:0:0:0:
236,80,181586,2,0,L|134:79,1,80,0|0,3:0|0:0,0:0:0:0:
326,78,181939,2,0,L|430:77,1,80,8|2,0:0|0:0,0:0:0:0:
405,77,182292,1,2,0:0:0:0:
133,260,182645,6,0,L|130:147,1,80,0|0,3:0|0:0,0:0:0:0:
292,152,182998,2,0,L|294:255,1,80
133,260,183351,1,8,0:0:0:0:
293,231,183704,2,0,L|296:118,1,80,0|0,0:0|3:0,0:0:0:0:
134,123,184057,6,0,L|132:226,1,80,0|0,3:0|0:0,0:0:0:0:
293,231,184410,1,0,3:0:0:0:
29,183,184762,2,0,L|27:95,1,80,8|0,0:0|0:0,0:0:0:0:
29,183,185292,1,0,3:0:0:0:
186,171,185468,6,0,L|288:172,1,80,0|0,3:0|0:0,0:0:0:0:
113,99,185821,2,0,L|116:210,1,80
281,187,186174,2,0,L|445:183,1,160,8|0,0:0|0:0,0:0:0:0:
360,122,186704,1,0,3:0:0:0:
200,117,186880,6,0,L|201:29,1,80,0|0,3:0|0:0,0:0:0:0:
357,20,187233,2,0,L|450:17,1,80,0|0,3:0|0:0,0:0:0:0:
275,182,187586,2,0,L|276:74,1,80,8|2,0:0|0:0,0:0:0:0:
441,71,187939,1,2,0:0:0:0:
163,73,188292,6,0,P|103:71|69:166,1,160,0|0,3:0|0:0,0:0:0:0:
239,228,188998,2,0,L|80:224,1,160,8|0,0:0|0:0,0:0:0:0:
170,161,189527,1,0,3:0:0:0:
338,83,189704,6,0,P|398:81|432:176,1,160,0|0,3:0|3:0,0:0:0:0:
273,212,190410,2,0,L|432:208,1,160,8|0,0:0|0:0,0:0:0:0:
138,229,191115,6,0,L|131:60,1,160,0|0,3:0|0:0,0:0:0:0:
282,49,191821,2,0,P|350:52|384:141,1,160,8|0,0:0|0:0,0:0:0:0:
297,148,192351,1,0,3:0:0:0:
125,159,192527,6,0,L|125:337,1,160,0|0,3:0|3:0,0:0:0:0:
373,244,193233,1,8,0:0:0:0:
373,244,193409,1,2,0:0:0:0:
206,145,193586,2,0,L|123:143,1,80,2|0,0:0|0:0,0:0:0:0:
295,87,193939,6,0,P|363:91|393:182,1,160,0|0,3:0|0:0,0:0:0:0:
131,216,194645,2,0,P|71:201|36:103,1,160,8|0,0:0|0:0,0:0:0:0:
128,85,195174,1,0,3:0:0:0:
296,72,195351,6,0,L|464:75,1,160,0|0,3:0|3:0,0:0:0:0:
202,187,196057,2,0,L|26:179,1,160,8|0,0:0|0:0,0:0:0:0:
454,135,196762,6,0,L|454:318,1,160,0|0,3:0|0:0,0:0:0:0:
294,243,197292,2,0,L|201:243,1,80,0|8,0:0|0:0,0:0:0:0:
376,197,197645,2,0,L|377:104,1,80
86,239,198174,6,0,L|85:59,1,160,0|0,3:0|3:0,0:0:0:0:
369,61,198880,1,8,0:0:0:0:
