osu file format v14

[General]
AudioFilename: Crow's Ghost.mp3
AudioLeadIn: 0
PreviewTime: 89237
Countdown: 0
SampleSet: None
StackLeniency: 0.7
Mode: 3
LetterboxInBreaks: 0
SpecialStyle: 0
WidescreenStoryboard: 0

[Editor]
DistanceSpacing: 0.8
BeatDivisor: 8
GridSize: 32
TimelineZoom: 2.2

[Metadata]
Title:Crow's Ghost
TitleUnicode:Crow's Ghost
Artist:Twenty Knives
ArtistUnicode:Twenty Knives
Creator:Shoegazer
Version:Insane
Source:
Tags:breakcore dnb live fast and die with a broken heart
BeatmapID:1411677
BeatmapSetID:666119

[Difficulty]
HPDrainRate:8
CircleSize:4
OverallDifficulty:8
ApproachRate:5
SliderMultiplier:1.4
SliderTickRate:1

[Events]
//Background and Video events
0,0,"333.jpg",0,0
//Break Periods
2,129858,145194
//Storyboard Layer 0 (Background)
//Storyboard Layer 1 (Fail)
//Storyboard Layer 2 (Pass)
//Storyboard Layer 3 (Foreground)
//Storyboard Sound Samples
Sample,11868,0,"drum3.wav",30
Sample,13921,0,"drum3.wav",25
Sample,15658,0,"drum2.wav",50
Sample,17237,0,"drum4.wav",40
Sample,17394,0,"drum4.wav",40
Sample,17552,0,"drum4.wav",40
Sample,17710,0,"drum4.wav",40
Sample,19368,0,"drum2.wav",25
Sample,21973,0,"drum2.wav",50
Sample,30342,0,"drum3.wav",25
Sample,31921,0,"drum2.wav",50
Sample,32237,0,"drum3.wav",25
Sample,33263,0,"drum2.wav",50
Sample,35394,0,"drum3.wav",25
Sample,36973,0,"drum2.wav",50
Sample,37289,0,"drum3.wav",25
Sample,40447,0,"drum3.wav",25
Sample,42026,0,"drum2.wav",50
Sample,45500,0,"drum2.wav",50
Sample,47079,0,"drum2.wav",50
Sample,47394,0,"drum2.wav",50
Sample,69658,0,"drum2.wav",30
Sample,70921,0,"drum2.wav",30
Sample,72184,0,"drum2.wav",30
Sample,72500,0,"kick3.wav",50
Sample,72579,0,"kick3.wav",50
Sample,73447,0,"drum2.wav",30
Sample,76289,0,"drum3.wav",25
Sample,76605,0,"drum3.wav",25
Sample,76763,0,"drum3.wav",25
Sample,77237,0,"drum3.wav",25
Sample,77394,0,"drum3.wav",25
Sample,77552,0,"drum3.wav",25
Sample,90973,0,"drum2.wav",50
Sample,92552,0,"drum3.wav",25
Sample,92868,0,"drum2.wav",50
Sample,93894,0,"drum2.wav",50
Sample,96026,0,"drum3.wav",25
Sample,97605,0,"drum2.wav",50
Sample,97921,0,"drum3.wav",25
Sample,101079,0,"drum2.wav",50
Sample,102658,0,"drum3.wav",25
Sample,102973,0,"drum3.wav",25
Sample,104000,0,"drum3.wav",25
Sample,106131,0,"drum3.wav",25
Sample,107710,0,"drum3.wav",25
Sample,108026,0,"drum2.wav",50
Sample,109210,0,"drum2.wav",50
Sample,111184,0,"drum3.wav",25
Sample,112763,0,"drum2.wav",50
Sample,113079,0,"drum3.wav",25
Sample,114105,0,"drum3.wav",25
Sample,116237,0,"drum2.wav",50
Sample,117816,0,"drum3.wav",25
Sample,118131,0,"drum2.wav",50
Sample,121289,0,"drum3.wav",25
Sample,122868,0,"drum2.wav",50
Sample,123184,0,"drum2.wav",50
Sample,124210,0,"drum3.wav",25
Sample,126342,0,"drum2.wav",50
Sample,127921,0,"drum2.wav",50
Sample,128237,0,"drum3.wav",25
Sample,129500,0,"drum3.wav",25
Sample,154447,0,"kick3.wav",65
Sample,156816,0,"drum3.wav",30
Sample,157763,0,"drum1.wav",50
Sample,158237,0,"kick3.wav",65
Sample,158868,0,"drum1.wav",80
Sample,159105,0,"drum3.wav",25
Sample,159342,0,"drum3.wav",25
Sample,159579,0,"drum3.wav",25
Sample,161631,0,"drum4.wav",40
Sample,161868,0,"drum4.wav",40
Sample,162973,0,"drum4.wav",40
Sample,163131,0,"drum2.wav",50
Sample,164237,0,"drum4.wav",50
Sample,174658,0,"kick3.wav",65
Sample,177026,0,"drum3.wav",25
Sample,177973,0,"drum3.wav",25
Sample,178447,0,"kick1.wav",50
Sample,179079,0,"drum1.wav",80
Sample,179316,0,"drum3.wav",25
Sample,179552,0,"drum1.wav",80
Sample,179789,0,"drum3.wav",25
Sample,181842,0,"drum4.wav",40
Sample,182079,0,"drum3.wav",25
Sample,183184,0,"drum3.wav",25
Sample,183342,0,"drum2.wav",50
Sample,184447,0,"drum3.wav",25

[TimingPoints]
816,315.789474,4,3,0,20,1,0
89237,-100,4,3,0,30,0,1
109447,-100,4,3,0,20,0,0
149868,-100,4,3,0,30,0,1
190289,-100,4,3,0,20,0,0

[HitObjects]
192,192,7763,5,0,0:0:0:28:drum2.wav
320,192,7842,1,0,0:0:0:29:drum2.wav
64,192,7921,1,0,0:0:0:30:drum2.wav
448,192,8000,1,0,0:0:0:31:drum2.wav
192,192,8079,1,0,0:0:0:32:drum2.wav
320,192,8158,1,0,0:0:0:33:drum2.wav
192,192,8237,1,0,0:0:0:34:drum2.wav
320,192,8316,1,0,0:0:0:35:drum2.wav
64,192,8394,1,0,0:0:0:60:kick2.wav
448,192,8552,1,0,0:0:0:30:drum3.wav
320,192,8631,1,0,0:0:0:30:drum3.wav
64,192,8710,1,0,0:0:0:30:drum3.wav
192,192,8710,1,0,0:0:0:50:drum2.wav
320,192,8868,1,0,0:0:0:60:kick2.wav
64,192,8947,1,0,0:0:0:25:drum3.wav
448,192,9026,1,0,0:0:0:25:drum3.wav
192,192,9105,1,0,0:0:0:25:drum3.wav
448,192,9184,1,0,0:0:0:25:drum3.wav
320,192,9263,1,0,0:0:0:25:drum3.wav
64,192,9342,1,0,0:0:0:50:drum2.wav
192,192,9342,1,0,0:0:0:25:drum3.wav
448,192,9539,128,0,9658:0:0:0:35:hihat1.wav
64,192,9658,1,0,0:0:0:60:kick2.wav
192,192,9855,128,0,9973:0:0:0:35:hihat1.wav
320,192,9973,1,0,0:0:0:25:drum3.wav
448,192,9973,1,0,0:0:0:50:drum2.wav
64,192,10131,1,0,0:0:0:40:drum4.wav
448,192,10210,1,0,0:0:0:37:drum4.wav
192,192,10289,1,0,0:0:0:34:drum4.wav
320,192,10368,1,0,0:0:0:31:drum4.wav
192,192,10447,1,0,0:0:0:28:drum4.wav
448,192,10526,1,0,0:0:0:25:drum4.wav
64,192,10605,128,0,10763:0:0:0:25:drum3.wav
320,192,10605,1,0,0:0:0:50:drum2.wav
192,192,10763,1,0,0:0:0:30:drum3.wav
320,192,10842,1,0,0:0:0:30:drum3.wav
64,192,10921,1,0,0:0:0:60:kick2.wav
192,192,11079,1,0,0:0:0:30:drum3.wav
320,192,11237,1,0,0:0:0:25:drum3.wav
448,192,11237,1,0,0:0:0:50:drum2.wav
64,192,11394,128,0,11552:0:0:0:50:drum2.wav
320,192,11552,1,0,0:0:0:30:drum3.wav
448,192,11631,1,0,0:0:0:30:drum3.wav
64,192,11710,1,0,0:0:0:50:drum2.wav
192,192,11710,1,0,0:0:0:25:drum3.wav
192,192,11868,128,0,12066:0:0:0:50:drum2.wav
448,192,12066,128,0,12184:0:0:0:35:hihat1.wav
64,192,12184,1,0,0:0:0:60:kick2.wav
448,192,12342,1,0,0:0:0:30:drum3.wav
320,192,12421,1,0,0:0:0:30:drum3.wav
64,192,12500,1,0,0:0:0:25:drum3.wav
192,192,12500,1,0,0:0:0:50:drum2.wav
448,192,12658,1,0,0:0:0:60:kick2.wav
320,192,12973,1,0,0:0:0:30:drum3.wav
448,192,13052,1,0,0:0:0:30:drum3.wav
64,192,13131,1,0,0:0:0:25:drum3.wav
192,192,13131,1,0,0:0:0:50:drum2.wav
448,192,13289,1,0,0:0:0:60:kick2.wav
448,192,13447,1,0,0:0:0:60:kick2.wav
192,192,13605,1,0,0:0:0:30:drum3.wav
320,192,13763,1,0,0:0:0:50:drum2.wav
448,192,13763,1,0,0:0:0:25:drum3.wav
448,192,13921,1,0,0:0:0:50:drum2.wav
192,192,14000,1,0,0:0:0:25:drum3.wav
64,192,14079,1,0,0:0:0:25:drum3.wav
320,192,14079,1,0,0:0:0:50:drum2.wav
448,192,14237,1,0,0:0:0:25:drum3.wav
192,192,14316,1,0,0:0:0:25:drum3.wav
448,192,14394,1,0,0:0:0:25:drum3.wav
320,192,14473,1,0,0:0:0:25:drum3.wav
64,192,14552,1,0,0:0:0:25:drum3.wav
192,192,14552,1,0,0:0:0:50:drum2.wav
192,192,14710,1,0,0:0:0:0:
448,192,14710,1,0,0:0:0:60:kick2.wav
64,192,14868,1,0,0:0:0:30:drum3.wav
192,192,14947,1,0,0:0:0:30:drum3.wav
320,192,15026,1,0,0:0:0:50:drum2.wav
448,192,15026,1,0,0:0:0:25:drum3.wav
192,192,15184,1,0,0:0:0:0:
448,192,15184,1,0,0:0:0:60:kick2.wav
64,192,15342,1,0,0:0:0:25:drum3.wav
320,192,15421,1,0,0:0:0:25:drum3.wav
64,192,15500,1,0,0:0:0:25:drum3.wav
448,192,15579,1,0,0:0:0:25:drum3.wav
192,192,15658,1,0,0:0:0:25:drum3.wav
320,192,15816,1,0,0:0:0:25:drum3.wav
64,192,15894,1,0,0:0:0:25:drum3.wav
192,192,15973,1,0,0:0:0:0:
448,192,15973,1,0,0:0:0:60:kick2.wav
64,192,16131,1,0,0:0:0:30:drum3.wav
320,192,16289,1,0,0:0:0:25:drum3.wav
448,192,16289,1,0,0:0:0:50:drum2.wav
64,192,16447,128,0,16500:0:0:0:60:kick2.wav
448,192,16605,1,0,0:0:0:30:drum3.wav
64,192,16763,1,0,0:0:0:0:
320,192,16763,1,0,0:0:0:60:kick2.wav
64,192,16921,1,0,0:0:0:25:drum3.wav
192,192,16921,1,0,0:0:0:50:drum2.wav
448,192,17000,1,0,0:0:0:30:drum2.wav
192,192,17079,1,0,0:0:0:30:drum2.wav
320,192,17158,1,0,0:0:0:30:drum2.wav
64,192,17237,1,0,0:0:0:50:kick3.wav
448,192,17237,1,0,0:0:0:50:kick1.wav
64,192,17394,1,0,0:0:0:50:kick1.wav
448,192,17394,1,0,0:0:0:50:kick3.wav
192,192,17552,1,0,0:0:0:50:kick3.wav
320,192,17552,1,0,0:0:0:50:kick1.wav
192,192,17710,1,0,0:0:0:50:kick1.wav
320,192,17710,1,0,0:0:0:50:kick3.wav
64,192,17868,1,0,0:0:0:30:drum3.wav
192,192,17947,1,0,0:0:0:30:drum3.wav
320,192,18026,1,0,0:0:0:50:drum2.wav
448,192,18026,1,0,0:0:0:25:drum2.wav
64,192,18184,1,0,0:0:0:50:kick1.wav
320,192,18184,1,0,0:0:0:30:drum3.wav
64,192,18421,1,0,0:0:0:0:
192,192,18500,1,0,0:0:0:0:
320,192,18500,1,0,0:0:0:60:kick2.wav
448,192,18658,1,0,0:0:0:30:drum2.wav
64,192,18816,1,0,0:0:0:25:drum2.wav
192,192,18816,1,0,0:0:0:50:drum2.wav
192,192,18973,1,0,0:0:0:60:kick2.wav
64,192,19052,1,0,0:0:0:25:drum2.wav
448,192,19131,1,0,0:0:0:25:drum2.wav
192,192,19210,1,0,0:0:0:50:drum2.wav
320,192,19210,1,0,0:0:0:25:drum2.wav
64,192,19289,1,0,0:0:0:25:drum2.wav
320,192,19368,1,0,0:0:0:50:drum2.wav
192,192,19447,1,0,0:0:0:25:drum2.wav
448,192,19447,1,0,0:0:0:50:drum2.wav
320,192,19605,1,0,0:0:0:25:drum2.wav
192,192,19684,1,0,0:0:0:25:drum2.wav
448,192,19763,1,0,0:0:0:60:kick2.wav
64,192,19842,1,0,0:0:0:25:drum2.wav
448,192,19921,1,0,0:0:0:25:drum2.wav
320,192,20000,1,0,0:0:0:25:drum2.wav
64,192,20079,1,0,0:0:0:25:drum2.wav
192,192,20079,1,0,0:0:0:50:drum2.wav
320,192,20237,1,0,0:0:0:30:drum3.wav
64,192,20316,1,0,0:0:0:30:drum3.wav
192,192,20394,1,0,0:0:0:25:drum2.wav
448,192,20394,1,0,0:0:0:50:kick1.wav
64,192,20552,1,0,0:0:0:30:drum3.wav
192,192,20631,1,0,0:0:0:30:drum3.wav
320,192,20710,1,0,0:0:0:50:drum2.wav
448,192,20710,1,0,0:0:0:25:drum3.wav
64,192,20868,1,0,0:0:0:60:kick2.wav
448,192,20868,1,0,0:0:0:50:kick3.wav
320,192,21026,1,0,0:0:0:60:kick2.wav
64,192,21184,1,0,0:0:0:30:drum3.wav
320,192,21342,1,0,0:0:0:50:drum2.wav
448,192,21342,1,0,0:0:0:25:drum3.wav
64,192,21500,1,0,0:0:0:0:
192,192,21500,1,0,0:0:0:60:kick2.wav
320,192,21579,1,0,0:0:0:0:
448,192,21579,1,0,0:0:0:60:kick2.wav
64,192,21658,1,0,0:0:0:25:drum3.wav
192,192,21658,1,0,0:0:0:50:drum2.wav
320,192,21816,1,0,0:0:0:50:drum2.wav
448,192,21816,1,0,0:0:0:25:drum3.wav
64,192,21973,1,0,0:0:0:25:drum3.wav
448,192,22052,1,0,0:0:0:30:drum2.wav
320,192,22131,1,0,0:0:0:30:drum2.wav
192,192,22210,1,0,0:0:0:30:drum2.wav
64,192,22289,1,0,0:0:0:60:kick2.wav
448,192,22289,1,0,0:0:0:60:kick2.wav
64,192,22447,1,0,0:0:0:30:drum3.wav
192,192,22526,1,0,0:0:0:30:drum3.wav
320,192,22605,1,0,0:0:0:25:drum3.wav
448,192,22605,1,0,0:0:0:50:drum2.wav
64,192,22763,1,0,0:0:0:60:kick2.wav
448,192,22842,1,0,0:0:0:25:drum3.wav
320,192,22921,1,0,0:0:0:25:drum3.wav
64,192,23000,1,0,0:0:0:25:drum3.wav
320,192,23079,1,0,0:0:0:25:drum3.wav
192,192,23158,1,0,0:0:0:25:drum3.wav
64,192,23237,1,0,0:0:0:50:drum2.wav
448,192,23237,1,0,0:0:0:25:drum3.wav
320,192,23394,1,0,0:0:0:25:drum3.wav
192,192,23552,1,0,0:0:0:0:
448,192,23552,1,0,0:0:0:60:kick2.wav
64,192,23671,128,0,23789:0:0:0:35:hihat1.wav
320,192,23868,1,0,0:0:0:30:drum3.wav
448,192,23868,1,0,0:0:0:50:drum2.wav
64,192,24026,1,0,0:0:0:25:drum3.wav
320,192,24105,1,0,0:0:0:25:drum3.wav
192,192,24184,1,0,0:0:0:25:drum3.wav
448,192,24263,1,0,0:0:0:25:drum3.wav
320,192,24342,1,0,0:0:0:25:drum3.wav
192,192,24401,128,0,24480:0:0:0:35:hihat1.wav
448,192,24500,1,0,0:0:0:25:drum3.wav
64,192,24579,1,0,0:0:0:25:drum3.wav
320,192,24658,1,0,0:0:0:50:drum2.wav
448,192,24658,1,0,0:0:0:25:drum3.wav
64,192,24816,1,0,0:0:0:0:
320,192,24816,1,0,0:0:0:60:kick2.wav
192,192,24973,1,0,0:0:0:30:drum3.wav
320,192,25131,1,0,0:0:0:50:drum2.wav
448,192,25131,1,0,0:0:0:25:drum3.wav
192,192,25289,1,0,0:0:0:0:
448,192,25289,1,0,0:0:0:60:kick2.wav
64,192,25368,1,0,0:0:0:25:drum3.wav
320,192,25447,1,0,0:0:0:25:drum3.wav
192,192,25526,1,0,0:0:0:25:drum3.wav
448,192,25605,1,0,0:0:0:25:drum3.wav
192,192,25684,1,0,0:0:0:25:drum3.wav
320,192,25763,1,0,0:0:0:50:drum2.wav
448,192,25763,1,0,0:0:0:25:drum3.wav
192,192,25921,1,0,0:0:0:25:drum3.wav
64,192,26000,1,0,0:0:0:25:drum3.wav
320,192,26079,1,0,0:0:0:60:kick2.wav
448,192,26158,1,0,0:0:0:25:drum3.wav
192,192,26237,1,0,0:0:0:25:drum3.wav
320,192,26316,1,0,0:0:0:25:drum3.wav
64,192,26394,1,0,0:0:0:25:drum3.wav
192,192,26394,1,0,0:0:0:50:drum2.wav
64,192,26552,1,0,0:0:0:60:kick2.wav
320,192,26552,1,0,0:0:0:40:drum4.wav
448,192,26710,1,0,0:0:0:40:drum4.wav
192,192,26868,1,0,0:0:0:0:
320,192,26868,1,0,0:0:0:60:kick2.wav
64,192,27026,128,0,27184:0:0:0:35:hihat1.wav
320,192,27184,1,0,0:0:0:50:drum2.wav
448,192,27184,1,0,0:0:0:25:drum3.wav
448,192,27342,1,0,0:0:0:30:drum3.wav
192,192,27421,1,0,0:0:0:30:drum3.wav
64,192,27500,1,0,0:0:0:25:drum3.wav
320,192,27500,1,0,0:0:0:50:drum2.wav
448,192,27658,1,0,0:0:0:40:drum4.wav
192,192,27737,1,0,0:0:0:40:drum4.wav
448,192,27816,1,0,0:0:0:40:drum4.wav
192,192,27894,1,0,0:0:0:40:drum4.wav
64,192,27973,1,0,0:0:0:0:
320,192,27973,1,0,0:0:0:60:kick2.wav
448,192,28131,1,0,0:0:0:40:drum4.wav
64,192,28210,1,0,0:0:0:0:
192,192,28210,1,0,0:0:0:60:kick2.wav
448,192,28368,1,0,0:0:0:40:drum4.wav
192,192,28447,1,0,0:0:0:0:
320,192,28447,1,0,0:0:0:60:kick2.wav
64,192,28605,1,0,0:0:0:50:kick1.wav
448,192,28605,1,0,0:0:0:65:kick3.wav
64,192,28921,1,0,0:0:0:25:drum3.wav
192,192,28921,1,0,0:0:0:50:drum2.wav
64,192,29079,1,0,0:0:0:50:kick1.wav
448,192,29079,1,0,0:0:0:65:kick3.wav
320,192,29394,1,0,0:0:0:25:drum3.wav
448,192,29394,1,0,0:0:0:50:drum2.wav
192,192,29552,1,0,0:0:0:30:drum3.wav
64,192,29631,1,0,0:0:0:30:drum3.wav
320,192,29710,1,0,0:0:0:0:
448,192,29710,1,0,0:0:0:50:drum2.wav
64,192,29868,1,0,0:0:0:25:drum3.wav
192,192,29947,1,0,0:0:0:25:drum3.wav
320,192,30026,1,0,0:0:0:25:drum3.wav
64,192,30105,1,0,0:0:0:25:drum3.wav
320,192,30184,1,0,0:0:0:50:drum2.wav
448,192,30184,1,0,0:0:0:25:drum3.wav
448,192,30342,1,0,0:0:0:50:drum2.wav
64,192,30500,1,0,0:0:0:25:drum3.wav
192,192,30500,1,0,0:0:0:50:drum2.wav
448,192,30658,1,0,0:0:0:25:drum3.wav
64,192,30737,1,0,0:0:0:25:drum3.wav
320,192,30816,1,0,0:0:0:25:drum3.wav
192,192,30894,1,0,0:0:0:25:drum3.wav
64,192,30973,1,0,0:0:0:50:kick1.wav
448,192,30973,1,0,0:0:0:65:kick3.wav
64,192,31131,1,0,0:0:0:65:kick3.wav
320,192,31131,1,0,0:0:0:50:kick1.wav
320,192,31447,1,0,0:0:0:50:drum2.wav
448,192,31447,1,0,0:0:0:25:drum3.wav
64,192,31605,1,0,0:0:0:30:drum3.wav
192,192,31684,1,0,0:0:0:30:drum3.wav
320,192,31763,1,0,0:0:0:25:drum3.wav
448,192,31763,1,0,0:0:0:50:drum2.wav
320,192,31921,1,0,0:0:0:25:drum3.wav
64,192,32079,1,0,0:0:0:50:kick1.wav
448,192,32079,1,0,0:0:0:65:kick3.wav
192,192,32237,1,0,0:0:0:50:drum2.wav
64,192,32394,1,0,0:0:0:65:kick3.wav
448,192,32394,1,0,0:0:0:50:kick1.wav
320,192,32552,1,0,0:0:0:50:drum2.wav
192,192,32631,1,0,0:0:0:65:kick3.wav
448,192,32631,1,0,0:0:0:50:kick1.wav
64,192,32789,1,0,0:0:0:50:drum2.wav
192,192,32868,1,0,0:0:0:50:kick1.wav
320,192,32868,1,0,0:0:0:65:kick3.wav
448,192,33026,1,0,0:0:0:50:drum2.wav
64,192,33105,1,0,0:0:0:65:kick3.wav
320,192,33105,1,0,0:0:0:50:kick1.wav
320,192,33263,1,0,0:0:0:25:drum3.wav
192,192,33342,1,0,0:0:0:25:drum3.wav
448,192,33421,1,0,0:0:0:25:drum3.wav
320,192,33500,1,0,0:0:0:25:drum3.wav
64,192,33579,1,0,0:0:0:25:drum3.wav
192,192,33579,1,0,0:0:0:50:drum2.wav
320,192,33658,1,0,0:0:0:50:kick1.wav
448,192,33658,1,0,0:0:0:65:kick3.wav
64,192,33973,1,0,0:0:0:25:drum3.wav
192,192,33973,1,0,0:0:0:50:drum2.wav
64,192,34131,1,0,0:0:0:50:kick1.wav
448,192,34131,1,0,0:0:0:65:kick3.wav
320,192,34447,1,0,0:0:0:25:drum3.wav
448,192,34447,1,0,0:0:0:50:drum2.wav
192,192,34605,1,0,0:0:0:30:drum3.wav
64,192,34684,1,0,0:0:0:30:drum3.wav
320,192,34763,1,0,0:0:0:0:
448,192,34763,1,0,0:0:0:50:drum2.wav
64,192,34921,1,0,0:0:0:25:drum3.wav
192,192,35000,1,0,0:0:0:25:drum3.wav
448,192,35079,1,0,0:0:0:25:drum3.wav
64,192,35158,1,0,0:0:0:25:drum3.wav
320,192,35237,1,0,0:0:0:50:drum2.wav
448,192,35237,1,0,0:0:0:25:drum3.wav
320,192,35394,1,0,0:0:0:50:drum2.wav
64,192,35552,1,0,0:0:0:25:drum3.wav
192,192,35552,1,0,0:0:0:50:drum2.wav
448,192,35710,1,0,0:0:0:25:drum3.wav
64,192,35789,1,0,0:0:0:25:drum3.wav
320,192,35868,1,0,0:0:0:25:drum3.wav
192,192,35947,1,0,0:0:0:25:drum3.wav
64,192,36026,1,0,0:0:0:50:kick1.wav
448,192,36026,1,0,0:0:0:65:kick3.wav
64,192,36184,1,0,0:0:0:65:kick3.wav
320,192,36184,1,0,0:0:0:50:kick1.wav
320,192,36500,1,0,0:0:0:50:drum2.wav
448,192,36500,1,0,0:0:0:25:drum3.wav
64,192,36658,1,0,0:0:0:30:drum3.wav
192,192,36737,1,0,0:0:0:30:drum3.wav
320,192,36816,1,0,0:0:0:25:drum3.wav
448,192,36816,1,0,0:0:0:50:drum2.wav
320,192,36973,1,0,0:0:0:25:drum3.wav
64,192,37131,1,0,0:0:0:65:kick3.wav
448,192,37131,1,0,0:0:0:50:kick1.wav
192,192,37289,1,0,0:0:0:50:drum2.wav
64,192,37447,1,0,0:0:0:50:kick1.wav
448,192,37447,1,0,0:0:0:65:kick3.wav
320,192,37605,1,0,0:0:0:25:drum3.wav
448,192,37684,1,0,0:0:0:25:drum3.wav
64,192,37763,1,0,0:0:0:50:drum2.wav
192,192,37763,1,0,0:0:0:25:drum3.wav
320,192,37921,1,0,0:0:0:25:drum3.wav
192,192,38000,1,0,0:0:0:25:drum3.wav
320,192,38079,1,0,0:0:0:25:drum3.wav
64,192,38158,1,0,0:0:0:25:drum3.wav
448,192,38237,1,0,0:0:0:25:drum3.wav
320,192,38316,1,0,0:0:0:25:drum3.wav
64,192,38394,1,0,0:0:0:25:drum3.wav
192,192,38394,1,0,0:0:0:50:drum2.wav
192,192,38552,1,0,0:0:0:65:kick3.wav
320,192,38552,128,0,38710:0:0:0:25:drum3.wav
64,192,38710,1,0,0:0:0:50:kick1.wav
448,192,38710,1,0,0:0:0:65:kick3.wav
64,192,39026,1,0,0:0:0:25:drum3.wav
192,192,39026,1,0,0:0:0:50:drum2.wav
64,192,39184,1,0,0:0:0:50:kick1.wav
448,192,39184,1,0,0:0:0:65:kick3.wav
320,192,39500,1,0,0:0:0:25:drum3.wav
448,192,39500,1,0,0:0:0:50:drum2.wav
192,192,39658,1,0,0:0:0:30:drum3.wav
64,192,39737,1,0,0:0:0:30:drum3.wav
320,192,39816,1,0,0:0:0:50:drum2.wav
448,192,39816,1,0,0:0:0:25:drum3.wav
64,192,39973,1,0,0:0:0:25:drum3.wav
192,192,40052,1,0,0:0:0:25:drum3.wav
320,192,40131,1,0,0:0:0:25:drum3.wav
64,192,40210,1,0,0:0:0:25:drum3.wav
320,192,40289,1,0,0:0:0:50:drum2.wav
448,192,40289,1,0,0:0:0:25:drum3.wav
448,192,40447,1,0,0:0:0:50:drum2.wav
64,192,40605,1,0,0:0:0:25:drum3.wav
192,192,40605,1,0,0:0:0:50:drum2.wav
448,192,40763,1,0,0:0:0:25:drum3.wav
64,192,40842,1,0,0:0:0:25:drum3.wav
320,192,40921,1,0,0:0:0:25:drum3.wav
192,192,41000,1,0,0:0:0:25:drum3.wav
64,192,41079,1,0,0:0:0:50:kick1.wav
448,192,41079,1,0,0:0:0:65:kick3.wav
64,192,41237,1,0,0:0:0:65:kick3.wav
320,192,41237,1,0,0:0:0:50:kick1.wav
320,192,41552,1,0,0:0:0:50:drum2.wav
448,192,41552,1,0,0:0:0:25:drum3.wav
64,192,41710,1,0,0:0:0:30:drum3.wav
192,192,41789,1,0,0:0:0:30:drum3.wav
320,192,41868,1,0,0:0:0:25:drum3.wav
448,192,41868,1,0,0:0:0:50:drum2.wav
320,192,42026,1,0,0:0:0:25:drum3.wav
64,192,42184,1,0,0:0:0:50:kick1.wav
448,192,42184,1,0,0:0:0:65:kick3.wav
192,192,42342,1,0,0:0:0:50:drum2.wav
64,192,42500,1,0,0:0:0:50:kick1.wav
448,192,42500,1,0,0:0:0:65:kick3.wav
320,192,42658,1,0,0:0:0:50:drum2.wav
192,192,42737,1,0,0:0:0:65:kick3.wav
448,192,42737,1,0,0:0:0:50:kick1.wav
64,192,42894,1,0,0:0:0:50:drum2.wav
192,192,42973,1,0,0:0:0:50:kick1.wav
320,192,42973,1,0,0:0:0:65:kick3.wav
448,192,43131,1,0,0:0:0:50:drum2.wav
64,192,43210,1,0,0:0:0:65:kick3.wav
192,192,43210,1,0,0:0:0:50:kick1.wav
448,192,43368,1,0,0:0:0:50:drum2.wav
64,192,43447,1,0,0:0:0:65:kick3.wav
320,192,43447,1,0,0:0:0:50:kick1.wav
192,192,43605,1,0,0:0:0:30:drum3.wav
320,192,43684,1,0,0:0:0:30:drum3.wav
64,192,43763,1,0,0:0:0:65:kick3.wav
448,192,43763,1,0,0:0:0:50:kick1.wav
64,192,44079,1,0,0:0:0:25:drum3.wav
192,192,44079,1,0,0:0:0:50:drum2.wav
64,192,44237,1,0,0:0:0:50:kick1.wav
448,192,44237,1,0,0:0:0:65:kick3.wav
320,192,44552,1,0,0:0:0:25:drum3.wav
448,192,44552,1,0,0:0:0:50:drum2.wav
192,192,44710,1,0,0:0:0:30:drum3.wav
64,192,44789,1,0,0:0:0:30:drum3.wav
320,192,44868,1,0,0:0:0:0:
448,192,44868,1,0,0:0:0:50:drum2.wav
64,192,45026,1,0,0:0:0:25:drum3.wav
192,192,45105,1,0,0:0:0:25:drum3.wav
448,192,45184,1,0,0:0:0:25:drum3.wav
64,192,45263,1,0,0:0:0:25:drum3.wav
320,192,45342,1,0,0:0:0:50:drum2.wav
448,192,45342,1,0,0:0:0:25:drum3.wav
320,192,45500,1,0,0:0:0:25:drum3.wav
64,192,45658,1,0,0:0:0:25:drum3.wav
192,192,45658,1,0,0:0:0:50:drum2.wav
448,192,45816,1,0,0:0:0:25:drum3.wav
64,192,45894,1,0,0:0:0:25:drum3.wav
320,192,45973,1,0,0:0:0:25:drum3.wav
192,192,46052,1,0,0:0:0:25:drum3.wav
64,192,46131,1,0,0:0:0:50:kick1.wav
448,192,46131,1,0,0:0:0:65:kick3.wav
64,192,46289,1,0,0:0:0:65:kick3.wav
320,192,46289,1,0,0:0:0:50:kick1.wav
320,192,46605,1,0,0:0:0:50:drum2.wav
448,192,46605,1,0,0:0:0:25:drum3.wav
64,192,46763,1,0,0:0:0:30:drum3.wav
192,192,46842,1,0,0:0:0:30:drum3.wav
320,192,46921,1,0,0:0:0:25:drum3.wav
448,192,46921,1,0,0:0:0:50:drum2.wav
320,192,47079,1,0,0:0:0:25:drum3.wav
64,192,47237,1,0,0:0:0:50:kick1.wav
448,192,47237,1,0,0:0:0:65:kick3.wav
192,192,47394,1,0,0:0:0:25:drum3.wav
64,192,47552,1,0,0:0:0:65:kick3.wav
448,192,47552,1,0,0:0:0:50:kick1.wav
192,192,47710,1,0,0:0:0:50:drum2.wav
320,192,47789,1,0,0:0:0:50:kick1.wav
448,192,47789,1,0,0:0:0:65:kick3.wav
64,192,47947,1,0,0:0:0:50:drum2.wav
192,192,48026,1,0,0:0:0:65:kick3.wav
448,192,48026,1,0,0:0:0:50:kick1.wav
320,192,48184,1,0,0:0:0:50:drum2.wav
64,192,48263,1,0,0:0:0:65:kick3.wav
192,192,48263,1,0,0:0:0:50:kick1.wav
448,192,48421,1,0,0:0:0:50:drum2.wav
64,192,48500,1,0,0:0:0:50:kick1.wav
320,192,48500,1,0,0:0:0:65:kick3.wav
192,192,48658,1,0,0:0:0:50:drum2.wav
64,192,48816,1,0,0:0:0:0:
448,192,48816,1,0,0:0:0:60:kick2.wav
320,192,48973,1,0,0:0:0:25:hihat2.wav
64,192,49131,1,0,0:0:0:50:drum2.wav
192,192,49131,1,0,0:0:0:25:drum3.wav
448,192,49289,1,0,0:0:0:60:kick2.wav
320,192,49447,1,0,0:0:0:25:drum3.wav
64,192,49526,1,0,0:0:0:25:drum3.wav
448,192,49605,1,0,0:0:0:25:drum3.wav
192,192,49684,1,0,0:0:0:25:drum3.wav
320,192,49763,1,0,0:0:0:50:drum2.wav
448,192,49763,1,0,0:0:0:25:drum3.wav
192,192,49921,1,0,0:0:0:30:drum3.wav
64,192,50000,1,0,0:0:0:30:drum3.wav
448,192,50079,1,0,0:0:0:60:kick2.wav
320,192,50237,1,0,0:0:0:25:hihat2.wav
64,192,50394,1,0,0:0:0:25:drum3.wav
192,192,50394,1,0,0:0:0:50:drum2.wav
448,192,50552,1,0,0:0:0:30:drum3.wav
320,192,50631,1,0,0:0:0:30:drum3.wav
64,192,50710,1,0,0:0:0:50:drum2.wav
192,192,50710,1,0,0:0:0:25:drum3.wav
448,192,50868,1,0,0:0:0:25:drum3.wav
192,192,50947,1,0,0:0:0:25:drum3.wav
320,192,51026,1,0,0:0:0:25:drum3.wav
64,192,51105,1,0,0:0:0:25:drum3.wav
320,192,51184,1,0,0:0:0:50:drum2.wav
448,192,51184,1,0,0:0:0:25:drum3.wav
64,192,51342,1,0,0:0:0:60:kick2.wav
192,192,51500,1,0,0:0:0:25:hihat2.wav
320,192,51658,1,0,0:0:0:50:drum2.wav
448,192,51658,1,0,0:0:0:25:drum3.wav
64,192,51816,1,0,0:0:0:60:kick2.wav
320,192,51973,1,0,0:0:0:25:hihat2.wav
64,192,52131,1,0,0:0:0:60:kick2.wav
192,192,52289,1,0,0:0:0:25:hihat2.wav
320,192,52447,1,0,0:0:0:50:drum2.wav
448,192,52447,1,0,0:0:0:25:drum3.wav
64,192,52605,1,0,0:0:0:60:kick2.wav
320,192,52763,1,0,0:0:0:30:drum3.wav
448,192,52842,1,0,0:0:0:30:drum3.wav
64,192,52921,1,0,0:0:0:25:drum3.wav
192,192,52921,1,0,0:0:0:50:drum2.wav
448,192,53079,1,0,0:0:0:60:kick2.wav
192,192,53237,1,0,0:0:0:25:hihat2.wav
448,192,53394,1,0,0:0:0:30:drum3.wav
320,192,53473,1,0,0:0:0:30:drum3.wav
64,192,53552,1,0,0:0:0:25:drum3.wav
192,192,53552,1,0,0:0:0:50:drum2.wav
448,192,53710,1,0,0:0:0:60:kick2.wav
192,192,53868,1,0,0:0:0:0:
448,192,53868,1,0,0:0:0:60:kick2.wav
320,192,54026,1,0,0:0:0:25:hihat2.wav
64,192,54184,1,0,0:0:0:50:drum2.wav
192,192,54184,1,0,0:0:0:25:drum3.wav
448,192,54342,1,0,0:0:0:30:drum3.wav
320,192,54421,1,0,0:0:0:30:drum3.wav
64,192,54500,1,0,0:0:0:25:drum3.wav
192,192,54500,1,0,0:0:0:50:drum2.wav
448,192,54658,1,0,0:0:0:25:drum3.wav
64,192,54737,1,0,0:0:0:25:drum3.wav
320,192,54816,1,0,0:0:0:25:drum3.wav
192,192,54894,1,0,0:0:0:25:drum3.wav
320,192,54973,1,0,0:0:0:50:drum2.wav
448,192,54973,1,0,0:0:0:25:drum3.wav
64,192,55131,1,0,0:0:0:60:kick2.wav
192,192,55289,1,0,0:0:0:25:hihat2.wav
320,192,55447,1,0,0:0:0:25:drum3.wav
448,192,55447,1,0,0:0:0:50:drum2.wav
64,192,55605,1,0,0:0:0:60:kick2.wav
192,192,55763,1,0,0:0:0:25:drum3.wav
320,192,55842,1,0,0:0:0:25:drum3.wav
64,192,55921,1,0,0:0:0:25:drum3.wav
448,192,56000,1,0,0:0:0:25:drum3.wav
64,192,56079,1,0,0:0:0:25:drum3.wav
192,192,56079,1,0,0:0:0:50:drum2.wav
320,192,56237,1,0,0:0:0:30:drum3.wav
192,192,56316,1,0,0:0:0:30:drum3.wav
448,192,56394,1,0,0:0:0:60:kick2.wav
192,192,56552,1,0,0:0:0:25:hihat2.wav
320,192,56710,1,0,0:0:0:50:drum2.wav
448,192,56710,1,0,0:0:0:25:drum3.wav
64,192,56868,1,0,0:0:0:60:kick2.wav
320,192,57026,1,0,0:0:0:25:hihat2.wav
64,192,57184,1,0,0:0:0:60:kick2.wav
192,192,57342,1,0,0:0:0:25:hihat2.wav
320,192,57500,1,0,0:0:0:50:drum2.wav
448,192,57500,1,0,0:0:0:25:drum3.wav
64,192,57658,1,0,0:0:0:30:drum3.wav
192,192,57737,1,0,0:0:0:30:drum3.wav
320,192,57816,1,0,0:0:0:25:drum3.wav
448,192,57816,1,0,0:0:0:50:drum2.wav
192,192,57973,1,0,0:0:0:25:drum3.wav
448,192,58052,1,0,0:0:0:25:drum3.wav
64,192,58131,1,0,0:0:0:0:
320,192,58131,1,0,0:0:0:60:kick2.wav
192,192,58210,1,0,0:0:0:25:drum3.wav
320,192,58289,1,0,0:0:0:50:drum2.wav
448,192,58289,1,0,0:0:0:25:drum3.wav
192,192,58447,1,0,0:0:0:30:drum3.wav
64,192,58526,1,0,0:0:0:30:drum3.wav
320,192,58605,1,0,0:0:0:0:
448,192,58605,1,0,0:0:0:50:drum2.wav
320,192,58842,128,0,58921:0:0:0:0:
64,192,58921,1,0,0:0:0:0:
448,192,58921,1,0,0:0:0:60:kick2.wav
192,192,59079,1,0,0:0:0:25:hihat2.wav
320,192,59237,1,0,0:0:0:50:drum2.wav
448,192,59237,1,0,0:0:0:25:drum3.wav
64,192,59394,1,0,0:0:0:60:kick2.wav
448,192,59552,1,0,0:0:0:25:drum3.wav
192,192,59631,1,0,0:0:0:25:drum3.wav
320,192,59710,1,0,0:0:0:25:drum3.wav
64,192,59789,1,0,0:0:0:25:drum3.wav
320,192,59868,1,0,0:0:0:25:drum3.wav
448,192,59868,1,0,0:0:0:50:drum2.wav
192,192,60026,1,0,0:0:0:30:drum3.wav
64,192,60105,1,0,0:0:0:30:drum3.wav
448,192,60184,1,0,0:0:0:60:kick2.wav
320,192,60342,1,0,0:0:0:25:hihat2.wav
64,192,60500,1,0,0:0:0:25:drum3.wav
192,192,60500,1,0,0:0:0:50:drum2.wav
448,192,60658,1,0,0:0:0:30:drum3.wav
320,192,60737,1,0,0:0:0:30:drum3.wav
64,192,60816,1,0,0:0:0:50:drum2.wav
192,192,60816,1,0,0:0:0:25:drum3.wav
320,192,60973,1,0,0:0:0:25:drum3.wav
192,192,61052,1,0,0:0:0:25:drum3.wav
448,192,61131,1,0,0:0:0:25:drum3.wav
64,192,61210,1,0,0:0:0:25:drum3.wav
320,192,61289,1,0,0:0:0:50:drum2.wav
448,192,61289,1,0,0:0:0:25:drum3.wav
64,192,61447,1,0,0:0:0:60:kick2.wav
192,192,61605,1,0,0:0:0:25:hihat2.wav
320,192,61763,1,0,0:0:0:50:drum2.wav
448,192,61763,1,0,0:0:0:25:drum3.wav
64,192,61921,1,0,0:0:0:60:kick2.wav
320,192,62079,1,0,0:0:0:25:hihat2.wav
64,192,62237,1,0,0:0:0:60:kick2.wav
192,192,62394,1,0,0:0:0:25:hihat2.wav
320,192,62552,1,0,0:0:0:50:drum2.wav
448,192,62552,1,0,0:0:0:25:drum3.wav
64,192,62710,1,0,0:0:0:60:kick2.wav
320,192,62868,1,0,0:0:0:30:drum3.wav
448,192,62947,1,0,0:0:0:30:drum3.wav
64,192,63026,1,0,0:0:0:25:drum3.wav
192,192,63026,1,0,0:0:0:50:drum2.wav
448,192,63184,1,0,0:0:0:60:kick2.wav
192,192,63342,1,0,0:0:0:25:hihat2.wav
448,192,63500,1,0,0:0:0:30:drum3.wav
320,192,63579,1,0,0:0:0:30:drum3.wav
64,192,63658,1,0,0:0:0:50:drum2.wav
192,192,63658,1,0,0:0:0:25:drum3.wav
448,192,63816,1,0,0:0:0:60:kick2.wav
192,192,63973,1,0,0:0:0:0:
448,192,63973,1,0,0:0:0:60:kick2.wav
320,192,64131,1,0,0:0:0:25:hihat2.wav
64,192,64289,1,0,0:0:0:50:drum2.wav
192,192,64289,1,0,0:0:0:25:drum3.wav
448,192,64447,1,0,0:0:0:30:drum3.wav
320,192,64526,1,0,0:0:0:30:drum3.wav
64,192,64605,1,0,0:0:0:25:drum3.wav
192,192,64605,1,0,0:0:0:50:drum2.wav
448,192,64763,1,0,0:0:0:25:drum3.wav
64,192,64842,1,0,0:0:0:25:drum3.wav
320,192,64921,1,0,0:0:0:25:drum3.wav
192,192,65000,1,0,0:0:0:25:drum3.wav
320,192,65079,1,0,0:0:0:50:drum2.wav
448,192,65079,1,0,0:0:0:25:drum3.wav
64,192,65237,1,0,0:0:0:60:kick2.wav
192,192,65394,1,0,0:0:0:25:hihat2.wav
320,192,65552,1,0,0:0:0:25:drum3.wav
448,192,65552,1,0,0:0:0:50:drum2.wav
64,192,65710,1,0,0:0:0:60:kick2.wav
192,192,65868,1,0,0:0:0:25:drum3.wav
448,192,65947,1,0,0:0:0:25:drum3.wav
64,192,66026,1,0,0:0:0:25:drum3.wav
320,192,66105,1,0,0:0:0:25:drum3.wav
64,192,66184,1,0,0:0:0:25:drum3.wav
192,192,66184,1,0,0:0:0:50:drum2.wav
320,192,66342,1,0,0:0:0:30:drum3.wav
192,192,66421,1,0,0:0:0:30:drum3.wav
448,192,66500,1,0,0:0:0:60:kick2.wav
192,192,66658,1,0,0:0:0:25:hihat2.wav
320,192,66816,1,0,0:0:0:25:drum3.wav
448,192,66816,1,0,0:0:0:50:drum2.wav
64,192,66973,1,0,0:0:0:60:kick2.wav
320,192,67131,1,0,0:0:0:25:hihat2.wav
64,192,67289,1,0,0:0:0:60:kick2.wav
192,192,67447,1,0,0:0:0:25:hihat2.wav
320,192,67605,1,0,0:0:0:25:drum3.wav
448,192,67605,1,0,0:0:0:50:drum2.wav
64,192,67763,1,0,0:0:0:30:drum3.wav
192,192,67842,1,0,0:0:0:30:drum3.wav
320,192,67921,1,0,0:0:0:50:drum2.wav
448,192,67921,1,0,0:0:0:25:drum3.wav
192,192,68079,1,0,0:0:0:25:drum3.wav
448,192,68158,1,0,0:0:0:25:drum3.wav
320,192,68237,1,0,0:0:0:60:kick2.wav
64,192,68316,1,0,0:0:0:25:drum3.wav
320,192,68394,1,0,0:0:0:50:drum2.wav
448,192,68394,1,0,0:0:0:25:drum3.wav
192,192,68552,1,0,0:0:0:30:drum3.wav
64,192,68631,1,0,0:0:0:50:drum2.wav
320,192,68631,1,0,0:0:0:25:drum3.wav
448,192,68789,1,0,0:0:0:30:drum3.wav
64,192,68868,1,0,0:0:0:50:drum2.wav
192,192,68868,1,0,0:0:0:25:drum3.wav
64,192,69026,1,0,0:0:0:65:kick3.wav
448,192,69026,1,0,0:0:0:50:kick1.wav
448,192,69342,1,0,0:0:0:30:drum2.wav
192,192,69421,1,0,0:0:0:30:drum2.wav
448,192,69500,1,0,0:0:0:30:drum2.wav
192,192,69579,1,0,0:0:0:30:drum2.wav
320,192,69658,1,0,0:0:0:50:drum3.wav
64,192,69737,1,0,0:0:0:30:drum2.wav
192,192,69816,1,0,0:0:0:30:drum2.wav
320,192,69894,1,0,0:0:0:35:drum3.wav
320,192,70131,1,0,0:0:0:20:drum3.wav
64,192,70289,128,0,70605:0:0:0:50:kick1.wav
448,192,70289,128,0,70605:0:0:0:65:kick3.wav
320,192,70763,128,0,70921:0:0:0:40:drum4.wav
192,192,70921,1,0,0:0:0:50:drum3.wav
320,192,71000,1,0,0:0:0:30:drum2.wav
64,192,71079,1,0,0:0:0:30:drum2.wav
192,192,71158,1,0,0:0:0:35:drum3.wav
192,192,71394,1,0,0:0:0:20:drum3.wav
64,192,71552,128,0,71868:0:0:0:50:kick3.wav
320,192,71552,1,0,0:0:0:50:kick1.wav
192,192,71868,128,0,71973:0:0:0:30:drum3.wav
320,192,71973,128,0,72079:0:0:0:30:drum3.wav
192,192,72079,128,0,72184:0:0:0:30:drum3.wav
448,192,72184,1,0,0:0:0:50:drum2.wav
320,192,72263,1,0,0:0:0:30:drum2.wav
192,192,72342,1,0,0:0:0:30:drum2.wav
448,192,72421,1,0,0:0:0:50:drum3.wav
64,192,72500,1,0,0:0:0:50:kick1.wav
320,192,72579,1,0,0:0:0:50:kick1.wav
64,192,72658,128,0,72737:0:0:0:0:
320,192,72816,1,0,0:0:0:50:kick3.wav
448,192,72816,1,0,0:0:0:50:kick1.wav
64,192,72921,1,0,0:0:0:50:kick3.wav
192,192,72921,1,0,0:0:0:50:kick1.wav
320,192,73026,1,0,0:0:0:50:kick3.wav
448,192,73026,1,0,0:0:0:50:kick1.wav
64,192,73131,1,0,0:0:0:50:kick3.wav
448,192,73131,128,0,73447:0:0:0:50:kick1.wav
64,192,73447,1,0,0:0:0:50:drum3.wav
320,192,73526,1,0,0:0:0:30:drum2.wav
192,192,73605,1,0,0:0:0:30:drum2.wav
64,192,73684,1,0,0:0:0:35:drum3.wav
64,192,73921,1,0,0:0:0:30:drum2.wav
192,192,73921,1,0,0:0:0:50:drum3.wav
192,192,74079,1,0,0:0:0:0:
448,192,74079,128,0,74394:0:0:0:65:kick3.wav
192,192,74394,1,0,0:0:0:25:drum3.wav
320,192,74394,1,0,0:0:0:50:drum2.wav
320,192,74710,128,0,74868:0:0:0:50:drum2.wav
448,192,74710,1,0,0:0:0:25:drum3.wav
64,192,74868,1,0,0:0:0:25:drum3.wav
192,192,74868,128,0,75026:0:0:0:50:drum2.wav
64,192,75026,1,0,0:0:0:65:kick3.wav
448,192,75026,1,0,0:0:0:50:kick1.wav
64,192,75342,128,0,75658:0:0:0:65:kick3.wav
320,192,75342,128,0,75658:0:0:0:50:kick1.wav
448,192,75816,128,0,75973:0:0:0:50:drum2.wav
64,192,75973,1,0,0:0:0:25:drum3.wav
192,192,75973,1,0,0:0:0:50:drum1.wav
64,192,76131,1,0,0:0:0:25:drum3.wav
192,192,76131,1,0,0:0:0:50:drum1.wav
448,192,76289,1,0,0:0:0:50:drum4.wav
192,192,76447,1,0,0:0:0:50:drum4.wav
320,192,76447,1,0,0:0:0:25:drum3.wav
64,192,76605,1,0,0:0:0:50:drum4.wav
64,192,76763,1,0,0:0:0:50:drum4.wav
192,192,76921,1,0,0:0:0:25:drum3.wav
448,192,76921,1,0,0:0:0:50:drum2.wav
192,192,77079,1,0,0:0:0:25:drum3.wav
448,192,77079,1,0,0:0:0:50:drum2.wav
320,192,77237,1,0,0:0:0:80:drum1.wav
320,192,77394,1,0,0:0:0:80:drum1.wav
192,192,77552,1,0,0:0:0:80:drum1.wav
448,192,77631,1,0,0:0:0:25:drum3.wav
320,192,77710,1,0,0:0:0:25:drum3.wav
192,192,77789,1,0,0:0:0:25:drum3.wav
64,192,77868,128,0,78500:0:0:0:65:kick3.wav
448,192,77868,1,0,0:0:0:50:kick1.wav
320,192,78500,1,0,0:0:0:80:drum1.wav
448,192,78500,1,0,0:0:0:25:drum3.wav
64,192,78579,1,0,0:0:0:25:drum3.wav
192,192,78579,1,0,0:0:0:80:drum1.wav
64,192,78737,1,0,0:0:0:25:drum3.wav
448,192,78737,1,0,0:0:0:80:drum1.wav
320,192,78816,128,0,78894:0:0:0:35:hihat1.wav
192,192,78973,1,0,0:0:0:80:drum1.wav
448,192,78973,1,0,0:0:0:25:drum3.wav
64,192,79131,128,0,88605:0:0:0:0:
320,192,80079,1,0,0:0:0:0:
192,192,80394,1,0,0:0:0:0:
192,192,81342,1,0,0:0:0:0:
320,192,81658,1,0,0:0:0:0:
320,192,82605,1,0,0:0:0:0:
448,192,82921,1,0,0:0:0:0:
448,192,83868,1,0,0:0:0:0:
320,192,84184,1,0,0:0:0:0:
320,192,85131,1,0,0:0:0:0:
192,192,85447,1,0,0:0:0:0:
192,192,86394,1,0,0:0:0:0:
320,192,86710,1,0,0:0:0:0:
320,192,87658,1,0,0:0:0:0:
192,192,87973,128,0,88605:0:0:0:0:
320,192,88605,1,0,0:0:0:28:drum2.wav
192,192,88684,1,0,0:0:0:29:drum2.wav
448,192,88763,1,0,0:0:0:30:drum2.wav
64,192,88842,1,0,0:0:0:31:drum2.wav
320,192,88921,1,0,0:0:0:32:drum2.wav
192,192,89000,1,0,0:0:0:33:drum2.wav
320,192,89079,1,0,0:0:0:34:drum2.wav
192,192,89158,1,0,0:0:0:35:drum2.wav
64,192,89237,1,0,0:0:0:50:kick1.wav
448,192,89237,1,0,0:0:0:65:kick3.wav
64,192,89552,1,0,0:0:0:50:drum2.wav
192,192,89552,1,0,0:0:0:25:drum3.wav
64,192,89710,1,0,0:0:0:50:kick1.wav
448,192,89710,1,0,0:0:0:65:kick3.wav
64,192,90026,1,0,0:0:0:25:drum3.wav
192,192,90026,1,0,0:0:0:50:drum2.wav
448,192,90184,1,0,0:0:0:30:drum3.wav
320,192,90263,1,0,0:0:0:30:drum3.wav
64,192,90342,1,0,0:0:0:0:
192,192,90342,1,0,0:0:0:50:drum2.wav
448,192,90500,1,0,0:0:0:25:drum3.wav
192,192,90579,1,0,0:0:0:25:drum3.wav
320,192,90658,1,0,0:0:0:25:drum3.wav
64,192,90737,1,0,0:0:0:25:drum3.wav
320,192,90816,1,0,0:0:0:50:drum2.wav
448,192,90816,1,0,0:0:0:25:drum3.wav
448,192,90973,1,0,0:0:0:25:drum3.wav
64,192,91131,1,0,0:0:0:25:drum3.wav
192,192,91131,1,0,0:0:0:50:drum2.wav
448,192,91289,1,0,0:0:0:25:drum3.wav
192,192,91368,1,0,0:0:0:25:drum3.wav
448,192,91447,1,0,0:0:0:25:drum3.wav
64,192,91526,1,0,0:0:0:25:drum3.wav
192,192,91605,1,0,0:0:0:50:kick1.wav
320,192,91605,1,0,0:0:0:65:kick3.wav
64,192,91763,1,0,0:0:0:50:kick1.wav
320,192,91763,1,0,0:0:0:65:kick3.wav
320,192,92079,1,0,0:0:0:50:drum2.wav
448,192,92079,1,0,0:0:0:25:drum3.wav
448,192,92237,1,0,0:0:0:30:drum3.wav
320,192,92316,1,0,0:0:0:30:drum3.wav
64,192,92394,1,0,0:0:0:25:drum3.wav
192,192,92394,1,0,0:0:0:50:drum2.wav
192,192,92552,1,0,0:0:0:50:drum2.wav
64,192,92710,1,0,0:0:0:65:kick3.wav
448,192,92710,1,0,0:0:0:50:kick1.wav
320,192,92868,1,0,0:0:0:25:drum3.wav
64,192,93026,1,0,0:0:0:65:kick3.wav
448,192,93026,1,0,0:0:0:50:kick1.wav
448,192,93184,1,0,0:0:0:50:drum2.wav
192,192,93263,1,0,0:0:0:50:kick1.wav
320,192,93263,1,0,0:0:0:65:kick3.wav
192,192,93421,1,0,0:0:0:50:drum2.wav
64,192,93500,1,0,0:0:0:50:kick1.wav
320,192,93500,1,0,0:0:0:65:kick3.wav
320,192,93658,1,0,0:0:0:50:drum2.wav
64,192,93737,1,0,0:0:0:65:kick3.wav
192,192,93737,1,0,0:0:0:50:kick1.wav
64,192,93894,1,0,0:0:0:25:drum3.wav
192,192,93973,1,0,0:0:0:25:drum3.wav
320,192,94052,1,0,0:0:0:25:drum3.wav
64,192,94131,1,0,0:0:0:25:drum3.wav
320,192,94210,1,0,0:0:0:50:drum2.wav
448,192,94210,1,0,0:0:0:25:drum3.wav
64,192,94289,1,0,0:0:0:50:kick1.wav
192,192,94289,1,0,0:0:0:65:kick3.wav
64,192,94605,1,0,0:0:0:50:drum2.wav
192,192,94605,1,0,0:0:0:25:drum3.wav
64,192,94763,1,0,0:0:0:65:kick3.wav
448,192,94763,1,0,0:0:0:50:kick1.wav
64,192,95079,1,0,0:0:0:50:drum2.wav
192,192,95079,1,0,0:0:0:25:drum3.wav
448,192,95237,1,0,0:0:0:30:drum3.wav
320,192,95316,1,0,0:0:0:30:drum3.wav
64,192,95394,1,0,0:0:0:0:
192,192,95394,1,0,0:0:0:50:drum2.wav
448,192,95552,1,0,0:0:0:25:drum3.wav
64,192,95631,1,0,0:0:0:25:drum3.wav
320,192,95710,1,0,0:0:0:25:drum3.wav
192,192,95789,1,0,0:0:0:25:drum3.wav
320,192,95868,1,0,0:0:0:50:drum2.wav
448,192,95868,1,0,0:0:0:25:drum3.wav
448,192,96026,1,0,0:0:0:50:drum2.wav
64,192,96184,1,0,0:0:0:25:drum3.wav
192,192,96184,1,0,0:0:0:50:drum2.wav
320,192,96342,1,0,0:0:0:25:drum3.wav
64,192,96421,1,0,0:0:0:25:drum3.wav
320,192,96500,1,0,0:0:0:25:drum3.wav
192,192,96579,1,0,0:0:0:25:drum3.wav
64,192,96658,1,0,0:0:0:50:kick1.wav
448,192,96658,1,0,0:0:0:65:kick3.wav
64,192,96816,1,0,0:0:0:50:kick1.wav
320,192,96816,1,0,0:0:0:65:kick3.wav
320,192,97131,1,0,0:0:0:25:drum3.wav
448,192,97131,1,0,0:0:0:50:drum2.wav
448,192,97289,1,0,0:0:0:30:drum3.wav
320,192,97368,1,0,0:0:0:30:drum3.wav
64,192,97447,1,0,0:0:0:50:drum2.wav
192,192,97447,1,0,0:0:0:25:drum3.wav
192,192,97605,1,0,0:0:0:25:drum3.wav
64,192,97763,1,0,0:0:0:50:kick1.wav
448,192,97763,1,0,0:0:0:65:kick3.wav
320,192,97921,1,0,0:0:0:50:drum2.wav
64,192,98079,1,0,0:0:0:50:kick1.wav
448,192,98079,1,0,0:0:0:65:kick3.wav
192,192,98237,1,0,0:0:0:25:drum3.wav
64,192,98316,1,0,0:0:0:25:drum3.wav
320,192,98394,1,0,0:0:0:50:drum2.wav
448,192,98394,1,0,0:0:0:25:drum3.wav
192,192,98552,1,0,0:0:0:25:drum3.wav
64,192,98631,1,0,0:0:0:25:drum3.wav
320,192,98710,1,0,0:0:0:50:drum2.wav
448,192,98710,1,0,0:0:0:25:drum3.wav
64,192,98868,1,0,0:0:0:50:kick1.wav
448,192,98868,1,0,0:0:0:65:kick3.wav
64,192,99026,1,0,0:0:0:25:drum3.wav
192,192,99026,1,0,0:0:0:30:drum2.wav
320,192,99105,1,0,0:0:0:30:drum2.wav
192,192,99184,1,0,0:0:0:30:drum2.wav
320,192,99263,1,0,0:0:0:30:drum2.wav
64,192,99342,1,0,0:0:0:65:kick3.wav
448,192,99342,1,0,0:0:0:50:kick1.wav
64,192,99658,1,0,0:0:0:25:drum3.wav
192,192,99658,1,0,0:0:0:50:drum2.wav
64,192,99816,1,0,0:0:0:50:kick1.wav
448,192,99816,1,0,0:0:0:65:kick3.wav
64,192,100131,1,0,0:0:0:25:drum3.wav
192,192,100131,1,0,0:0:0:50:drum2.wav
448,192,100289,1,0,0:0:0:30:drum3.wav
320,192,100368,1,0,0:0:0:30:drum3.wav
64,192,100447,1,0,0:0:0:50:drum2.wav
192,192,100447,1,0,0:0:0:25:drum3.wav
448,192,100605,1,0,0:0:0:25:drum3.wav
192,192,100684,1,0,0:0:0:25:drum3.wav
320,192,100763,1,0,0:0:0:25:drum3.wav
64,192,100842,1,0,0:0:0:25:drum3.wav
320,192,100921,1,0,0:0:0:50:drum2.wav
448,192,100921,1,0,0:0:0:25:drum3.wav
448,192,101079,1,0,0:0:0:25:drum3.wav
64,192,101237,1,0,0:0:0:50:drum2.wav
192,192,101237,1,0,0:0:0:25:drum3.wav
320,192,101394,1,0,0:0:0:25:drum3.wav
192,192,101473,1,0,0:0:0:25:drum3.wav
448,192,101552,1,0,0:0:0:25:drum3.wav
64,192,101631,1,0,0:0:0:25:drum3.wav
192,192,101710,1,0,0:0:0:50:kick1.wav
320,192,101710,1,0,0:0:0:65:kick3.wav
64,192,101868,1,0,0:0:0:50:kick1.wav
320,192,101868,1,0,0:0:0:65:kick3.wav
320,192,102184,1,0,0:0:0:50:drum2.wav
448,192,102184,1,0,0:0:0:25:drum3.wav
448,192,102342,1,0,0:0:0:30:drum3.wav
320,192,102421,1,0,0:0:0:30:drum3.wav
64,192,102500,1,0,0:0:0:50:drum2.wav
192,192,102500,1,0,0:0:0:25:drum3.wav
192,192,102658,1,0,0:0:0:50:drum2.wav
64,192,102816,1,0,0:0:0:65:kick3.wav
448,192,102816,1,0,0:0:0:50:kick1.wav
320,192,102973,1,0,0:0:0:50:drum2.wav
64,192,103131,1,0,0:0:0:65:kick3.wav
448,192,103131,1,0,0:0:0:50:kick1.wav
448,192,103289,1,0,0:0:0:50:drum2.wav
192,192,103368,1,0,0:0:0:50:kick1.wav
320,192,103368,1,0,0:0:0:65:kick3.wav
192,192,103526,1,0,0:0:0:50:drum2.wav
64,192,103605,1,0,0:0:0:50:kick1.wav
320,192,103605,1,0,0:0:0:65:kick3.wav
64,192,103763,1,0,0:0:0:50:drum2.wav
320,192,103842,1,0,0:0:0:50:kick1.wav
448,192,103842,1,0,0:0:0:65:kick3.wav
448,192,104000,1,0,0:0:0:50:drum2.wav
192,192,104079,1,0,0:0:0:25:drum3.wav
320,192,104158,1,0,0:0:0:25:drum3.wav
64,192,104237,1,0,0:0:0:25:drum3.wav
320,192,104316,1,0,0:0:0:50:drum2.wav
448,192,104316,1,0,0:0:0:25:drum3.wav
64,192,104394,1,0,0:0:0:65:kick3.wav
192,192,104394,1,0,0:0:0:50:kick1.wav
64,192,104710,1,0,0:0:0:25:drum3.wav
192,192,104710,1,0,0:0:0:50:drum2.wav
64,192,104868,1,0,0:0:0:65:kick3.wav
448,192,104868,1,0,0:0:0:50:kick1.wav
320,192,105184,1,0,0:0:0:25:drum3.wav
448,192,105184,1,0,0:0:0:50:drum2.wav
448,192,105342,1,0,0:0:0:30:drum3.wav
320,192,105421,1,0,0:0:0:30:drum3.wav
64,192,105500,1,0,0:0:0:0:
192,192,105500,1,0,0:0:0:50:drum2.wav
320,192,105658,1,0,0:0:0:25:drum3.wav
64,192,105737,1,0,0:0:0:25:drum3.wav
448,192,105816,1,0,0:0:0:25:drum3.wav
192,192,105894,1,0,0:0:0:25:drum3.wav
320,192,105973,1,0,0:0:0:50:drum2.wav
448,192,105973,1,0,0:0:0:25:drum3.wav
320,192,106131,1,0,0:0:0:50:drum2.wav
64,192,106289,1,0,0:0:0:25:drum3.wav
192,192,106289,1,0,0:0:0:50:drum2.wav
448,192,106447,1,0,0:0:0:25:drum3.wav
64,192,106526,1,0,0:0:0:25:drum3.wav
320,192,106605,1,0,0:0:0:25:drum3.wav
192,192,106684,1,0,0:0:0:25:drum3.wav
64,192,106763,1,0,0:0:0:65:kick3.wav
448,192,106763,1,0,0:0:0:50:kick1.wav
64,192,106921,1,0,0:0:0:50:kick1.wav
320,192,106921,1,0,0:0:0:65:kick3.wav
320,192,107237,1,0,0:0:0:25:drum3.wav
448,192,107237,1,0,0:0:0:50:drum2.wav
448,192,107394,1,0,0:0:0:30:drum3.wav
320,192,107473,1,0,0:0:0:30:drum3.wav
64,192,107552,1,0,0:0:0:25:drum3.wav
192,192,107552,1,0,0:0:0:50:drum2.wav
192,192,107710,1,0,0:0:0:50:drum2.wav
64,192,107868,1,0,0:0:0:50:kick1.wav
448,192,107868,1,0,0:0:0:65:kick3.wav
320,192,108026,1,0,0:0:0:25:drum3.wav
64,192,108184,1,0,0:0:0:65:kick3.wav
448,192,108184,1,0,0:0:0:50:kick1.wav
448,192,108342,1,0,0:0:0:50:drum2.wav
192,192,108421,1,0,0:0:0:50:kick1.wav
320,192,108421,1,0,0:0:0:65:kick3.wav
192,192,108579,1,0,0:0:0:50:drum2.wav
64,192,108658,1,0,0:0:0:50:kick1.wav
320,192,108658,1,0,0:0:0:65:kick3.wav
320,192,108816,1,0,0:0:0:50:drum2.wav
192,192,108894,1,0,0:0:0:50:kick1.wav
448,192,108894,1,0,0:0:0:65:kick3.wav
64,192,109052,1,0,0:0:0:50:drum2.wav
192,192,109052,1,0,0:0:0:25:drum3.wav
64,192,109210,1,0,0:0:0:25:drum3.wav
320,192,109289,1,0,0:0:0:0:
448,192,109289,1,0,0:0:0:65:kick3.wav
64,192,109447,1,0,0:0:0:65:kick3.wav
448,192,109447,1,0,0:0:0:50:kick1.wav
64,192,109763,1,0,0:0:0:25:drum3.wav
192,192,109763,1,0,0:0:0:50:drum2.wav
64,192,109921,1,0,0:0:0:65:kick3.wav
448,192,109921,1,0,0:0:0:50:kick1.wav
320,192,110237,1,0,0:0:0:50:drum2.wav
448,192,110237,1,0,0:0:0:25:drum3.wav
192,192,110394,1,0,0:0:0:30:drum3.wav
64,192,110473,1,0,0:0:0:30:drum3.wav
320,192,110552,1,0,0:0:0:0:
448,192,110552,1,0,0:0:0:50:drum2.wav
64,192,110710,1,0,0:0:0:25:drum3.wav
192,192,110789,1,0,0:0:0:25:drum3.wav
320,192,110868,1,0,0:0:0:25:drum3.wav
64,192,110947,1,0,0:0:0:25:drum3.wav
320,192,111026,1,0,0:0:0:25:drum3.wav
448,192,111026,1,0,0:0:0:50:drum2.wav
448,192,111184,1,0,0:0:0:50:drum2.wav
64,192,111342,1,0,0:0:0:50:drum2.wav
192,192,111342,1,0,0:0:0:25:drum3.wav
448,192,111500,1,0,0:0:0:25:drum3.wav
64,192,111579,1,0,0:0:0:25:drum3.wav
320,192,111658,1,0,0:0:0:25:drum3.wav
192,192,111737,1,0,0:0:0:25:drum3.wav
64,192,111816,1,0,0:0:0:65:kick3.wav
448,192,111816,1,0,0:0:0:50:kick1.wav
64,192,111973,1,0,0:0:0:65:kick3.wav
320,192,111973,1,0,0:0:0:50:kick1.wav
320,192,112289,1,0,0:0:0:25:drum3.wav
448,192,112289,1,0,0:0:0:50:drum2.wav
64,192,112447,1,0,0:0:0:30:drum3.wav
192,192,112526,1,0,0:0:0:30:drum3.wav
320,192,112605,1,0,0:0:0:50:drum2.wav
448,192,112605,1,0,0:0:0:25:drum3.wav
320,192,112763,1,0,0:0:0:25:drum3.wav
64,192,112921,1,0,0:0:0:50:kick1.wav
448,192,112921,1,0,0:0:0:65:kick3.wav
192,192,113079,1,0,0:0:0:50:drum2.wav
64,192,113237,1,0,0:0:0:50:kick1.wav
448,192,113237,1,0,0:0:0:65:kick3.wav
320,192,113394,1,0,0:0:0:50:drum2.wav
192,192,113473,1,0,0:0:0:65:kick3.wav
448,192,113473,1,0,0:0:0:50:kick1.wav
64,192,113631,1,0,0:0:0:50:drum2.wav
192,192,113710,1,0,0:0:0:65:kick3.wav
320,192,113710,1,0,0:0:0:50:kick1.wav
448,192,113868,1,0,0:0:0:50:drum2.wav
64,192,113947,1,0,0:0:0:50:kick1.wav
320,192,113947,1,0,0:0:0:65:kick3.wav
320,192,114105,1,0,0:0:0:50:drum2.wav
192,192,114184,1,0,0:0:0:25:drum3.wav
448,192,114263,1,0,0:0:0:25:drum3.wav
64,192,114342,1,0,0:0:0:25:drum3.wav
320,192,114421,1,0,0:0:0:25:drum3.wav
448,192,114421,1,0,0:0:0:50:drum2.wav
64,192,114500,1,0,0:0:0:65:kick3.wav
192,192,114500,1,0,0:0:0:50:kick1.wav
64,192,114816,1,0,0:0:0:25:drum3.wav
192,192,114816,1,0,0:0:0:50:drum2.wav
64,192,114973,1,0,0:0:0:50:kick1.wav
448,192,114973,1,0,0:0:0:65:kick3.wav
320,192,115289,1,0,0:0:0:25:drum3.wav
448,192,115289,1,0,0:0:0:50:drum2.wav
192,192,115447,1,0,0:0:0:30:drum3.wav
64,192,115526,1,0,0:0:0:30:drum3.wav
320,192,115605,1,0,0:0:0:0:
448,192,115605,1,0,0:0:0:50:drum2.wav
64,192,115763,1,0,0:0:0:25:drum3.wav
192,192,115842,1,0,0:0:0:25:drum3.wav
320,192,115921,1,0,0:0:0:25:drum3.wav
64,192,116000,1,0,0:0:0:25:drum3.wav
320,192,116079,1,0,0:0:0:25:drum3.wav
448,192,116079,1,0,0:0:0:50:drum2.wav
448,192,116237,1,0,0:0:0:25:drum3.wav
64,192,116394,1,0,0:0:0:50:drum2.wav
192,192,116394,1,0,0:0:0:25:drum3.wav
448,192,116552,1,0,0:0:0:25:drum3.wav
64,192,116631,1,0,0:0:0:25:drum3.wav
320,192,116710,1,0,0:0:0:25:drum3.wav
192,192,116789,1,0,0:0:0:25:drum3.wav
64,192,116868,1,0,0:0:0:65:kick3.wav
448,192,116868,1,0,0:0:0:50:kick1.wav
64,192,117026,1,0,0:0:0:65:kick3.wav
320,192,117026,1,0,0:0:0:50:kick1.wav
320,192,117342,1,0,0:0:0:50:drum2.wav
448,192,117342,1,0,0:0:0:25:drum3.wav
64,192,117500,1,0,0:0:0:30:drum3.wav
192,192,117579,1,0,0:0:0:30:drum3.wav
320,192,117658,1,0,0:0:0:25:drum3.wav
448,192,117658,1,0,0:0:0:50:drum2.wav
320,192,117816,1,0,0:0:0:50:drum2.wav
64,192,117973,1,0,0:0:0:65:kick3.wav
448,192,117973,1,0,0:0:0:50:kick1.wav
192,192,118131,1,0,0:0:0:25:drum3.wav
64,192,118289,1,0,0:0:0:65:kick3.wav
448,192,118289,1,0,0:0:0:50:kick1.wav
320,192,118447,1,0,0:0:0:25:drum3.wav
448,192,118526,1,0,0:0:0:25:drum3.wav
64,192,118605,1,0,0:0:0:0:
192,192,118605,1,0,0:0:0:50:drum2.wav
320,192,118684,1,0,0:0:0:0:
448,192,118684,1,0,0:0:0:50:drum2.wav
192,192,118763,1,0,0:0:0:25:drum3.wav
64,192,118842,1,0,0:0:0:25:drum3.wav
320,192,118921,1,0,0:0:0:25:drum3.wav
192,192,119000,1,0,0:0:0:25:drum3.wav
320,192,119079,1,0,0:0:0:25:drum3.wav
448,192,119158,1,0,0:0:0:25:drum3.wav
64,192,119237,1,0,0:0:0:25:drum3.wav
192,192,119237,1,0,0:0:0:50:drum2.wav
320,192,119316,1,0,0:0:0:50:drum2.wav
448,192,119316,1,0,0:0:0:25:drum3.wav
192,192,119394,128,0,119552:0:0:0:50:drum3.wav
64,192,119552,1,0,0:0:0:65:kick3.wav
448,192,119552,1,0,0:0:0:50:kick1.wav
64,192,119868,1,0,0:0:0:50:drum2.wav
192,192,119868,1,0,0:0:0:25:drum3.wav
64,192,120026,1,0,0:0:0:65:kick3.wav
448,192,120026,1,0,0:0:0:50:kick1.wav
320,192,120342,1,0,0:0:0:50:drum2.wav
448,192,120342,1,0,0:0:0:25:drum3.wav
192,192,120500,1,0,0:0:0:30:drum3.wav
64,192,120579,1,0,0:0:0:30:drum3.wav
320,192,120658,1,0,0:0:0:25:drum3.wav
448,192,120658,1,0,0:0:0:50:drum2.wav
64,192,120816,1,0,0:0:0:25:drum3.wav
192,192,120894,1,0,0:0:0:25:drum3.wav
320,192,120973,1,0,0:0:0:25:drum3.wav
64,192,121052,1,0,0:0:0:25:drum3.wav
320,192,121131,1,0,0:0:0:25:drum3.wav
448,192,121131,1,0,0:0:0:50:drum2.wav
448,192,121289,1,0,0:0:0:50:drum2.wav
64,192,121447,1,0,0:0:0:25:drum3.wav
192,192,121447,1,0,0:0:0:50:drum2.wav
448,192,121605,1,0,0:0:0:25:drum3.wav
64,192,121684,1,0,0:0:0:25:drum3.wav
320,192,121763,1,0,0:0:0:25:drum3.wav
192,192,121842,1,0,0:0:0:25:drum3.wav
64,192,121921,1,0,0:0:0:65:kick3.wav
448,192,121921,1,0,0:0:0:50:kick1.wav
64,192,122079,1,0,0:0:0:65:kick3.wav
320,192,122079,1,0,0:0:0:50:kick1.wav
320,192,122394,1,0,0:0:0:25:drum3.wav
448,192,122394,1,0,0:0:0:50:drum2.wav
64,192,122552,1,0,0:0:0:30:drum3.wav
192,192,122631,1,0,0:0:0:30:drum3.wav
320,192,122710,1,0,0:0:0:25:drum3.wav
448,192,122710,1,0,0:0:0:50:drum2.wav
320,192,122868,1,0,0:0:0:25:drum3.wav
64,192,123026,1,0,0:0:0:50:kick1.wav
448,192,123026,1,0,0:0:0:65:kick3.wav
192,192,123184,1,0,0:0:0:25:drum3.wav
64,192,123342,1,0,0:0:0:50:kick1.wav
448,192,123342,1,0,0:0:0:65:kick3.wav
320,192,123500,1,0,0:0:0:50:drum2.wav
192,192,123579,1,0,0:0:0:65:kick3.wav
448,192,123579,1,0,0:0:0:50:kick1.wav
64,192,123737,1,0,0:0:0:50:drum2.wav
192,192,123816,1,0,0:0:0:65:kick3.wav
320,192,123816,1,0,0:0:0:50:kick1.wav
448,192,123973,1,0,0:0:0:50:drum2.wav
64,192,124052,1,0,0:0:0:65:kick3.wav
192,192,124052,1,0,0:0:0:50:kick1.wav
64,192,124210,1,0,0:0:0:50:drum2.wav
448,192,124289,1,0,0:0:0:25:drum3.wav
192,192,124368,1,0,0:0:0:25:drum3.wav
64,192,124447,1,0,0:0:0:25:drum3.wav
320,192,124526,1,0,0:0:0:50:drum2.wav
448,192,124526,1,0,0:0:0:25:drum3.wav
64,192,124605,1,0,0:0:0:50:kick1.wav
192,192,124605,1,0,0:0:0:65:kick3.wav
64,192,124921,1,0,0:0:0:50:drum2.wav
192,192,124921,1,0,0:0:0:25:drum3.wav
64,192,125079,1,0,0:0:0:50:kick1.wav
448,192,125079,1,0,0:0:0:65:kick3.wav
320,192,125394,1,0,0:0:0:50:drum2.wav
448,192,125394,1,0,0:0:0:25:drum3.wav
192,192,125552,1,0,0:0:0:30:drum3.wav
64,192,125631,1,0,0:0:0:30:drum3.wav
320,192,125710,1,0,0:0:0:0:
448,192,125710,1,0,0:0:0:50:drum2.wav
64,192,125868,1,0,0:0:0:25:drum3.wav
192,192,125947,1,0,0:0:0:25:drum3.wav
448,192,126026,1,0,0:0:0:25:drum3.wav
64,192,126105,1,0,0:0:0:25:drum3.wav
320,192,126184,1,0,0:0:0:25:drum3.wav
448,192,126184,1,0,0:0:0:50:drum2.wav
320,192,126342,1,0,0:0:0:25:drum3.wav
64,192,126500,1,0,0:0:0:50:drum2.wav
192,192,126500,1,0,0:0:0:25:drum3.wav
448,192,126658,1,0,0:0:0:25:drum3.wav
64,192,126737,1,0,0:0:0:25:drum3.wav
320,192,126816,1,0,0:0:0:25:drum3.wav
192,192,126894,1,0,0:0:0:25:drum3.wav
64,192,126973,1,0,0:0:0:50:kick1.wav
448,192,126973,1,0,0:0:0:65:kick3.wav
64,192,127131,1,0,0:0:0:65:kick3.wav
320,192,127131,1,0,0:0:0:50:kick1.wav
320,192,127447,1,0,0:0:0:50:drum2.wav
448,192,127447,1,0,0:0:0:25:drum3.wav
64,192,127605,1,0,0:0:0:30:drum3.wav
192,192,127684,1,0,0:0:0:30:drum3.wav
320,192,127763,1,0,0:0:0:50:drum2.wav
448,192,127763,1,0,0:0:0:25:drum3.wav
320,192,127921,1,0,0:0:0:25:drum3.wav
64,192,128079,1,0,0:0:0:65:kick3.wav
448,192,128079,1,0,0:0:0:50:kick1.wav
192,192,128237,1,0,0:0:0:50:drum2.wav
64,192,128394,1,0,0:0:0:50:kick1.wav
448,192,128394,1,0,0:0:0:65:kick3.wav
320,192,128552,1,0,0:0:0:50:drum2.wav
64,192,128631,1,0,0:0:0:65:kick3.wav
192,192,128631,1,0,0:0:0:50:kick1.wav
448,192,128789,1,0,0:0:0:50:drum2.wav
64,192,128868,1,0,0:0:0:65:kick3.wav
320,192,128868,1,0,0:0:0:50:kick1.wav
192,192,129026,1,0,0:0:0:50:drum2.wav
64,192,129105,1,0,0:0:0:65:kick3.wav
448,192,129105,1,0,0:0:0:50:kick1.wav
320,192,129263,1,0,0:0:0:50:drum2.wav
64,192,129342,1,0,0:0:0:50:kick1.wav
192,192,129342,1,0,0:0:0:65:kick3.wav
192,192,129500,1,0,0:0:0:50:drum2.wav
64,192,129658,1,0,0:0:0:65:kick3.wav
448,192,129658,1,0,0:0:0:50:kick1.wav
64,192,146394,132,0,148605:0:0:0:0:
320,192,148605,1,0,0:0:0:24:drum2.wav
192,192,148684,1,0,0:0:0:25:drum2.wav
448,192,148763,1,0,0:0:0:26:drum2.wav
64,192,148842,1,0,0:0:0:27:drum2.wav
320,192,148921,1,0,0:0:0:28:drum2.wav
192,192,149000,1,0,0:0:0:29:drum2.wav
448,192,149079,1,0,0:0:0:30:drum2.wav
64,192,149158,1,0,0:0:0:31:drum2.wav
320,192,149237,1,0,0:0:0:32:drum2.wav
192,192,149316,1,0,0:0:0:33:drum2.wav
448,192,149394,1,0,0:0:0:34:drum2.wav
64,192,149473,1,0,0:0:0:35:drum2.wav
192,192,149552,1,0,0:0:0:0:
320,192,149552,1,0,0:0:0:80:drum1.wav
64,192,149868,1,0,0:0:0:65:kick3.wav
448,192,149868,1,0,0:0:0:50:kick1.wav
192,192,150184,1,0,0:0:0:80:drum1.wav
320,192,150184,1,0,0:0:0:25:drum3.wav
64,192,150342,1,0,0:0:0:65:kick3.wav
448,192,150342,1,0,0:0:0:50:kick1.wav
64,192,150500,1,0,0:0:0:65:kick3.wav
448,192,150500,1,0,0:0:0:50:kick1.wav
192,192,150816,1,0,0:0:0:80:drum1.wav
320,192,150816,1,0,0:0:0:25:drum3.wav
64,192,150973,1,0,0:0:0:65:kick3.wav
448,192,150973,1,0,0:0:0:50:kick1.wav
64,192,151131,1,0,0:0:0:65:kick3.wav
448,192,151131,1,0,0:0:0:50:kick1.wav
192,192,151447,1,0,0:0:0:80:drum1.wav
320,192,151447,1,0,0:0:0:25:drum3.wav
64,192,151605,1,0,0:0:0:65:kick3.wav
448,192,151605,1,0,0:0:0:50:kick1.wav
64,192,151763,1,0,0:0:0:65:kick3.wav
448,192,151763,1,0,0:0:0:50:kick1.wav
192,192,151921,1,0,0:0:0:80:drum1.wav
320,192,151921,1,0,0:0:0:25:drum3.wav
448,192,152079,1,0,0:0:0:30:drum3.wav
320,192,152158,1,0,0:0:0:30:drum3.wav
64,192,152237,1,0,0:0:0:25:drum3.wav
192,192,152237,1,0,0:0:0:80:drum1.wav
64,192,152394,1,0,0:0:0:50:kick1.wav
448,192,152394,1,0,0:0:0:65:kick3.wav
192,192,152710,1,0,0:0:0:25:drum3.wav
320,192,152710,1,0,0:0:0:80:drum1.wav
64,192,152868,1,0,0:0:0:30:drum3.wav
320,192,152947,1,0,0:0:0:30:drum3.wav
64,192,153026,1,0,0:0:0:50:kick1.wav
448,192,153026,1,0,0:0:0:65:kick3.wav
192,192,153342,1,0,0:0:0:80:drum1.wav
320,192,153342,1,0,0:0:0:25:drum3.wav
64,192,153500,1,0,0:0:0:50:kick1.wav
448,192,153500,1,0,0:0:0:65:kick3.wav
64,192,153658,1,0,0:0:0:50:kick1.wav
448,192,153658,1,0,0:0:0:65:kick3.wav
192,192,153973,1,0,0:0:0:80:drum1.wav
320,192,153973,1,0,0:0:0:25:drum3.wav
448,192,154131,1,0,0:0:0:30:drum3.wav
192,192,154210,1,0,0:0:0:30:drum3.wav
64,192,154289,1,0,0:0:0:50:kick1.wav
320,192,154289,1,0,0:0:0:65:kick3.wav
192,192,154447,1,0,0:0:0:50:kick1.wav
64,192,154605,1,0,0:0:0:25:drum3.wav
448,192,154605,1,0,0:0:0:80:drum1.wav
192,192,154684,1,0,0:0:0:80:drum1.wav
320,192,154684,1,0,0:0:0:25:drum3.wav
64,192,154842,1,0,0:0:0:25:drum3.wav
192,192,154842,1,0,0:0:0:80:drum1.wav
320,192,154921,1,0,0:0:0:65:kick3.wav
448,192,154921,1,0,0:0:0:50:kick1.wav
448,192,155079,1,0,0:0:0:25:drum3.wav
320,192,155158,1,0,0:0:0:25:drum3.wav
64,192,155237,1,0,0:0:0:80:drum1.wav
192,192,155237,1,0,0:0:0:25:drum3.wav
64,192,155394,1,0,0:0:0:25:drum3.wav
192,192,155473,1,0,0:0:0:25:drum3.wav
320,192,155552,1,0,0:0:0:25:drum3.wav
448,192,155552,1,0,0:0:0:80:drum1.wav
448,192,155710,1,0,0:0:0:25:drum3.wav
320,192,155789,1,0,0:0:0:25:drum3.wav
64,192,155868,1,0,0:0:0:80:drum1.wav
192,192,155868,1,0,0:0:0:25:drum3.wav
320,192,156026,1,0,0:0:0:25:drum3.wav
192,192,156105,1,0,0:0:0:25:drum3.wav
64,192,156184,1,0,0:0:0:50:kick1.wav
320,192,156184,1,0,0:0:0:65:kick3.wav
64,192,156342,1,0,0:0:0:25:drum3.wav
192,192,156342,1,0,0:0:0:80:drum1.wav
64,192,156500,1,0,0:0:0:25:drum3.wav
192,192,156500,1,0,0:0:0:80:drum1.wav
320,192,156658,1,0,0:0:0:25:drum3.wav
448,192,156658,1,0,0:0:0:80:drum1.wav
448,192,156816,1,0,0:0:0:25:drum3.wav
320,192,156894,1,0,0:0:0:30:drum3.wav
64,192,156973,1,0,0:0:0:80:drum1.wav
192,192,156973,1,0,0:0:0:25:drum3.wav
64,192,157131,1,0,0:0:0:65:kick3.wav
448,192,157131,1,0,0:0:0:50:kick1.wav
64,192,157289,1,0,0:0:0:50:kick1.wav
448,192,157289,1,0,0:0:0:65:kick3.wav
192,192,157447,1,0,0:0:0:50:kick1.wav
320,192,157447,1,0,0:0:0:65:kick3.wav
64,192,157605,1,0,0:0:0:50:drum1.wav
192,192,157658,1,0,0:0:0:50:drum1.wav
320,192,157710,1,0,0:0:0:50:drum1.wav
448,192,157763,1,0,0:0:0:25:drum3.wav
64,192,157921,1,0,0:0:0:25:drum3.wav
192,192,157921,1,0,0:0:0:80:drum1.wav
448,192,158079,1,0,0:0:0:50:drum1.wav
320,192,158131,1,0,0:0:0:50:drum1.wav
192,192,158184,1,0,0:0:0:50:drum1.wav
64,192,158237,1,0,0:0:0:50:kick1.wav
192,192,158394,1,0,0:0:0:25:drum3.wav
320,192,158394,1,0,0:0:0:80:drum1.wav
64,192,158552,1,0,0:0:0:50:kick1.wav
448,192,158552,1,0,0:0:0:65:kick3.wav
64,192,158710,1,0,0:0:0:65:kick3.wav
448,192,158710,1,0,0:0:0:50:kick1.wav
192,192,158868,1,0,0:0:0:25:drum3.wav
320,192,158947,1,0,0:0:0:50:kick1.wav
448,192,158947,1,0,0:0:0:65:kick3.wav
320,192,159105,1,0,0:0:0:80:drum1.wav
64,192,159184,1,0,0:0:0:65:kick3.wav
448,192,159184,1,0,0:0:0:50:kick1.wav
448,192,159342,1,0,0:0:0:80:drum1.wav
64,192,159421,1,0,0:0:0:50:kick1.wav
320,192,159421,1,0,0:0:0:65:kick3.wav
320,192,159579,1,0,0:0:0:80:drum1.wav
64,192,159658,1,0,0:0:0:65:kick3.wav
192,192,159658,1,0,0:0:0:50:kick1.wav
192,192,159816,1,0,0:0:0:80:drum1.wav
320,192,159816,1,0,0:0:0:25:drum3.wav
64,192,159973,1,0,0:0:0:50:kick1.wav
448,192,159973,1,0,0:0:0:65:kick3.wav
448,192,160131,1,0,0:0:0:30:drum3.wav
320,192,160210,1,0,0:0:0:30:drum3.wav
64,192,160289,1,0,0:0:0:25:drum3.wav
192,192,160289,1,0,0:0:0:80:drum1.wav
320,192,160447,1,0,0:0:0:25:drum3.wav
448,192,160526,1,0,0:0:0:25:drum3.wav
64,192,160605,1,0,0:0:0:25:drum3.wav
320,192,160684,1,0,0:0:0:25:drum3.wav
64,192,160763,1,0,0:0:0:50:kick1.wav
448,192,160763,1,0,0:0:0:65:kick3.wav
192,192,160921,1,0,0:0:0:80:drum1.wav
320,192,160921,1,0,0:0:0:25:drum3.wav
64,192,161079,1,0,0:0:0:25:drum3.wav
448,192,161079,1,0,0:0:0:40:drum4.wav
320,192,161158,1,0,0:0:0:40:drum4.wav
192,192,161237,1,0,0:0:0:0:
448,192,161237,1,0,0:0:0:25:drum3.wav
64,192,161394,1,0,0:0:0:25:drum3.wav
192,192,161473,1,0,0:0:0:25:drum3.wav
320,192,161552,1,0,0:0:0:80:drum1.wav
448,192,161552,1,0,0:0:0:40:drum4.wav
64,192,161631,1,0,0:0:0:25:drum3.wav
320,192,161710,1,0,0:0:0:25:drum3.wav
192,192,161789,1,0,0:0:0:40:drum4.wav
448,192,161789,1,0,0:0:0:80:drum1.wav
64,192,161868,1,0,0:0:0:25:drum3.wav
448,192,161947,1,0,0:0:0:25:drum3.wav
192,192,162026,1,0,0:0:0:25:drum3.wav
320,192,162105,1,0,0:0:0:25:drum3.wav
64,192,162184,1,0,0:0:0:25:drum3.wav
192,192,162263,1,0,0:0:0:25:drum3.wav
320,192,162342,1,0,0:0:0:25:drum3.wav
448,192,162342,1,0,0:0:0:80:drum1.wav
64,192,162500,1,0,0:0:0:50:kick1.wav
448,192,162500,1,0,0:0:0:65:kick3.wav
192,192,162816,1,0,0:0:0:80:drum1.wav
320,192,162816,1,0,0:0:0:25:drum3.wav
64,192,162973,1,0,0:0:0:25:drum3.wav
320,192,163131,128,0,163210:0:0:0:30:drum3.wav
192,192,163210,128,0,163289:0:0:0:50:drum2.wav
320,192,163289,128,0,163368:0:0:0:50:drum3.wav
64,192,163368,128,0,163447:0:0:0:50:drum3.wav
320,192,163447,1,0,0:0:0:0:
448,192,163447,1,0,0:0:0:80:drum1.wav
64,192,163605,1,0,0:0:0:50:kick1.wav
448,192,163605,1,0,0:0:0:65:kick3.wav
320,192,163763,1,0,0:0:0:25:drum3.wav
64,192,163842,1,0,0:0:0:25:drum3.wav
192,192,163921,1,0,0:0:0:25:drum3.wav
448,192,164000,1,0,0:0:0:25:drum3.wav
192,192,164079,1,0,0:0:0:0:
320,192,164079,1,0,0:0:0:80:drum1.wav
448,192,164237,128,0,164316:0:0:0:25:drum3.wav
64,192,164316,128,0,164394:0:0:0:50:drum4.wav
448,192,164394,128,0,164473:0:0:0:50:drum4.wav
64,192,164473,128,0,164552:0:0:0:50:drum4.wav
320,192,164552,1,0,0:0:0:25:drum3.wav
448,192,164631,1,0,0:0:0:25:drum3.wav
64,192,164710,1,0,0:0:0:25:drum3.wav
192,192,164710,1,0,0:0:0:80:drum1.wav
448,192,164868,1,0,0:0:0:25:drum3.wav
192,192,164947,1,0,0:0:0:25:drum3.wav
64,192,165026,1,0,0:0:0:25:drum3.wav
320,192,165026,1,0,0:0:0:40:drum4.wav
448,192,165184,1,0,0:0:0:25:drum3.wav
320,192,165263,1,0,0:0:0:25:drum3.wav
64,192,165342,1,0,0:0:0:25:drum3.wav
192,192,165342,1,0,0:0:0:80:drum1.wav
64,192,165500,1,0,0:0:0:25:drum3.wav
192,192,165579,1,0,0:0:0:25:drum3.wav
320,192,165658,1,0,0:0:0:80:drum1.wav
448,192,165658,1,0,0:0:0:25:drum3.wav
448,192,165816,1,0,0:0:0:25:drum3.wav
320,192,165894,1,0,0:0:0:25:drum3.wav
64,192,165973,1,0,0:0:0:25:drum3.wav
192,192,165973,1,0,0:0:0:80:drum1.wav
64,192,166131,1,0,0:0:0:25:drum3.wav
192,192,166210,1,0,0:0:0:25:drum3.wav
320,192,166289,1,0,0:0:0:80:drum1.wav
448,192,166289,1,0,0:0:0:25:drum3.wav
320,192,166447,1,0,0:0:0:80:drum1.wav
448,192,166447,1,0,0:0:0:25:drum3.wav
64,192,166605,1,0,0:0:0:80:drum1.wav
192,192,166605,1,0,0:0:0:25:drum3.wav
64,192,166763,1,0,0:0:0:80:drum1.wav
192,192,166763,1,0,0:0:0:25:drum3.wav
320,192,166921,1,0,0:0:0:25:drum3.wav
448,192,166921,1,0,0:0:0:80:drum1.wav
320,192,167079,1,0,0:0:0:25:drum3.wav
448,192,167079,1,0,0:0:0:80:drum1.wav
64,192,167237,1,0,0:0:0:25:drum3.wav
192,192,167237,1,0,0:0:0:80:drum1.wav
64,192,167394,1,0,0:0:0:25:drum3.wav
192,192,167394,1,0,0:0:0:80:drum1.wav
320,192,167552,1,0,0:0:0:65:kick3.wav
448,192,167552,1,0,0:0:0:50:kick1.wav
448,192,167710,1,0,0:0:0:40:drum4.wav
64,192,167789,1,0,0:0:0:50:kick1.wav
320,192,167789,1,0,0:0:0:65:kick3.wav
64,192,167947,1,0,0:0:0:40:drum4.wav
192,192,168026,1,0,0:0:0:65:kick3.wav
320,192,168026,1,0,0:0:0:50:kick1.wav
320,192,168184,1,0,0:0:0:40:drum4.wav
192,192,168263,1,0,0:0:0:50:kick1.wav
448,192,168263,1,0,0:0:0:65:kick3.wav
192,192,168421,1,0,0:0:0:40:drum4.wav
64,192,168500,1,0,0:0:0:50:kick1.wav
448,192,168500,1,0,0:0:0:65:kick3.wav
192,192,168658,1,0,0:0:0:25:drum3.wav
64,192,168737,1,0,0:0:0:25:drum3.wav
320,192,168816,1,0,0:0:0:40:drum4.wav
448,192,168816,1,0,0:0:0:80:drum1.wav
192,192,168894,1,0,0:0:0:40:drum4.wav
320,192,168973,1,0,0:0:0:25:drum3.wav
64,192,169052,1,0,0:0:0:40:drum4.wav
448,192,169052,1,0,0:0:0:80:drum1.wav
192,192,169131,1,0,0:0:0:40:drum4.wav
320,192,169210,1,0,0:0:0:25:drum3.wav
192,192,169289,1,0,0:0:0:40:drum4.wav
448,192,169289,1,0,0:0:0:80:drum1.wav
64,192,169368,1,0,0:0:0:40:drum4.wav
320,192,169447,1,0,0:0:0:25:drum3.wav
64,192,169526,1,0,0:0:0:80:drum1.wav
192,192,169526,1,0,0:0:0:40:drum4.wav
448,192,169605,1,0,0:0:0:40:drum4.wav
192,192,169684,1,0,0:0:0:25:drum3.wav
64,192,169763,1,0,0:0:0:65:kick3.wav
320,192,169763,1,0,0:0:0:50:kick1.wav
192,192,169921,1,0,0:0:0:0:
320,192,169921,1,0,0:0:0:80:drum1.wav
64,192,170079,1,0,0:0:0:50:kick1.wav
448,192,170079,1,0,0:0:0:65:kick3.wav
192,192,170394,1,0,0:0:0:80:drum1.wav
320,192,170394,1,0,0:0:0:25:drum3.wav
64,192,170552,1,0,0:0:0:50:kick1.wav
448,192,170552,1,0,0:0:0:65:kick3.wav
64,192,170710,1,0,0:0:0:65:kick3.wav
448,192,170710,1,0,0:0:0:50:kick1.wav
192,192,171026,1,0,0:0:0:25:drum3.wav
320,192,171026,1,0,0:0:0:80:drum1.wav
64,192,171184,1,0,0:0:0:65:kick3.wav
448,192,171184,1,0,0:0:0:50:kick1.wav
64,192,171342,1,0,0:0:0:65:kick3.wav
448,192,171342,1,0,0:0:0:50:kick1.wav
192,192,171658,1,0,0:0:0:80:drum1.wav
320,192,171658,1,0,0:0:0:25:drum3.wav
64,192,171816,1,0,0:0:0:65:kick3.wav
448,192,171816,1,0,0:0:0:50:kick1.wav
64,192,171973,1,0,0:0:0:65:kick3.wav
448,192,171973,1,0,0:0:0:50:kick1.wav
192,192,172131,1,0,0:0:0:80:drum1.wav
320,192,172131,1,0,0:0:0:25:drum3.wav
448,192,172289,1,0,0:0:0:30:drum3.wav
320,192,172368,1,0,0:0:0:30:drum3.wav
64,192,172447,1,0,0:0:0:25:drum3.wav
192,192,172447,1,0,0:0:0:80:drum1.wav
64,192,172605,1,0,0:0:0:50:kick1.wav
448,192,172605,1,0,0:0:0:65:kick3.wav
192,192,172921,1,0,0:0:0:25:drum3.wav
320,192,172921,1,0,0:0:0:80:drum1.wav
64,192,173079,1,0,0:0:0:30:drum3.wav
320,192,173158,1,0,0:0:0:30:drum3.wav
64,192,173237,1,0,0:0:0:65:kick3.wav
448,192,173237,1,0,0:0:0:50:kick1.wav
192,192,173552,1,0,0:0:0:25:drum3.wav
320,192,173552,1,0,0:0:0:80:drum1.wav
64,192,173710,1,0,0:0:0:65:kick3.wav
448,192,173710,1,0,0:0:0:50:kick1.wav
320,192,173868,1,0,0:0:0:25:drum3.wav
448,192,173947,1,0,0:0:0:25:drum3.wav
192,192,174026,1,0,0:0:0:25:drum3.wav
320,192,174105,1,0,0:0:0:25:drum3.wav
64,192,174184,1,0,0:0:0:80:drum1.wav
192,192,174184,1,0,0:0:0:25:drum3.wav
448,192,174342,1,0,0:0:0:30:drum3.wav
192,192,174421,1,0,0:0:0:30:drum3.wav
64,192,174500,1,0,0:0:0:65:kick3.wav
320,192,174500,1,0,0:0:0:50:kick1.wav
192,192,174658,1,0,0:0:0:50:kick1.wav
320,192,174816,1,0,0:0:0:25:drum3.wav
448,192,174816,1,0,0:0:0:80:drum1.wav
320,192,174973,1,0,0:0:0:80:drum1.wav
448,192,174973,1,0,0:0:0:25:drum3.wav
64,192,175131,1,0,0:0:0:65:kick3.wav
448,192,175131,1,0,0:0:0:50:kick1.wav
64,192,175289,1,0,0:0:0:25:drum3.wav
192,192,175368,1,0,0:0:0:25:drum3.wav
320,192,175447,1,0,0:0:0:25:drum3.wav
448,192,175447,1,0,0:0:0:80:drum1.wav
448,192,175605,1,0,0:0:0:25:drum3.wav
320,192,175684,1,0,0:0:0:25:drum3.wav
64,192,175763,1,0,0:0:0:25:drum3.wav
192,192,175763,1,0,0:0:0:80:drum1.wav
64,192,175921,1,0,0:0:0:25:drum3.wav
192,192,176000,1,0,0:0:0:25:drum3.wav
320,192,176079,1,0,0:0:0:80:drum1.wav
448,192,176079,1,0,0:0:0:25:drum3.wav
448,192,176237,1,0,0:0:0:25:drum3.wav
192,192,176316,1,0,0:0:0:25:drum3.wav
64,192,176394,1,0,0:0:0:65:kick3.wav
320,192,176394,1,0,0:0:0:50:kick1.wav
64,192,176552,1,0,0:0:0:80:drum1.wav
192,192,176552,1,0,0:0:0:25:drum3.wav
64,192,176710,1,0,0:0:0:25:drum3.wav
192,192,176710,1,0,0:0:0:80:drum1.wav
320,192,176868,1,0,0:0:0:80:drum1.wav
448,192,176868,1,0,0:0:0:25:drum3.wav
448,192,177026,1,0,0:0:0:30:drum3.wav
320,192,177105,1,0,0:0:0:30:drum3.wav
64,192,177184,1,0,0:0:0:25:drum3.wav
192,192,177184,1,0,0:0:0:80:drum1.wav
64,192,177342,1,0,0:0:0:50:kick1.wav
448,192,177342,1,0,0:0:0:65:kick3.wav
64,192,177500,1,0,0:0:0:50:kick1.wav
448,192,177500,1,0,0:0:0:65:kick3.wav
192,192,177658,1,0,0:0:0:50:kick1.wav
320,192,177658,1,0,0:0:0:65:kick3.wav
64,192,177816,1,0,0:0:0:50:drum1.wav
192,192,177868,1,0,0:0:0:50:drum1.wav
320,192,177921,1,0,0:0:0:50:drum1.wav
448,192,177973,1,0,0:0:0:50:drum1.wav
64,192,178131,1,0,0:0:0:80:drum1.wav
192,192,178131,1,0,0:0:0:25:drum3.wav
448,192,178289,1,0,0:0:0:50:drum1.wav
320,192,178342,1,0,0:0:0:50:drum1.wav
192,192,178394,1,0,0:0:0:50:drum1.wav
64,192,178447,1,0,0:0:0:65:kick3.wav
192,192,178605,1,0,0:0:0:80:drum1.wav
320,192,178605,1,0,0:0:0:25:drum3.wav
64,192,178763,1,0,0:0:0:50:kick1.wav
448,192,178763,1,0,0:0:0:65:kick3.wav
64,192,178921,1,0,0:0:0:50:kick1.wav
448,192,178921,1,0,0:0:0:65:kick3.wav
192,192,179079,1,0,0:0:0:25:drum3.wav
320,192,179158,1,0,0:0:0:65:kick3.wav
448,192,179158,1,0,0:0:0:50:kick1.wav
320,192,179316,1,0,0:0:0:80:drum1.wav
64,192,179394,1,0,0:0:0:65:kick3.wav
448,192,179394,1,0,0:0:0:50:kick1.wav
448,192,179552,1,0,0:0:0:25:drum3.wav
64,192,179631,1,0,0:0:0:65:kick3.wav
320,192,179631,1,0,0:0:0:50:kick1.wav
320,192,179789,1,0,0:0:0:80:drum1.wav
64,192,179868,1,0,0:0:0:50:kick1.wav
192,192,179868,1,0,0:0:0:65:kick3.wav
192,192,180026,1,0,0:0:0:25:drum3.wav
320,192,180026,1,0,0:0:0:80:drum1.wav
64,192,180184,1,0,0:0:0:65:kick3.wav
448,192,180184,1,0,0:0:0:50:kick1.wav
448,192,180342,1,0,0:0:0:30:drum3.wav
320,192,180421,1,0,0:0:0:30:drum3.wav
64,192,180500,1,0,0:0:0:25:drum3.wav
192,192,180500,1,0,0:0:0:80:drum1.wav
320,192,180658,1,0,0:0:0:25:drum3.wav
448,192,180737,1,0,0:0:0:25:drum3.wav
64,192,180816,1,0,0:0:0:25:drum3.wav
320,192,180894,1,0,0:0:0:25:drum3.wav
64,192,180973,1,0,0:0:0:65:kick3.wav
448,192,180973,1,0,0:0:0:50:kick1.wav
192,192,181131,1,0,0:0:0:25:drum3.wav
320,192,181131,1,0,0:0:0:80:drum1.wav
64,192,181289,1,0,0:0:0:40:drum4.wav
448,192,181289,1,0,0:0:0:25:drum3.wav
320,192,181368,1,0,0:0:0:40:drum4.wav
192,192,181447,1,0,0:0:0:0:
448,192,181447,1,0,0:0:0:25:drum3.wav
64,192,181605,1,0,0:0:0:25:drum3.wav
192,192,181684,1,0,0:0:0:25:drum3.wav
320,192,181763,1,0,0:0:0:80:drum1.wav
448,192,181763,1,0,0:0:0:40:drum4.wav
64,192,181842,1,0,0:0:0:25:drum3.wav
448,192,181921,1,0,0:0:0:25:drum3.wav
192,192,182000,1,0,0:0:0:80:drum1.wav
320,192,182000,1,0,0:0:0:40:drum4.wav
64,192,182079,1,0,0:0:0:40:drum4.wav
320,192,182158,1,0,0:0:0:25:drum3.wav
192,192,182237,1,0,0:0:0:25:drum3.wav
448,192,182316,1,0,0:0:0:25:drum3.wav
64,192,182394,1,0,0:0:0:25:drum3.wav
192,192,182473,1,0,0:0:0:25:drum3.wav
320,192,182552,1,0,0:0:0:25:drum3.wav
448,192,182552,1,0,0:0:0:80:drum1.wav
64,192,182710,1,0,0:0:0:50:kick1.wav
448,192,182710,1,0,0:0:0:65:kick3.wav
192,192,183026,1,0,0:0:0:25:drum3.wav
320,192,183026,1,0,0:0:0:80:drum1.wav
64,192,183184,1,0,0:0:0:40:drum4.wav
320,192,183342,128,0,183421:0:0:0:30:drum3.wav
192,192,183421,128,0,183500:0:0:0:50:drum2.wav
320,192,183500,128,0,183579:0:0:0:50:drum3.wav
64,192,183579,128,0,183658:0:0:0:50:drum3.wav
320,192,183658,1,0,0:0:0:0:
448,192,183658,1,0,0:0:0:80:drum1.wav
64,192,183816,1,0,0:0:0:50:kick1.wav
448,192,183816,1,0,0:0:0:65:kick3.wav
320,192,183973,1,0,0:0:0:25:drum3.wav
64,192,184052,1,0,0:0:0:25:drum3.wav
192,192,184131,1,0,0:0:0:25:drum3.wav
448,192,184210,1,0,0:0:0:25:drum3.wav
192,192,184289,1,0,0:0:0:0:
320,192,184289,1,0,0:0:0:80:drum1.wav
448,192,184447,128,0,184526:0:0:0:50:drum4.wav
64,192,184526,128,0,184605:0:0:0:50:drum4.wav
448,192,184605,128,0,184684:0:0:0:50:drum4.wav
64,192,184684,128,0,184763:0:0:0:50:drum4.wav
320,192,184763,1,0,0:0:0:25:drum3.wav
448,192,184842,1,0,0:0:0:25:drum3.wav
64,192,184921,1,0,0:0:0:80:drum1.wav
192,192,184921,1,0,0:0:0:25:drum3.wav
448,192,185079,1,0,0:0:0:25:drum3.wav
192,192,185158,1,0,0:0:0:25:drum3.wav
64,192,185237,1,0,0:0:0:40:drum4.wav
320,192,185237,1,0,0:0:0:25:drum3.wav
448,192,185394,1,0,0:0:0:25:drum3.wav
320,192,185473,1,0,0:0:0:25:drum3.wav
64,192,185552,1,0,0:0:0:25:drum3.wav
192,192,185552,1,0,0:0:0:80:drum1.wav
64,192,185710,1,0,0:0:0:25:drum3.wav
192,192,185789,1,0,0:0:0:25:drum3.wav
320,192,185868,1,0,0:0:0:25:drum3.wav
448,192,185868,1,0,0:0:0:80:drum1.wav
448,192,186026,1,0,0:0:0:25:drum3.wav
320,192,186105,1,0,0:0:0:25:drum3.wav
64,192,186184,1,0,0:0:0:80:drum1.wav
192,192,186184,1,0,0:0:0:25:drum3.wav
64,192,186342,1,0,0:0:0:25:drum3.wav
192,192,186421,1,0,0:0:0:25:drum3.wav
320,192,186500,1,0,0:0:0:80:drum1.wav
448,192,186500,1,0,0:0:0:25:drum3.wav
320,192,186658,1,0,0:0:0:25:drum3.wav
448,192,186658,1,0,0:0:0:80:drum1.wav
64,192,186816,1,0,0:0:0:25:drum3.wav
192,192,186816,1,0,0:0:0:80:drum1.wav
64,192,186973,1,0,0:0:0:25:drum3.wav
192,192,186973,1,0,0:0:0:80:drum1.wav
320,192,187131,1,0,0:0:0:25:drum3.wav
448,192,187131,1,0,0:0:0:80:drum1.wav
320,192,187289,1,0,0:0:0:25:drum3.wav
448,192,187289,1,0,0:0:0:80:drum1.wav
64,192,187447,1,0,0:0:0:80:drum1.wav
192,192,187447,1,0,0:0:0:25:drum3.wav
64,192,187605,1,0,0:0:0:80:drum1.wav
192,192,187605,1,0,0:0:0:25:drum3.wav
320,192,187763,1,0,0:0:0:65:kick3.wav
448,192,187763,1,0,0:0:0:50:kick1.wav
448,192,187921,1,0,0:0:0:40:drum4.wav
64,192,188000,1,0,0:0:0:50:kick1.wav
320,192,188000,1,0,0:0:0:65:kick3.wav
64,192,188158,1,0,0:0:0:40:drum4.wav
192,192,188237,1,0,0:0:0:50:kick1.wav
320,192,188237,1,0,0:0:0:65:kick3.wav
320,192,188394,1,0,0:0:0:40:drum4.wav
192,192,188473,1,0,0:0:0:65:kick3.wav
448,192,188473,1,0,0:0:0:50:kick1.wav
192,192,188631,1,0,0:0:0:40:drum4.wav
320,192,188710,1,0,0:0:0:65:kick3.wav
448,192,188710,1,0,0:0:0:50:kick1.wav
192,192,188868,1,0,0:0:0:25:drum3.wav
64,192,188947,1,0,0:0:0:25:drum3.wav
320,192,189026,1,0,0:0:0:40:drum4.wav
448,192,189026,1,0,0:0:0:80:drum1.wav
192,192,189105,1,0,0:0:0:40:drum4.wav
320,192,189184,1,0,0:0:0:25:drum3.wav
64,192,189263,1,0,0:0:0:40:drum4.wav
448,192,189263,1,0,0:0:0:80:drum1.wav
192,192,189342,1,0,0:0:0:40:drum4.wav
320,192,189421,1,0,0:0:0:25:drum3.wav
64,192,189500,1,0,0:0:0:25:drum3.wav
192,192,189500,1,0,0:0:0:80:drum1.wav
320,192,189579,1,0,0:0:0:25:drum3.wav
448,192,189579,1,0,0:0:0:80:drum1.wav
64,192,189658,1,0,0:0:0:25:drum3.wav
192,192,189658,1,0,0:0:0:80:drum1.wav
320,192,189737,1,0,0:0:0:80:drum1.wav
448,192,189737,1,0,0:0:0:25:drum3.wav
64,192,189816,1,0,0:0:0:25:drum3.wav
192,192,189816,1,0,0:0:0:80:drum1.wav
320,192,189894,1,0,0:0:0:80:drum1.wav
64,192,189973,1,0,0:0:0:65:kick3.wav
448,192,189973,1,0,0:0:0:50:kick1.wav
64,192,190289,1,0,0:0:0:0:
