osu file format v14

[General]
AudioFilename: audio.mp3
AudioLeadIn: 0
PreviewTime: 49635
Countdown: 0
SampleSet: Normal
StackLeniency: 0.6
Mode: 0
LetterboxInBreaks: 0
WidescreenStoryboard: 1

[Editor]
Bookmarks: 1582,13582,25582,31582,37582,43582,49957,55957,61957,67957,73582
DistanceSpacing: 0.9
BeatDivisor: 4
GridSize: 32
TimelineZoom: 2.7

[Metadata]
Title:Octarmaments
TitleUnicode:Octarmaments
Artist:Turquoise October
ArtistUnicode:Turquoise October
Creator:Fowwo
Version:Extra
Source:Splatoon 2
Tags:
BeatmapID:1694552
BeatmapSetID:807410

[Difficulty]
HPDrainRate:8
CircleSize:4
OverallDifficulty:8
ApproachRate:9
SliderMultiplier:2
SliderTickRate:1

[Events]
//Background and Video events
0,0,"OO4.jpg",0,0
//Break Periods
//Storyboard Layer 0 (Background)
//Storyboard Layer 1 (Fail)
//Storyboard Layer 2 (Pass)
//Storyboard Layer 3 (Foreground)
//Storyboard Sound Samples

[TimingPoints]
135,375,4,1,1,35,1,0
1635,-100,4,1,1,50,0,0
13635,-80,4,1,1,65,0,0
18072,-80,4,2,0,5,0,0
18135,-80,4,1,1,65,0,0
18197,-80,4,2,0,5,0,0
18260,-80,4,1,1,65,0,0
18322,-80,4,2,0,5,0,0
18385,-80,4,1,1,65,0,0
18447,-80,4,2,0,5,0,0
18510,-80,4,1,1,65,0,0
25635,-66.6666666666667,4,1,1,80,0,0
31635,-60.6060606060606,4,1,1,80,0,0
37635,-66.6666666666667,4,1,1,80,0,0
43635,-60.6060606060606,4,1,1,80,0,0
49072,-50,4,1,1,80,0,0
49635,-200,4,1,1,80,0,0
50010,-44.4444444444445,4,1,1,100,0,1
50385,-57.1428571428571,4,1,1,100,0,1
51135,-80,4,1,1,100,0,1
51885,-57.1428571428571,4,1,1,100,0,1
52635,-57.1428571428571,4,1,1,100,0,0
53010,-44.4444444444445,4,1,1,100,0,1
53385,-57.1428571428571,4,1,1,100,0,1
54135,-80,4,3,0,100,0,0
55635,-200,4,1,1,100,0,0
56010,-44.4444444444445,4,1,1,100,0,1
56385,-57.1428571428571,4,1,1,100,0,1
57135,-80,4,1,1,100,0,1
57885,-57.1428571428571,4,1,1,100,0,1
58635,-80,4,1,1,100,0,0
59010,-57.1428571428571,4,1,1,100,0,1
59385,-57.1428571428571,4,1,1,100,0,1
60135,-80,4,1,1,100,0,0
61635,-200,4,1,1,100,0,0
62010,-44.4444444444445,4,1,1,100,0,1
62385,-57.1428571428571,4,1,1,100,0,1
63135,-80,4,1,1,100,0,1
63885,-57.1428571428571,4,1,1,100,0,1
64635,-80,4,1,1,100,0,0
65010,-44.4444444444445,4,1,1,100,0,1
65385,-57.1428571428571,4,1,1,100,0,1
66135,-80,4,3,0,100,0,0
67635,-200,4,1,1,100,0,0
68010,-44.4444444444445,4,1,1,100,0,1
68385,-57.1428571428571,4,1,1,100,0,1
69135,-80,4,1,1,100,0,1
70072,-57.1428571428571,4,1,1,100,0,1
70635,-80,4,1,1,100,0,0
71010,-44.4444444444445,4,1,1,100,0,1
71385,-57.1428571428571,4,1,1,100,0,1
72135,-80,4,1,1,100,0,0
75135,-80,4,1,1,35,0,0

[Colours]
Combo1 : 0,255,200
Combo2 : 255,125,0
Combo3 : 150,255,0
Combo4 : 255,64,100

[HitObjects]
256,192,135,12,0,728,0:0:0:0:
96,48,1635,6,0,P|151:45|193:61,1,100,6|0,0:0|0:0,0:0:0:0:
250,215,1916,1,4,0:0:0:0:
250,215,2010,2,0,P|233:168|237:118,1,100,8|2,0:0|0:0,0:0:0:0:
306,25,2291,1,4,0:0:0:0:
339,29,2384,1,0,0:0:0:0:
372,32,2478,1,4,0:0:0:0:
405,36,2572,1,6,0:0:0:0:
229,17,2760,1,8,0:0:0:0:
488,203,2947,6,0,P|491:153|475:106,1,100,2|8,0:0|0:0,0:0:0:0:
349,278,3322,1,2,0:0:0:0:
382,274,3415,1,4,0:0:0:0:
415,271,3509,1,10,0:0:0:0:
212,143,3697,5,2,0:0:0:0:
212,143,3791,1,4,0:0:0:0:
212,143,3885,1,4,0:0:0:0:
200,178,3978,1,4,0:0:0:0:
203,215,4072,1,4,0:0:0:0:
220,249,4166,1,4,0:0:0:0:
247,274,4260,1,2,3:0:0:0:
222,271,4353,1,2,3:0:0:0:
197,268,4447,1,2,3:0:0:0:
172,266,4541,1,2,3:0:0:0:
147,262,4635,6,0,P|130:308|134:358,1,100,6|0,0:0|0:0,0:0:0:0:
96,183,4916,1,4,0:0:0:0:
96,183,5010,2,0,P|49:166|0:170,1,100,8|2,0:0|0:0,0:0:0:0:
175,132,5291,1,4,0:0:0:0:
188,101,5384,1,0,0:0:0:0:
192,68,5478,1,4,0:0:0:0:
187,35,5572,1,6,0:0:0:0:
226,214,5760,1,8,0:0:0:0:
0,63,5947,2,0,L|49:68,1,50,2|0,0:0|0:0,0:0:0:0:
323,195,6322,5,2,0:0:0:0:
313,41,6416,1,8,0:0:0:0:
318,118,6509,1,8,0:0:0:0:
318,118,6603,2,0,L|219:128,1,100,2|4,0:0|0:0,0:0:0:0:
138,247,6885,2,0,P|135:222|141:197,2,50,2|4|4,0:0|0:0|0:0,0:0:0:0:
339,302,7260,2,0,L|342:327,3,25,0|0|0|0,0:0|3:0|3:0|3:0,3:0:0:0:
246,320,7447,2,0,L|244:336,5,16.6666666666667,0|0|0|0|0|0,3:0|3:0|3:0|3:0|3:0|3:0,3:0:0:0:
248,303,7635,6,0,L|258:204,1,100,6|0,0:0|0:0,0:0:0:0:
442,218,7916,1,4,0:0:0:0:
442,218,8010,2,0,P|395:234|345:230,1,100,8|2,0:0|0:0,0:0:0:0:
266,122,8291,1,4,0:0:0:0:
270,89,8384,1,0,0:0:0:0:
273,56,8478,1,4,0:0:0:0:
277,23,8572,1,6,0:0:0:0:
187,157,8760,1,8,0:0:0:0:
450,89,8947,6,0,P|403:73|353:77,1,100,2|8,0:0|0:0,0:0:0:0:
180,223,9322,1,2,0:0:0:0:
184,190,9415,1,4,0:0:0:0:
187,157,9509,1,10,0:0:0:0:
346,336,9697,5,2,0:0:0:0:
346,336,9791,1,4,0:0:0:0:
346,336,9885,1,4,0:0:0:0:
363,302,9978,1,4,0:0:0:0:
367,265,10072,1,4,0:0:0:0:
358,228,10166,1,4,0:0:0:0:
337,197,10260,1,2,3:0:0:0:
362,194,10353,1,2,3:0:0:0:
387,191,10447,1,2,3:0:0:0:
412,189,10541,1,2,3:0:0:0:
437,185,10635,6,0,P|453:137|449:88,1,100,6|0,0:0|0:0,0:0:0:0:
320,10,10916,1,4,0:0:0:0:
320,10,11010,2,0,P|303:57|307:106,1,100,8|2,0:0|0:0,0:0:0:0:
190,21,11291,1,4,0:0:0:0:
157,25,11384,1,0,0:0:0:0:
124,28,11478,1,4,0:0:0:0:
91,32,11572,1,6,0:0:0:0:
320,10,11760,1,8,0:0:0:0:
71,108,11947,2,0,L|120:103,1,50,2|4,0:0|0:0,0:0:0:0:
55,199,12322,5,2,0:0:0:0:
207,176,12416,1,8,0:0:0:0:
131,187,12509,1,8,0:0:0:0:
131,187,12604,2,0,L|120:285,1,100,2|4,0:0|0:0,0:0:0:0:
92,356,12885,1,2,0:0:0:0:
168,344,12979,1,4,0:0:0:0:
244,333,13072,1,4,0:0:0:0:
441,101,13635,6,0,P|380:88|322:110,1,125,6|0,0:0|0:0,0:0:0:0:
400,315,13916,1,4,0:0:0:0:
400,315,14010,2,0,P|412:254|390:196,1,125,8|2,0:0|0:0,0:0:0:0:
249,92,14291,1,4,0:0:0:0:
207,96,14385,1,0,0:0:0:0:
166,100,14478,1,4,0:0:0:0:
124,105,14572,1,6,0:0:0:0:
313,35,14760,1,8,0:0:0:0:
256,213,14947,6,0,P|198:234|137:222,1,125,2|8,0:0|0:0,0:0:0:0:
319,145,15322,1,2,0:0:0:0:
323,186,15416,1,4,0:0:0:0:
328,228,15510,1,10,0:0:0:0:
98,52,15697,5,6,0:0:0:0:
98,52,15791,1,4,0:0:0:0:
98,52,15885,1,4,0:0:0:0:
142,36,15978,1,4,0:0:0:0:
188,37,16072,1,4,0:0:0:0:
232,54,16166,1,4,0:0:0:0:
266,85,16260,1,2,3:0:0:0:
263,108,16353,1,2,3:0:0:0:
261,131,16447,1,2,3:0:0:0:
258,154,16541,1,2,3:0:0:0:
256,178,16635,6,0,P|313:156|374:168,1,125,6|0,0:0|0:0,0:0:0:0:
219,349,16916,1,4,0:0:0:0:
219,349,17010,2,0,P|197:291|209:230,1,125,8|2,0:0|0:0,0:0:0:0:
344,362,17291,1,4,0:0:0:0:
302,358,17384,1,0,0:0:0:0:
261,354,17478,1,4,0:0:0:0:
219,349,17572,1,6,0:0:0:0:
417,369,17760,2,0,L|403:244,1,125,8|2,0:0|0:0,0:0:0:0:
419,212,18010,6,0,L|377:216,1,41.6666666666667,4|0,0:0|2:0,0:0:0:0:
461,116,18135,2,0,L|465:157,1,41.6666666666667,4|0,0:0|2:0,0:0:0:0:
365,74,18260,2,0,L|406:69,1,41.6666666666667,4|0,0:0|2:0,0:0:0:0:
323,170,18385,2,0,L|318:128,1,41.6666666666667,4|4,0:0|0:0,0:0:0:0:
392,143,18510,1,8,0:0:0:0:
209,102,18697,6,0,P|200:170|226:227,1,125,0|0,0:0|0:0,0:0:0:0:
221,220,18978,1,4,0:0:0:0:
221,220,19072,1,4,0:0:0:0:
349,214,19260,2,0,L|380:210,3,31.25,0|0|0|0,0:0|3:0|3:0|3:0,3:0:0:0:
380,330,19447,2,0,L|400:332,5,20.8333333333333,0|0|0|0|0|0,3:0|3:0|3:0|3:0|3:0|3:0,3:0:0:0:
359,327,19635,6,0,L|235:314,1,125,6|0,0:0|0:0,0:0:0:0:
117,384,19916,1,4,0:0:0:0:
117,384,20010,2,0,P|94:326|104:265,1,125,8|2,0:0|0:0,0:0:0:0:
287,226,20291,1,4,0:0:0:0:
245,222,20384,1,0,0:0:0:0:
204,218,20478,1,4,0:0:0:0:
162,213,20572,1,6,0:0:0:0:
359,327,20760,1,8,0:0:0:0:
299,107,20947,6,0,P|276:164|286:225,1,125,2|8,0:0|0:0,0:0:0:0:
461,87,21322,1,2,0:0:0:0:
420,91,21416,1,4,0:0:0:0:
378,96,21510,1,10,0:0:0:0:
494,255,21697,5,6,0:0:0:0:
494,255,21791,1,4,0:0:0:0:
494,255,21885,1,4,0:0:0:0:
510,211,21978,1,4,0:0:0:0:
509,165,22072,1,4,0:0:0:0:
492,121,22166,1,4,0:0:0:0:
461,87,22260,1,2,3:0:0:0:
438,90,22353,1,2,3:0:0:0:
415,92,22447,1,2,3:0:0:0:
392,95,22541,1,2,3:0:0:0:
367,97,22635,6,0,P|309:119|249:108,1,125,6|0,0:0|0:0,0:0:0:0:
153,0,22916,1,4,0:0:0:0:
153,0,23010,2,0,P|175:57|164:117,1,125,8|2,0:0|0:0,0:0:0:0:
0,188,23291,1,4,0:0:0:0:
42,184,23384,1,0,0:0:0:0:
83,180,23478,1,4,0:0:0:0:
125,175,23572,1,6,0:0:0:0:
21,18,23760,1,8,0:0:0:0:
72,265,23947,6,0,P|132:276|189:253,1,125,2|8,0:0|0:0,0:0:0:0:
298,100,24322,1,2,0:0:0:0:
298,100,24416,1,6,0:0:0:0:
298,100,24510,2,0,P|286:162|383:209,1,187.5,10|4,0:0|0:0,0:0:0:0:
441,135,24885,1,0,0:0:0:0:
383,208,24978,1,4,0:0:0:0:
423,293,25072,1,4,0:0:0:0:
423,293,25447,2,0,L|454:296,1,31.25,8|0,0:0|0:0,0:0:0:0:
330,284,25541,2,0,L|361:287,1,31.25,8|0,0:0|0:0,0:0:0:0:
236,272,25635,6,0,P|253:343|316:379,1,150.000005722046,6|0,0:0|0:0,0:0:0:0:
167,210,26010,2,0,L|17:225,1,150.000005722046,10|0,0:0|0:0,0:0:0:0:
214,115,26385,1,6,0:0:0:0:
104,310,26572,1,6,0:0:0:0:
330,284,26760,2,0,L|180:299,1,150.000005722046,10|0,0:0|0:0,0:0:0:0:
363,355,27041,5,4,0:0:0:0:
363,355,27135,2,0,P|407:295|378:222,1,150.000005722046,8|0,0:0|0:0,0:0:0:0:
267,369,27416,1,4,0:0:0:0:
267,369,27510,1,10,0:0:0:0:
348,153,27697,2,0,L|497:168,1,150.000005722046,2|4,0:0|0:0,0:0:0:0:
279,228,28072,2,0,P|243:164|265:94,1,150.000005722046,6|8,0:0|0:0,0:0:0:0:
473,8,28447,1,2,0:0:0:0:
150,58,28635,6,0,L|165:207,1,150.000005722046,6|0,0:0|0:0,0:0:0:0:
13,374,29010,2,0,P|12:300|60:245,1,150.000005722046,10|0,0:0|0:0,0:0:0:0:
279,297,29385,1,6,0:0:0:0:
258,73,29572,1,6,0:0:0:0:
108,336,29760,2,0,P|170:376|243:365,1,150.000005722046,10|0,0:0|0:0,0:0:0:0:
323,155,30135,5,8,0:0:0:0:
103,202,30322,1,2,0:0:0:0:
103,202,30416,1,4,0:0:0:0:
103,202,30510,1,10,0:0:0:0:
303,303,30697,2,0,L|452:288,1,150.000005722046,2|0,0:0|0:0,0:0:0:0:
452,287,30978,1,4,0:0:0:0:
452,287,31072,1,4,0:0:0:0:
286,139,31260,2,0,L|282:101,3,37.5000014305115,0|0|0|0,0:0|3:0|3:0|3:0,3:0:0:0:
376,157,31447,2,0,L|378:132,5,25.0000009536744,0|0|0|0|0|0,3:0|3:0|3:0|3:0|3:0|3:0,3:0:0:0:
315,227,31635,6,0,P|236:216|194:149,1,165.000001573563,6|0,0:0|0:0,0:0:0:0:
423,16,32010,2,0,L|258:33,1,165.000001573563,10|0,0:0|0:0,0:0:0:0:
81,255,32385,1,6,0:0:0:0:
159,3,32572,1,6,0:0:0:0:
174,317,32760,2,0,P|106:362|25:355,1,165.000001573563,10|0,0:0|0:0,0:0:0:0:
189,207,33041,5,4,0:0:0:0:
189,207,33135,2,0,P|260:245|281:323,1,165.000001573563,8|0,0:0|0:0,0:0:0:0:
81,255,33416,1,4,0:0:0:0:
81,255,33510,1,10,0:0:0:0:
324,153,33697,2,0,L|488:170,1,165.000001573563,2|4,0:0|0:0,0:0:0:0:
281,323,34072,2,0,P|236:255|243:174,1,165.000001573563,6|8,0:0|0:0,0:0:0:0:
489,76,34447,1,2,0:0:0:0:
225,48,34635,6,0,L|389:65,1,165.000001573563,6|0,0:0|0:0,0:0:0:0:
445,340,35010,2,0,L|280:322,1,165.000001573563,10|0,0:0|0:0,0:0:0:0:
119,112,35385,1,6,0:0:0:0:
380,139,35572,1,6,0:0:0:0:
194,384,35760,2,0,P|176:305|219:236,1,165.000001573563,10|0,0:0|0:0,0:0:0:0:
470,153,36135,5,8,0:0:0:0:
207,125,36322,1,0,0:0:0:0:
207,125,36416,1,4,0:0:0:0:
207,125,36510,1,10,0:0:0:0:
387,316,36697,2,0,P|403:230|361:154,1,165.000001573563,2|0,0:0|0:0,0:0:0:0:
370,162,36978,1,4,0:0:0:0:
370,162,37072,1,4,0:0:0:0:
7,160,37635,6,0,L|166:143,1,150.000005722046,6|0,0:0|0:0,0:0:0:0:
111,384,38010,2,0,P|81:316|93:242,1,150.000005722046,10|0,0:0|0:0,0:0:0:0:
229,137,38291,2,0,L|308:128,1,75.0000028610231,4|0,0:0|0:0,0:0:0:0:
368,247,38478,1,4,0:0:0:0:
368,247,38572,2,0,L|288:238,1,75.0000028610231,4|0,0:0|0:0,0:0:0:0:
467,110,38760,2,0,B|448:181|448:181|412:117,1,150.000005722046,8|0,0:0|0:0,0:0:0:0:
512,334,39135,5,10,0:0:0:0:
222,234,39322,1,2,0:0:0:0:
492,250,39510,1,10,0:0:0:0:
237,339,39697,1,2,0:0:0:0:
342,89,39885,5,4,0:0:0:0:
343,107,39978,1,4,0:0:0:0:
345,126,40072,1,4,0:0:0:0:
347,144,40166,1,4,0:0:0:0:
349,163,40260,1,2,3:0:0:0:
311,159,40353,1,2,3:0:0:0:
274,155,40447,1,2,3:0:0:0:
237,151,40541,1,2,3:0:0:0:
199,147,40635,1,8,0:0:0:0:
179,218,40728,1,8,0:0:0:0:
204,287,40822,1,8,0:0:0:0:
265,328,40916,1,8,0:0:0:0:
339,325,41010,6,0,L|498:308,1,150.000005722046,6|0,0:0|0:0,0:0:0:0:
228,91,41385,1,10,0:0:0:0:
200,358,41572,1,6,0:0:0:0:
418,141,41760,2,0,L|268:156,1,150.000005722046,10|0,0:0|0:0,0:0:0:0:
212,218,42041,2,0,B|100:259|111:153|0:195,2,225.000008583069,4|2|2,0:0|3:0|3:0,3:0:0:0:
407,30,42885,5,2,3:0:0:0:
410,67,42978,1,2,3:0:0:0:
414,104,43072,1,2,3:0:0:0:
418,141,43166,1,2,3:0:0:0:
422,179,43260,2,0,L|459:175,3,37.5000014305115,8|0|0|0,0:0|0:0|0:0|0:0,0:0:0:0:
346,131,43447,2,0,L|321:128,5,25.0000009536744
344,217,43635,6,0,L|179:200,1,165.000001573563,6|0,0:0|0:0,0:0:0:0:
30,1,44010,2,0,P|83:69|74:150,1,165.000001573563,10|0,0:0|0:0,0:0:0:0:
3,243,44291,2,0,L|85:234,1,82.5000007867813,4|0,0:0|0:0,0:0:0:0:
191,298,44478,1,4,0:0:0:0:
191,298,44572,2,0,L|273:289,1,82.5000007867813,4|0,0:0|0:0,0:0:0:0:
382,349,44760,2,0,B|465:341|465:341|414:277,1,165.000001573563,8|0,0:0|0:0,0:0:0:0:
200,223,45135,5,10,0:0:0:0:
444,197,45322,1,2,0:0:0:0:
191,298,45510,1,10,0:0:0:0:
217,54,45697,1,2,0:0:0:0:
279,335,45885,5,4,0:0:0:0:
278,317,45978,1,4,0:0:0:0:
276,298,46072,1,4,0:0:0:0:
274,280,46166,1,4,0:0:0:0:
272,261,46260,1,2,3:0:0:0:
310,265,46353,1,2,3:0:0:0:
347,269,46447,1,2,3:0:0:0:
384,273,46541,1,2,3:0:0:0:
422,277,47010,5,10,0:0:0:0:
422,277,47385,1,6,0:0:0:0:
175,309,47572,1,6,0:0:0:0:
434,82,47760,2,0,P|487:150|478:231,1,165.000001573563,10|0,0:0|0:0,0:0:0:0:
422,277,48041,2,0,B|340:268|340:268|276:320|276:320|194:311,1,247.500002360344,4|4,0:0|0:0,0:0:0:0:
246,167,48416,5,4,3:0:0:0:
246,167,48510,1,8,3:0:0:0:
246,167,48603,2,0,P|256:206|254:247,1,82.5000007867813,4|0,3:0|3:0,3:0:0:0:
107,360,48791,2,0,P|96:320|98:279,1,82.5000007867813,4|0,3:0|3:0,3:0:0:0:
328,175,48978,1,4,3:0:0:0:
328,175,49072,2,2,B|394:182|394:182|409:170|409:170|406:196|406:196|421:184|421:184|488:191,1,200,2|8,3:0|3:1,3:0:0:0:
69,143,49635,6,0,L|143:150,1,75,4|0,0:0|0:0,0:0:0:0:
188,93,50010,6,2,P|356:111|206:188,1,450.000017166138,10|0,0:0|0:0,0:0:0:0:
269,126,50478,5,4,0:0:0:0:
269,126,50572,2,0,P|289:165|290:208,1,87.500000834465,10|0,0:0|0:0,0:0:0:0:
173,344,50760,2,0,P|196:307|233:285,1,87.500000834465,8|0,0:0|0:0,0:0:0:0:
409,319,50947,2,0,P|365:316|327:295,1,87.500000834465,2|4,0:0|0:0,0:0:0:0:
268,125,51135,6,0,P|188:170|103:137,1,187.5,8|4,0:0|0:0,0:0:0:0:
103,137,51510,2,0,P|182:92|267:125,1,187.5,10|4,0:0|0:0,0:0:0:0:
212,276,51885,1,0,0:0:0:0:
212,276,51978,1,0,0:0:0:0:
212,276,52072,2,0,P|192:237|191:194,1,87.500000834465
372,21,52260,1,8,0:0:0:0:
362,108,52353,1,8,0:0:0:0:
353,195,52447,1,8,0:0:0:0:
344,282,52541,1,8,0:0:0:0:
335,369,52635,5,4,0:0:0:0:
356,366,52728,1,4,0:0:0:0:
378,364,52822,1,4,0:0:0:0:
400,362,52916,1,4,0:0:0:0:
422,358,53010,6,2,P|359:204|335:369,1,450.000017166138,10|0,0:0|0:0,0:0:0:0:
371,288,53478,5,4,0:0:0:0:
371,288,53572,2,0,P|332:268|289:267,1,87.500000834465,10|0,0:0|0:0,0:0:0:0:
153,384,53760,2,0,P|190:361|212:324,1,87.500000834465,8|0,0:0|0:0,0:0:0:0:
178,148,53947,2,0,P|181:192|202:230,1,87.500000834465,2|4,0:0|0:0,0:0:0:0:
335,68,54135,6,0,P|256:63|208:91,1,125,8|4,0:0|0:0,0:0:0:0:
178,148,54416,2,0,P|121:171|14:117,2,187.5,8|8|4,0:0|0:0|0:0,0:0:0:0:
216,83,55072,2,0,P|272:106|334:98,1,125,8|8,0:0|0:0,0:0:0:0:
409,70,55353,1,0,0:0:0:0:
406,91,55446,1,0,0:0:0:0:
404,113,55540,1,0,0:0:0:0:
402,135,55635,6,0,L|395:209,1,75,4|0,0:0|0:0,0:0:0:0:
462,234,56010,6,2,P|363:382|321:209,1,450.000017166138,10|0,0:0|0:0,0:0:0:0:
380,286,56478,5,4,0:0:0:0:
380,286,56572,2,0,P|341:306|298:307,1,87.500000834465,10|0,0:0|0:0,0:0:0:0:
300,126,56760,2,0,P|320:165|321:208,1,87.500000834465,8|0,0:0|0:0,0:0:0:0:
140,206,56947,2,0,P|179:186|222:185,1,87.500000834465,2|4,0:0|0:0,0:0:0:0:
220,366,57135,6,0,B|190:330|199:284|199:284|152:313|102:297,1,187.5,8|4,0:0|0:0,0:0:0:0:
103,297,57510,2,0,P|45:229|67:141,1,187.5,10|4,0:0|0:0,0:0:0:0:
221,184,57885,1,0,0:0:0:0:
221,184,57978,1,0,0:0:0:0:
221,184,58072,2,0,P|182:204|139:205,1,87.500000834465
71,65,58260,1,8,0:0:0:0:
158,75,58353,1,8,0:0:0:0:
245,84,58447,1,8,0:0:0:0:
332,93,58541,1,8,0:0:0:0:
419,102,58635,5,4,0:0:0:0:
416,123,58728,1,4,0:0:0:0:
414,145,58822,1,4,0:0:0:0:
412,167,58916,1,4,0:0:0:0:
410,189,59010,2,0,L|453:184,7,43.7500004172325,8|0|0|0|2|0|0|0,0:1|3:1|3:1|3:1|3:1|3:1|3:1|3:1,3:1:0:0:
367,244,59385,2,0,L|323:239,7,43.7500004172325,0|0|0|0|2|0|0|0,0:1|3:1|3:1|3:1|3:1|3:1|3:1|3:1,3:1:0:0:
382,315,59760,2,0,L|386:358,1,43.7500004172325,8|0,0:1|3:1,3:1:0:0:
360,313,59853,2,0,L|364:356,1,43.7500004172325,0|0,0:1|3:1,3:1:0:0:
338,311,59947,2,0,L|342:354,1,43.7500004172325,2|0,0:1|3:1,3:1:0:0:
316,309,60040,2,0,L|320:352,1,43.7500004172325,0|0,0:1|3:1,3:1:0:0:
295,306,60135,5,4,0:0:0:0:
395,63,60322,1,4,0:0:0:0:
395,63,60416,2,0,L|401:125,1,62.5,8|0,0:0|0:0,0:0:0:0:
222,297,60697,1,4,0:0:0:0:
322,54,60884,1,4,0:0:0:0:
322,54,60978,2,0,L|328:116,1,62.5,8|0,0:0|0:0,0:0:0:0:
149,288,61260,1,4,0:0:0:0:
149,288,61353,1,8,0:0:0:0:
149,288,61447,2,0,L|145:256,3,31.25
144,237,61635,6,0,L|137:163,1,75,4|0,0:0|0:0,0:0:0:0:
68,203,62010,6,2,P|123:34|212:189,1,450.000017166138,10|0,0:0|0:0,0:0:0:0:
133,130,62478,5,4,0:0:0:0:
133,130,62572,2,0,P|167:102|210:92,1,87.500000834465,10|0,0:0|0:0,0:0:0:0:
191,298,62760,2,0,P|149:282|119:250,1,87.500000834465,8|0,0:0|0:0,0:0:0:0:
307,163,62947,2,0,P|314:206|301:248,1,87.500000834465,2|4,0:0|0:0,0:0:0:0:
63,86,63135,6,0,B|143:37|143:37|133:130,1,187.5,8|4,0:0|0:0,0:0:0:0:
133,130,63510,2,0,B|123:223|123:223|202:173,1,187.5,10|4,0:0|0:0,0:0:0:0:
299,44,63885,1,0,0:0:0:0:
299,44,63978,1,0,0:0:0:0:
299,44,64072,2,0,P|279:83|278:126,1,87.500000834465
392,265,64260,1,8,0:0:0:0:
305,275,64353,1,8,0:0:0:0:
218,284,64447,1,8,0:0:0:0:
131,293,64541,1,8,0:0:0:0:
44,302,64635,5,4,0:0:0:0:
47,281,64728,1,4,0:0:0:0:
49,259,64822,1,4,0:0:0:0:
51,237,64916,1,4,0:0:0:0:
54,215,65010,6,2,P|208:278|43:302,1,450.000017166138,10|0,0:0|0:0,0:0:0:0:
124,267,65478,5,4,0:0:0:0:
124,267,65572,2,0,P|174:262|225:282,1,87.500000834465,10|0,0:0|0:0,0:0:0:0:
312,384,65760,2,0,P|282:343|274:289,1,87.500000834465,8|0,0:0|0:0,0:0:0:0:
319,162,65947,2,0,P|298:208|255:242,1,87.500000834465,2|4,0:0|0:0,0:0:0:0:
154,92,66135,6,0,P|213:77|270:101,1,125,8|4,0:0|0:0,0:0:0:0:
319,162,66416,2,0,B|412:198|403:109|496:144,2,187.5,8|8|4,0:0|0:0|0:0,0:0:0:0:
269,101,67072,2,0,P|241:154|259:212,1,125,8|8,0:0|0:0,0:0:0:0:
320,282,67353,1,0,0:0:0:0:
299,285,67446,1,0,0:0:0:0:
277,287,67540,1,0,0:0:0:0:
255,289,67635,6,0,L|181:296,1,75,4|0,0:0|0:0,0:0:0:0:
150,362,68010,6,2,P|2:263|175:222,1,450.000017166138,10|0,0:0|0:0,0:0:0:0:
97,281,68478,5,4,0:0:0:0:
97,281,68572,2,0,P|79:240|81:199,1,87.500000834465,10|0,0:0|0:0,0:0:0:0:
177,89,68760,2,0,P|178:45|161:7,1,87.500000834465,8|0,0:0|0:0,0:0:0:0:
190,305,68947,2,0,P|172:264|174:223,1,87.500000834465,2|4,0:0|0:0,0:0:0:0:
270,112,69135,2,0,P|358:128|393:211,1,187.5,8|4,0:0|0:0,0:0:0:0:
393,211,69510,2,0,P|304:195|269:112,1,187.5,10|4,0:0|0:0,0:0:0:0:
452,98,69885,5,0,0:0:0:0:
452,98,69978,1,0,0:0:0:0:
452,98,70072,2,0,P|412:115|369:114,1,87.500000834465
180,6,70260,1,8,0:0:0:0:
190,93,70353,1,8,0:0:0:0:
199,180,70447,1,8,0:0:0:0:
208,267,70541,1,8,0:0:0:0:
217,354,70635,5,4,0:0:0:0:
218,332,70728,1,4,0:0:0:0:
221,310,70822,1,4,0:0:0:0:
223,288,70916,1,4,0:0:0:0:
225,266,71010,6,2,P|61:295|217:353,1,450.000017166138,10|0,0:0|0:0,0:0:0:0:
146,302,71478,5,4,0:0:0:0:
146,302,71572,2,0,B|185:320|185:320|235:308,1,87.500000834465,10|0,0:0|0:0,0:0:0:0:
201,143,71760,2,0,B|183:182|183:182|195:232,1,87.500000834465,8|0,0:0|0:0,0:0:0:0:
360,198,71947,2,0,B|321:180|321:180|271:192,1,87.500000834465,2|4,0:0|0:0,0:0:0:0:
305,357,72135,5,4,0:0:0:0:
118,144,72322,1,4,0:0:0:0:
118,144,72416,2,0,L|112:206,1,62.5,8|0,0:0|0:0,0:0:0:0:
236,347,72697,1,4,0:0:0:0:
49,134,72884,1,4,0:0:0:0:
49,134,72978,2,0,L|43:196,1,62.5,8|0,0:0|0:0,0:0:0:0:
167,337,73260,1,4,0:0:0:0:
167,337,73353,1,8,0:0:0:0:
167,337,73447,2,0,L|163:368,3,31.25
228,269,73635,5,4,0:0:0:0:
228,269,73728,1,0,0:0:0:0:
228,269,73822,2,0,L|269:273,2,41.6666666666667,2|4|4,0:0|0:0|0:0,0:0:0:0:
159,218,74010,1,10,0:0:0:0:
159,218,74103,2,0,L|96:224,1,62.5
226,180,74291,1,2,0:0:0:0:
226,180,74385,2,0,L|267:184,2,41.6666666666667,4|6|4,0:0|0:0|0:0,0:0:0:0:
153,134,74572,2,0,L|132:136,2,20.8333333333333,8|0|0,0:0|3:0|3:0,3:0:0:0:
141,102,74665,2,0,L|120:104,8,20.8333333333333,10|0|0|0|0|0|0|0|0,0:0|3:0|3:0|3:0|3:0|3:0|3:0|3:0|3:0,3:0:0:0:
199,61,74947,2,0,L|219:63,5,20.8333333333333,10|0|8|0|8|0,0:0|3:0|0:0|3:0|0:0|3:0,3:0:0:0:
256,192,75135,12,0,75728,0:0:0:0:
