osu file format v14

[General]
AudioFilename: audio.mp3
AudioLeadIn: 0
PreviewTime: -1
Countdown: 0
SampleSet: Normal
StackLeniency: 0.4
Mode: 0
LetterboxInBreaks: 0
WidescreenStoryboard: 0

[Editor]
DistanceSpacing: 2.9
BeatDivisor: 4
GridSize: 16
TimelineZoom: 1

[Metadata]
Title:Rasputin (instrumental)
TitleUnicode:Rasputin (instrumental)
Artist:Turisas
ArtistUnicode:Turisas
Creator:Vel0ciTy
Version:Lover of the Russian Queen
Source:
Tags:
BeatmapID:1970198
BeatmapSetID:943430

[Difficulty]
HPDrainRate:6
CircleSize:4
OverallDifficulty:8
ApproachRate:9
SliderMultiplier:2
SliderTickRate:1

[Events]
//Background and Video events
0,0,"maxresdefault (5).jpg",0,0
//Break Periods
//Storyboard Layer 0 (Background)
//Storyboard Layer 1 (Fail)
//Storyboard Layer 2 (Pass)
//Storyboard Layer 3 (Foreground)
//Storyboard Sound Samples

[TimingPoints]
6716,394.736842105263,4,1,0,40,1,0
6716,-133.333333333333,4,1,0,40,0,0
19347,-100,4,1,0,40,0,0
31979,400,4,1,0,40,1,0
44379,394.736842105263,4,1,0,40,1,0
47931,387.096774193548,4,1,0,40,1,0
51045,375,4,1,0,40,1,0
54105,375,4,1,0,40,1,0
57105,370.37037037037,4,1,0,40,1,0
59685,363.636363636364,4,1,0,40,1,0
65503,370.37037037037,4,1,0,40,1,0

[HitObjects]
32,32,6715,5,0,0:0:0:0:
160,32,7110,1,0,0:0:0:0:
32,160,7505,1,0,0:0:0:0:
160,160,7900,1,0,0:0:0:0:
320,32,8294,5,0,0:0:0:0:
467,32,8689,1,0,0:0:0:0:
320,179,9084,1,0,0:0:0:0:
467,179,9479,1,0,0:0:0:0:
208,192,9873,5,0,0:0:0:0:
37,192,10268,1,0,0:0:0:0:
208,363,10663,1,0,0:0:0:0:
37,363,11058,1,0,0:0:0:0:
480,384,11452,5,0,0:0:0:0:
283,384,11847,1,0,0:0:0:0:
480,187,12242,1,0,0:0:0:0:
256,192,12637,1,0,0:0:0:0:
142,78,13031,5,0,0:0:0:0:
256,192,13229,1,0,0:0:0:0:
101,234,13426,2,0,L|120:161,1,75.0000028610231
132,114,13722,6,0,L|141:77,4,37.5000014305115
219,182,14215,6,0,L|255:191,3,37.5000014305115
425,236,14610,5,0,0:0:0:0:
301,361,14808,1,0,0:0:0:0:
255,191,15005,2,0,L|275:270,1,75.0000028610231
301,361,15301,2,0,L|290:321,4,37.5000014305115
425,236,15794,2,0,L|464:225,3,37.5000014305115
176,287,16189,5,0,0:0:0:0:
273,263,16387,1,0,0:0:0:0:
80,312,16584,2,0,L|-25:338,1,75.0000028610231
48,240,16880,2,0,L|84:230,4,37.5000014305115
224,192,17373,2,0,L|187:182,3,37.5000014305115
48,144,17768,5,0,0:0:0:0:
224,96,17965,1,0,0:0:0:0:
48,48,18163,2,0,L|120:28,1,75.0000028610231
224,32,18459,2,0,L|187:22,4,37.5000014305115
400,80,18952,2,0,L|436:70,3,37.5000014305115
240,128,19347,6,0,P|286:145|320:181,1,100
151,279,19742,2,0,P|198:262|232:226,1,100
5,126,20137,2,0,P|94:99|141:179,1,200
151,279,20729,5,0,0:0:0:0:
240,368,20926,1,0,0:0:0:0:
384,288,21123,1,0,0:0:0:0:
240,224,21321,5,0,0:0:0:0:
400,176,21518,1,0,0:0:0:0:
192,95,21715,2,0,P|149:121|118:159,1,100
240,224,22110,5,0,0:0:0:0:
320,144,22308,1,0,0:0:0:0:
171,10,22505,6,0,P|220:14|260:42,1,100
464,64,22900,2,0,P|414:67|374:95,1,100
176,176,23294,2,0,P|225:179|265:207,1,100
320,304,23689,5,0,0:0:0:0:
193,271,23887,1,0,0:0:0:0:
368,224,24084,5,0,0:0:0:0:
442,143,24281,1,0,0:0:0:0:
368,48,24479,1,0,0:0:0:0:
368,48,24577,1,0,0:0:0:0:
368,48,24676,1,0,0:0:0:0:
511,234,24873,2,0,P|416:252|340:192,1,200
442,143,25465,1,0,0:0:0:0:
245,91,25663,6,0,L|353:119,1,100
204,182,26058,2,0,P|165:150|146:105,1,100
368,224,26452,2,0,P|282:267|273:362,1,200
364,325,27044,5,0,0:0:0:0:
364,325,27143,1,0,0:0:0:0:
364,325,27242,1,0,0:0:0:0:
448,224,27439,1,0,0:0:0:0:
480,368,27637,1,0,0:0:0:0:
480,368,27735,1,0,0:0:0:0:
480,368,27834,1,0,0:0:0:0:
367,223,28031,2,0,P|382:176|421:148,1,100
362,323,28426,5,0,0:0:0:0:
448,224,28623,1,0,0:0:0:0:
271,175,28821,2,0,P|222:178|179:203,1,100
227,366,29215,2,0,P|250:322|250:273,1,100
84,232,29610,2,0,P|110:273|153:298,1,100
271,175,30005,5,0,0:0:0:0:
179,203,30202,1,0,0:0:0:0:
48,144,30400,5,0,0:0:0:0:
75,18,30597,1,0,0:0:0:0:
176,96,30794,1,0,0:0:0:0:
176,96,30893,1,0,0:0:0:0:
176,96,30992,1,0,0:0:0:0:
83,232,31189,2,0,P|35:239|-9:219,1,100
144,336,31584,2,0,P|192:341|229:372,1,100
227,215,31979,6,0,L|178:202,1,50
416,352,32279,6,0,L|368:364,2,50
447,176,32679,6,0,L|461:225,2,50
400,48,32979,2,0,L|387:97,1,50
336,256,33179,2,0,L|323:207,1,50
208,48,33479,6,0,L|257:61,2,50
96,96,33879,6,0,L|47:83,2,50
240,176,34279,6,0,L|253:225,2,50
144,320,34579,2,0,L|157:271,1,50
301,373,34779,2,0,L|288:324,1,50
15,355,35079,6,0,L|64:368,2,50
252,224,35479,6,0,L|203:237,2,50
368,368,35879,6,0,L|381:319,2,50
496,288,36179,2,0,L|509:337,1,50
421,160,36379,2,0,L|408:209,1,50
240,32,36679,6,0,L|289:19,2,50
480,32,37079,6,0,L|431:45,2,50
304,224,37479,6,0,L|317:175,2,50
192,320,37779,2,0,L|205:271,1,50
160,112,37979,2,0,L|147:161,1,50
352,211,38279,6,0,L|303:224,2,50
469,333,38679,6,0,L|420:320,2,50
192,368,39079,6,0,L|241:355,2,50
48,336,39379,2,0,L|97:323,1,50
208,176,39579,2,0,L|159:189,1,50
32,32,39879,6,0,L|81:45,2,50
288,0,40279,6,0,L|239:13,2,50
464,80,40679,6,0,L|477:31,2,50
336,96,40979,2,0,L|349:145,1,50
480,208,41179,2,0,L|467:257,1,50
272,352,41479,6,0,L|321:339,2,50
96,288,41879,6,0,L|47:275,2,50
288,224,42279,6,0,L|275:273,2,50
208,96,42579,2,0,L|221:145,1,50
96,288,42779,2,0,L|109:239,1,50
0,32,43079,6,0,L|49:19,2,50
220,144,43479,6,0,L|171:131,2,50
400,64,43879,6,0,L|387:15,2,50
464,208,44179,2,0,L|477:159,1,50
359,273,44379,6,0,L|346:224,3,50
335,191,44773,2,0,P|309:150|267:123,1,100
112,112,45168,1,0,0:0:0:0:
229,231,45365,1,0,0:0:0:0:
130,241,45563,5,0,0:0:0:0:
146,287,45661,1,0,0:0:0:0:
184,320,45760,1,0,0:0:0:0:
232,331,45859,1,0,0:0:0:0:
279,317,45957,5,0,0:0:0:0:
314,307,46055,1,0,0:0:0:0:
350,315,46154,1,0,0:0:0:0:
378,339,46253,1,0,0:0:0:0:
390,374,46352,6,0,P|424:338|479:328,1,100
346,224,46747,1,0,0:0:0:0:
231,113,46944,2,0,P|219:65|235:18,1,100
493,17,47339,5,0,0:0:0:0:
396,43,47536,1,0,0:0:0:0:
300,68,47734,1,0,0:0:0:0:
128,207,47931,6,0,P|175:192|224:198,1,100
352,272,48318,1,0,0:0:0:0:
184,304,48511,1,0,0:0:0:0:
224,198,48705,1,0,0:0:0:0:
205,152,48801,1,0,0:0:0:0:
169,117,48898,1,0,0:0:0:0:
123,98,48995,1,0,0:0:0:0:
76,103,49092,5,0,0:0:0:0:
109,87,49189,1,0,0:0:0:0:
138,65,49285,1,0,0:0:0:0:
161,34,49382,1,0,0:0:0:0:
173,0,49479,6,0,P|212:29|261:36,1,100
432,32,49866,1,0,0:0:0:0:
336,192,50060,2,0,P|325:240|339:287,1,100
400,368,50447,5,0,0:0:0:0:
276,334,50640,1,0,0:0:0:0:
154,301,50834,1,0,0:0:0:0:
47,175,51027,6,0,P|96:187|145:179,1,100
196,55,51420,2,0,P|147:47|99:59,1,100
256,175,51795,5,0,0:0:0:0:
287,155,51888,1,0,0:0:0:0:
312,127,51982,1,0,0:0:0:0:
327,93,52076,1,0,0:0:0:0:
333,56,52170,1,0,0:0:0:0:
196,55,52357,5,0,0:0:0:0:
196,55,52451,1,0,0:0:0:0:
196,55,52545,1,0,0:0:0:0:
256,175,52732,1,0,0:0:0:0:
96,208,52920,1,0,0:0:0:0:
267,287,53107,2,0,P|314:272|350:238,1,100
400,96,53492,1,0,0:0:0:0:
432,304,53670,2,0,P|459:345|501:371,1,100
267,287,54105,6,0,P|217:289|173:313,1,100
0,256,54480,2,0,P|50:254|94:230,1,100
208,96,54855,5,0,0:0:0:0:
238,134,54948,1,0,0:0:0:0:
282,159,55042,1,0,0:0:0:0:
331,166,55136,1,0,0:0:0:0:
379,154,55230,1,0,0:0:0:0:
323,36,55417,5,0,0:0:0:0:
323,36,55511,1,0,0:0:0:0:
323,36,55605,1,0,0:0:0:0:
208,96,55792,1,0,0:0:0:0:
379,154,55980,1,0,0:0:0:0:
162,159,56167,2,0,P|134:118|135:69,1,100
16,192,56542,1,0,0:0:0:0:
224,224,56730,2,0,P|251:264|250:313,1,100
379,154,57105,6,0,P|352:194|353:243,1,100
443,85,57475,2,0,P|470:125|469:174,1,100
257,18,57845,6,0,P|297:45|346:44,1,100
112,136,58216,2,0,P|152:109|201:110,1,100
64,376,58586,6,0,P|65:326|38:285,1,100
112,136,58956,2,0,P|110:185|137:226,1,100
339,256,59327,2,0,P|303:222|255:207,1,100
152,340,59685,5,0,0:0:0:0:
249,314,59866,1,0,0:0:0:0:
339,256,60048,2,0,P|303:222|256:208,1,100
480,304,60412,2,0,P|432:318|396:352,1,100
458,178,60775,2,0,P|466:119|448:62,1,100
411,19,61139,5,0,0:0:0:0:
340,42,61321,1,0,0:0:0:0:
340,117,61503,1,0,0:0:0:0:
411,140,61684,1,0,0:0:0:0:
456,80,61866,1,0,0:0:0:0:
456,80,61957,1,0,0:0:0:0:
456,80,62048,1,0,0:0:0:0:
370,203,62230,2,0,P|339:165|339:116,1,100
165,31,62594,2,0,P|196:69|196:118,1,100
48,223,62957,6,0,P|97:223|142:244,1,100
320,352,63321,2,0,P|270:352|225:331,1,100
464,248,63685,6,0,P|463:297|484:342,1,100
368,64,64048,2,0,P|368:113|347:158,1,100
190,155,64412,6,0,P|219:115|263:91,1,100
74,219,64775,2,0,P|103:259|146:283,1,100
334,155,65139,6,0,P|305:115|262:91,1,100
112,32,65503,5,0,0:0:0:0:
208,5,65688,1,0,0:0:0:0:
14,90,65873,2,0,P|47:126|94:142,1,100
191,201,66243,2,0,P|157:237|111:254,1,100
14,312,66614,2,0,P|47:348|93:365,1,100
224,336,66984,5,0,0:0:0:0:
111,254,67169,1,0,0:0:0:0:
239,198,67354,1,0,0:0:0:0:
239,198,67447,1,0,0:0:0:0:
239,198,67540,1,0,0:0:0:0:
116,107,67725,1,0,0:0:0:0:
257,46,67910,1,0,0:0:0:0:
384,101,68095,5,0,0:0:0:0:
384,101,68188,1,0,0:0:0:0:
384,101,68280,2,0,L|335:113,1,50
239,198,68465,1,0,0:0:0:0:
239,198,68558,1,0,0:0:0:0:
239,198,68650,2,0,L|287:210,1,50
187,304,68836,5,0,0:0:0:0:
165,292,68929,1,0,0:0:0:0:
147,275,69022,1,0,0:0:0:0:
132,255,69114,1,0,0:0:0:0:
122,232,69207,1,0,0:0:0:0:
117,207,69299,1,0,0:0:0:0:
117,182,69392,5,0,0:0:0:0:
122,158,69485,1,0,0:0:0:0:
132,135,69577,1,0,0:0:0:0:
147,115,69670,1,0,0:0:0:0:
165,98,69762,1,0,0:0:0:0:
187,86,69855,1,0,0:0:0:0:
211,78,69947,5,0,0:0:0:0:
234,88,70040,1,0,0:0:0:0:
258,96,70132,1,0,0:0:0:0:
282,99,70225,1,0,0:0:0:0:
307,95,70317,5,0,0:0:0:0:
308,119,70409,1,0,0:0:0:0:
303,143,70502,1,0,0:0:0:0:
292,166,70594,1,0,0:0:0:0:
274,184,70688,2,0,L|219:169,3,50
288,320,71058,5,0,0:0:0:0:
267,292,71151,1,0,0:0:0:0:
237,275,71243,1,0,0:0:0:0:
202,271,71336,1,0,0:0:0:0:
169,282,71428,5,0,0:0:0:0:
136,293,71521,1,0,0:0:0:0:
101,289,71614,1,0,0:0:0:0:
71,272,71706,1,0,0:0:0:0:
50,244,71799,5,0,0:0:0:0:
82,228,71891,1,0,0:0:0:0:
108,205,71984,1,0,0:0:0:0:
127,175,72077,1,0,0:0:0:0:
139,143,72169,1,0,0:0:0:0:
142,108,72262,1,0,0:0:0:0:
135,73,72354,1,0,0:0:0:0:
122,41,72447,1,0,0:0:0:0:
101,14,72540,5,0,0:0:0:0:
68,28,72633,1,0,0:0:0:0:
45,55,72725,1,0,0:0:0:0:
34,88,72818,1,0,0:0:0:0:
36,123,72910,1,0,0:0:0:0:
53,154,73003,1,0,0:0:0:0:
78,177,73096,1,0,0:0:0:0:
111,188,73188,1,0,0:0:0:0:
144,186,73280,6,0,P|194:183|238:206,1,100
312,352,73651,1,0,0:0:0:0:
173,275,73836,5,0,0:0:0:0:
173,275,73928,1,0,0:0:0:0:
173,275,74021,1,0,0:0:0:0:
368,248,74206,5,0,0:0:0:0:
368,248,74298,1,0,0:0:0:0:
368,248,74391,1,0,0:0:0:0:
208,96,74577,5,0,0:0:0:0:
208,96,74669,1,0,0:0:0:0:
208,96,74762,5,0,0:0:0:0:
212,135,74854,1,0,0:0:0:0:
233,170,74947,1,0,0:0:0:0:
264,193,75040,1,0,0:0:0:0:
303,202,75132,1,0,0:0:0:0:
343,193,75225,1,0,0:0:0:0:
375,169,75317,5,0,0:0:0:0:
395,135,75410,1,0,0:0:0:0:
399,95,75502,1,0,0:0:0:0:
387,57,75595,1,0,0:0:0:0:
360,28,75688,1,0,0:0:0:0:
324,12,75780,1,0,0:0:0:0:
284,11,75872,5,0,0:0:0:0:
273,48,75965,1,0,0:0:0:0:
276,87,76058,1,0,0:0:0:0:
293,125,76150,1,0,0:0:0:0:
321,153,76243,5,0,0:0:0:0:
349,181,76336,1,0,0:0:0:0:
366,219,76428,1,0,0:0:0:0:
369,258,76521,1,0,0:0:0:0:
358,295,76614,2,0,L|343:349,3,50
496,127,76984,5,0,0:0:0:0:
477,161,77077,1,0,0:0:0:0:
474,201,77169,1,0,0:0:0:0:
485,240,77262,1,0,0:0:0:0:
508,273,77354,5,0,0:0:0:0:
467,271,77447,1,0,0:0:0:0:
429,285,77539,1,0,0:0:0:0:
398,311,77632,1,0,0:0:0:0:
378,346,77725,5,0,0:0:0:0:
357,303,77818,1,0,0:0:0:0:
325,272,77910,1,0,0:0:0:0:
283,253,78003,1,0,0:0:0:0:
239,248,78096,1,0,0:0:0:0:
195,259,78188,1,0,0:0:0:0:
158,285,78281,1,0,0:0:0:0:
134,323,78373,1,0,0:0:0:0:
121,366,78465,5,0,0:0:0:0:
168,342,78558,1,0,0:0:0:0:
202,307,78650,1,0,0:0:0:0:
223,261,78743,1,0,0:0:0:0:
228,213,78836,1,0,0:0:0:0:
216,164,78928,1,0,0:0:0:0:
188,123,79021,1,0,0:0:0:0:
146,97,79113,1,0,0:0:0:0:
99,83,79206,5,0,0:0:0:0:
127,139,79299,1,0,0:0:0:0:
169,180,79391,1,0,0:0:0:0:
225,205,79484,1,0,0:0:0:0:
282,211,79577,5,0,0:0:0:0:
339,228,79670,1,0,0:0:0:0:
389,259,79762,1,0,0:0:0:0:
423,308,79855,1,0,0:0:0:0:
437,367,79947,5,0,0:0:0:0:
437,367,80040,1,0,0:0:0:0:
437,367,80132,2,0,L|449:318,1,50
496,127,80317,2,0,P|471:170|429:197,1,100
