osu file format v14

[General]
AudioFilename: audio.mp3
AudioLeadIn: 0
PreviewTime: 0
Countdown: 1
SampleSet: Normal
StackLeniency: 0.7
Mode: 0
LetterboxInBreaks: 0
WidescreenStoryboard: 0

[Editor]
DistanceSpacing: 1
BeatDivisor: 4
GridSize: 8
TimelineZoom: 1

[Metadata]
Title:Crazy Train Eurobeat Remix
TitleUnicode:Crazy Train Eurobeat Remix
Artist:TurboAutism
ArtistUnicode:TurboAutism
Creator:Zuisho
Version:Marathon
Source:
Tags:
BeatmapID:2012790
BeatmapSetID:961470

[Difficulty]
HPDrainRate:6
CircleSize:4
OverallDifficulty:7
ApproachRate:9.4
SliderMultiplier:1.6
SliderTickRate:1

[Events]
//Background and Video events
0,0,"crazytrain.jpg",0,0
//Break Periods
//Storyboard Layer 0 (Background)
//Storyboard Layer 1 (Fail)
//Storyboard Layer 2 (Pass)
//Storyboard Layer 3 (Foreground)
//Storyboard Sound Samples

[TimingPoints]
3523,384.615384615385,4,1,0,100,1,0
4099,-133.333333333333,4,1,0,100,0,0
6984,-100,4,1,0,100,0,0
10253,-133.333333333333,4,1,0,100,0,0
15830,-100,4,1,0,100,0,1

[HitObjects]
132,63,3523,5,0,0:0:0:0:
261,165,3715,1,0,0:0:0:0:
102,236,3907,1,0,0:0:0:0:
132,63,4099,2,0,P|239:49|291:113,1,180.000006866455
284,94,5061,1,0,0:0:0:0:
121,220,5253,1,0,0:0:0:0:
121,220,5830,1,0,0:0:0:0:
380,322,6023,1,0,0:0:0:0:
380,322,6599,1,0,0:0:0:0:
347,95,6792,1,0,0:0:0:0:
429,194,6984,6,0,P|469:235|476:294,1,80
345,227,7369,2,0,L|286:295,1,80
303,144,7753,2,0,P|281:108|279:64,1,80
277,71,8138,1,0,0:0:0:0:
108,55,8330,1,0,0:0:0:0:
108,55,8907,1,0,0:0:0:0:
54,229,9099,1,0,0:0:0:0:
293,269,9676,5,0,0:0:0:0:
293,269,9773,1,0,0:0:0:0:
293,269,9869,1,0,0:0:0:0:
410,191,10061,1,0,0:0:0:0:
430,325,10253,2,0,P|361:343|235:332,1,180.000006866455
253,337,10926,1,0,0:0:0:0:
253,337,11023,5,0,0:0:0:0:
253,337,11215,1,0,0:0:0:0:
75,152,11407,1,0,0:0:0:0:
75,152,11984,1,0,0:0:0:0:
332,70,12176,1,0,0:0:0:0:
332,70,12753,1,0,0:0:0:0:
389,275,12946,1,0,0:0:0:0:
389,275,13042,1,0,0:0:0:0:
389,275,13138,1,0,0:0:0:0:
144,333,13330,6,0,P|200:305|258:203,1,180.000006866455
259,204,14292,1,0,0:0:0:0:
191,64,14484,1,0,0:0:0:0:
191,64,15061,1,0,0:0:0:0:
204,310,15253,1,0,0:0:0:0:
334,265,15830,6,0,P|365:222|350:162,1,80
356,116,16215,1,0,0:0:0:0:
292,67,16407,1,0,0:0:0:0:
246,132,16599,2,0,P|232:190|199:214,1,80
163,260,16984,1,0,0:0:0:0:
98,306,17176,1,0,0:0:0:0:
119,65,17369,5,0,0:0:0:0:
249,312,17561,1,0,0:0:0:0:
407,123,17753,1,0,0:0:0:0:
120,310,17946,1,0,0:0:0:0:
176,153,18138,1,0,0:0:0:0:
356,340,18330,1,0,0:0:0:0:
270,47,18523,1,0,0:0:0:0:
226,258,18715,1,0,0:0:0:0:
399,74,18907,1,0,0:0:0:0:
399,74,19099,1,0,0:0:0:0:
424,150,19292,6,0,P|441:221|435:244,1,80
403,297,19676,1,0,0:0:0:0:
329,329,19869,1,0,0:0:0:0:
274,270,20061,2,0,P|327:218|330:186,1,80
349,138,20446,1,0,0:0:0:0:
146,113,20638,1,0,0:0:0:0:
396,239,20830,1,0,0:0:0:0:
214,108,21023,1,0,0:0:0:0:
468,159,21215,1,0,0:0:0:0:
167,213,21407,1,0,0:0:0:0:
440,288,21599,1,0,0:0:0:0:
124,171,21792,1,0,0:0:0:0:
325,188,21984,1,0,0:0:0:0:
325,188,22176,1,0,0:0:0:0:
333,267,22369,6,0,P|270:279|239:276,1,80
178,255,22753,1,0,0:0:0:0:
107,217,22946,1,0,0:0:0:0:
129,140,23138,2,0,P|198:167|228:165,1,80
242,71,23523,1,0,0:0:0:0:
302,216,23715,1,0,0:0:0:0:
85,111,23907,1,0,0:0:0:0:
369,300,24099,1,0,0:0:0:0:
99,267,24292,1,0,0:0:0:0:
371,134,24484,1,0,0:0:0:0:
399,342,24676,1,0,0:0:0:0:
177,105,24869,1,0,0:0:0:0:
162,294,25061,1,0,0:0:0:0:
162,294,25253,1,0,0:0:0:0:
237,320,25446,6,0,P|272:259|274:239,1,80
274,170,25830,1,0,0:0:0:0:
244,95,26023,1,0,0:0:0:0:
169,123,26215,2,0,P|191:188|191:209,1,80
189,278,26599,1,0,0:0:0:0:
471,199,26792,1,0,0:0:0:0:
219,30,26984,1,0,0:0:0:0:
68,189,27176,1,0,0:0:0:0:
296,340,27369,1,0,0:0:0:0:
55,287,27561,1,0,0:0:0:0:
153,31,27753,1,0,0:0:0:0:
444,100,27946,1,0,0:0:0:0:
444,100,28138,1,0,0:0:0:0:
