osu file format v14

[General]
AudioFilename: audio.mp3
AudioLeadIn: 0
PreviewTime: -1
Countdown: 0
SampleSet: Soft
StackLeniency: 0.7
Mode: 2
LetterboxInBreaks: 0
WidescreenStoryboard: 0

[Editor]
Bookmarks: 30577
DistanceSpacing: 0.8
BeatDivisor: 1
GridSize: 8
TimelineZoom: 0.8

[Metadata]
Title:Padoru Padoru
TitleUnicode:Padoru Padoru
Artist:Turbo
ArtistUnicode:Turbo
Creator:ExCell3nT
Version:Turbo Int!
Source:
Tags:
BeatmapID:2670130
BeatmapSetID:1285916

[Difficulty]
HPDrainRate:4
CircleSize:5.5
OverallDifficulty:9.4
ApproachRate:9.4
SliderMultiplier:1.4
SliderTickRate:1

[Events]
//Background and Video events
//Break Periods
//Storyboard Layer 0 (Background)
//Storyboard Layer 1 (Fail)
//Storyboard Layer 2 (Pass)
//Storyboard Layer 3 (Foreground)
//Storyboard Layer 4 (Overlay)
//Storyboard Sound Samples

[TimingPoints]
64,315.789473684211,4,2,22,62,1,0
1327,-200,4,2,22,62,0,1
1485,-200,4,2,22,62,0,1
1642,-200,4,2,22,62,0,1
1800,-200,4,2,22,62,0,1
1958,-200,4,2,22,62,0,1
2116,-200,4,2,22,62,0,1
2274,-200,4,2,22,62,0,1
2432,-200,4,2,22,62,0,1
2590,-200,4,2,22,62,0,1
2985,-200,4,2,22,62,0,1
3221,-200,4,2,22,62,0,1
3458,-200,4,2,22,62,0,1
3537,-100,4,2,22,62,0,1
3774,-100,4,2,22,62,0,1
3853,-200,4,2,22,62,0,1
4011,-200,4,2,22,62,0,1
4169,-200,4,2,22,62,0,1
4327,-200,4,2,22,62,0,1
4485,-200,4,2,22,62,0,1
4643,-200,4,2,22,62,0,1
4800,-200,4,2,22,62,0,1
4958,-200,4,2,22,62,0,1
5116,-200,4,2,22,62,0,1
5195,-200,4,2,22,62,0,1
5589,-200,4,2,22,62,0,1
5669,-200,4,2,22,62,0,1
5748,-100,4,2,22,62,0,1
5985,-100,4,2,22,62,0,1
6064,-100,4,2,22,62,0,1
6300,-100,4,2,22,62,0,1
6379,-200,4,2,22,62,0,1
6537,-200,4,2,22,62,0,1
6695,-200,4,2,22,62,0,1
6853,-200,4,2,22,62,0,1
7011,-200,4,2,22,62,0,1
7169,-200,4,2,22,62,0,1
7326,-200,4,2,22,62,0,1
7484,-200,4,2,22,62,0,1
7642,-200,4,2,22,62,0,1
8511,-200,4,2,22,62,0,1
8590,-100,4,2,22,62,0,1
8827,-100,4,2,22,62,0,1
8906,-125,4,2,22,62,0,1
9064,-125,4,2,22,62,0,1
9222,-125,4,2,22,62,0,1
9378,-125,4,2,22,62,0,1
9380,-125,4,2,22,62,0,1
9538,-125,4,2,22,62,0,1
9694,-125,4,2,22,62,0,1
9696,-125,4,2,22,62,0,1
9853,-125,4,2,22,62,0,1
10011,-125,4,2,22,62,0,1
10169,-200,4,2,22,62,0,1
10248,-200,4,2,22,62,0,1
11037,-200,4,2,22,62,0,1
11116,-50,4,2,22,62,0,1
11156,-50,4,2,22,62,0,1
11274,-50,4,2,22,62,0,1
11353,-50,4,2,22,62,0,1
11432,-100,4,2,22,62,0,1
11511,-100,4,2,22,62,0,1
19011,-90.9090909090909,4,2,22,62,0,1
20274,-142.857142857143,4,2,22,62,0,1
21221,-100,4,2,22,62,0,1
21537,-83.3333333333333,4,2,22,62,0,1
30379,-100,4,2,22,62,0,1
30458,-100,4,2,22,62,0,1
31327,-50,4,2,22,62,0,1
31366,-50,4,2,22,62,0,1
31485,-50,4,2,22,62,0,1
31564,-50,4,2,22,62,0,1
31642,-200,4,2,22,62,0,1
31721,-200,4,2,22,62,0,1
32115,-200,4,2,22,62,0,1

[HitObjects]
88,293,1011,5,0,0:0:0:0:
295,258,1327,2,0,P|339:237|362:213,2,70
439,268,2274,1,0,0:0:0:0:
170,173,2590,1,0,0:0:0:0:
412,125,3537,5,0,0:0:0:0:
203,158,3853,2,0,P|144:135|128:124,2,70
45,196,4800,1,0,0:0:0:0:
255,97,5116,1,0,0:0:0:0:
129,250,5432,2,0,L|214:253,1,70
371,264,6064,5,0,0:0:0:0:
167,183,6379,1,0,0:0:0:0:
402,161,6695,2,0,P|466:138|475:130,2,70
281,166,7642,1,0,0:0:0:0:
484,203,7958,1,0,0:0:0:0:
281,166,8274,1,0,0:0:0:0:
429,263,8590,2,0,L|310:233,1,105
327,237,8906,5,0,0:0:0:0:
468,173,9064,1,0,0:0:0:0:
222,168,9221,1,0,0:0:0:0:
434,213,9379,1,0,0:0:0:0:
224,279,9537,2,0,L|148:304,1,56
439,146,9853,2,0,L|499:126,1,56
285,115,10169,2,0,P|148:106|86:125,1,192.5
235,199,11116,5,0,0:0:0:0:
263,213,11156,1,0,0:0:0:0:
290,227,11195,1,0,0:0:0:0:
318,241,11235,1,0,0:0:0:0:
344,257,11274,1,0,0:0:0:0:
430,293,11353,1,0,0:0:0:0:
407,303,11432,1,0,0:0:0:0:
385,314,11511,1,0,0:0:0:0:
360,327,11590,5,0,0:0:0:0:
246,333,11748,1,0,0:0:0:0:
483,257,11906,1,0,0:0:0:0:
184,289,12064,1,0,0:0:0:0:
448,311,12221,1,0,0:0:0:0:
130,340,12379,1,0,0:0:0:0:
392,267,12537,1,0,0:0:0:0:
145,213,12695,1,0,0:0:0:0:
392,267,12853,5,0,0:0:0:0:
145,213,13011,1,0,0:0:0:0:
392,267,13169,1,0,0:0:0:0:
94,165,13327,1,0,0:0:0:0:
341,219,13485,1,0,0:0:0:0:
94,165,13643,1,0,0:0:0:0:
384,208,13801,1,0,0:0:0:0:
175,242,13958,6,0,L|123:258,1,35
337,142,14116,2,0,L|370:131,1,35
65,251,14274,2,0,L|62:345,1,70
263,338,14590,1,0,0:0:0:0:
32,240,14748,1,0,0:0:0:0:
290,297,14906,1,0,0:0:0:0:
59,199,15064,1,0,0:0:0:0:
288,204,15221,5,0,0:0:0:0:
313,193,15300,1,0,0:0:0:0:
337,178,15379,1,0,0:0:0:0:
339,150,15458,1,0,0:0:0:0:
188,108,15537,1,0,0:0:0:0:
423,119,15695,1,0,0:0:0:0:
188,108,15853,1,0,0:0:0:0:
423,119,16011,1,0,0:0:0:0:
128,96,16169,1,0,0:0:0:0:
483,127,16327,1,0,0:0:0:0:
221,186,16485,6,0,L|158:206,1,35
423,119,16642,2,0,L|486:99,1,35
125,144,16800,2,0,L|55:68,1,70
264,72,17116,1,0,0:0:0:0:
48,220,17274,1,0,0:0:0:0:
320,112,17432,1,0,0:0:0:0:
48,220,17590,1,0,0:0:0:0:
376,152,17748,1,0,0:0:0:0:
48,220,17906,5,0,0:0:0:0:
48,220,18064,1,0,0:0:0:0:
364,152,18221,1,0,0:0:0:0:
48,288,18379,1,0,0:0:0:0:
364,152,18537,1,0,0:0:0:0:
48,352,18695,1,0,0:0:0:0:
364,152,18853,1,0,0:0:0:0:
128,144,19011,6,0,L|73:119,1,38.5000011749268
365,231,19169,2,0,L|405:250,2,38.5000011749268
175,148,19485,1,0,0:0:0:0:
454,271,19642,1,0,0:0:0:0:
175,148,19800,1,0,0:0:0:0:
454,271,19958,6,0,L|493:288,1,38.5000011749268
175,148,20116,2,0,L|136:131,1,38.5000011749268
352,238,20274,2,0,L|390:295,2,48.9999985046387
160,146,20748,2,0,L|122:89,2,48.9999985046387
60,275,21221,1,0,0:0:0:0:
346,142,21379,1,0,0:0:0:0:
119,215,21537,6,0,L|53:228,1,41.9999987182618
393,169,21695,2,0,L|434:160,1,41.9999987182618
104,144,21853,1,0,0:0:0:0:
346,142,22011,1,0,0:0:0:0:
104,144,22169,1,0,0:0:0:0:
346,142,22327,1,0,0:0:0:0:
94,149,22485,1,0,0:0:0:0:
409,140,22642,1,0,0:0:0:0:
161,222,22800,6,0,L|108:238,1,41.9999987182618
351,162,22958,2,0,L|404:146,1,41.9999987182618
142,266,23116,2,0,L|89:282,1,41.9999987182618
370,118,23274,2,0,L|423:102,1,41.9999987182618
112,307,23432,2,0,L|59:323,1,41.9999987182618
400,77,23590,2,0,L|453:61,1,41.9999987182618
186,116,23748,1,0,0:0:0:0:
488,168,23906,1,0,0:0:0:0:
248,211,24064,6,0,L|185:229,1,41.9999987182618
38,293,24221,2,0,L|90:273,1,41.9999987182618
332,185,24379,2,0,L|357:85,1,83.9999974365235
197,84,24695,1,0,0:0:0:0:
451,146,24853,1,0,0:0:0:0:
210,321,25011,1,0,0:0:0:0:
441,66,25169,1,0,0:0:0:0:
139,240,25327,1,0,0:0:0:0:
374,24,25485,5,0,0:0:0:0:
106,109,25642,1,0,0:0:0:0:
441,66,25800,1,0,0:0:0:0:
48,60,25958,1,0,0:0:0:0:
441,66,26116,1,0,0:0:0:0:
0,192,26274,1,0,0:0:0:0:
512,192,26432,1,0,0:0:0:0:
384,192,26590,6,0,L|328:192,1,41.9999987182618
96,192,26748,2,0,L|152:192,1,41.9999987182618
384,192,26906,2,0,L|432:104,1,83.9999974365235
288,96,27221,1,0,0:0:0:0:
480,40,27379,1,0,0:0:0:0:
272,104,27537,1,0,0:0:0:0:
480,40,27695,1,0,0:0:0:0:
256,112,27853,1,0,0:0:0:0:
480,40,28011,5,0,0:0:0:0:
240,120,28169,1,0,0:0:0:0:
480,40,28327,1,0,0:0:0:0:
224,128,28485,1,0,0:0:0:0:
480,40,28642,1,0,0:0:0:0:
208,136,28800,1,0,0:0:0:0:
480,40,28958,1,0,0:0:0:0:
360,112,29116,6,0,L|320:152,1,41.9999987182618
128,296,29274,2,0,L|80:296,1,41.9999987182618
384,248,29432,2,0,P|440:200|448:168,1,83.9999974365235
240,128,29748,6,0,L|56:96,2,167.999994873047
144,184,30458,2,0,B|88:232|88:232|352:264,1,315
208,160,31327,2,0,L|144:152,1,35
392,176,31485,6,0,L|480:192,1,70
192,80,31642,2,0,L|88:64,1,105
