osu file format v14

[General]
AudioFilename: audio.mp3
AudioLeadIn: 0
PreviewTime: -1
Countdown: 0
SampleSet: Soft
StackLeniency: 0.7
Mode: 2
LetterboxInBreaks: 0
WidescreenStoryboard: 1

[Editor]
Bookmarks: 30577
DistanceSpacing: 0.8
BeatDivisor: 8
GridSize: 8
TimelineZoom: 3.999998

[Metadata]
Title:Padoru Padoru
TitleUnicode:Padoru Padoru
Artist:Turbo
ArtistUnicode:Turbo
Creator:ExCell3nT
Version:Padoru?
Source:
Tags:
BeatmapID:2674828
BeatmapSetID:1285916

[Difficulty]
HPDrainRate:4.8
CircleSize:4.2
OverallDifficulty:9.6
ApproachRate:9.6
SliderMultiplier:1.4
SliderTickRate:1

[Events]
//Background and Video events
//Break Periods
//Storyboard Layer 0 (Background)
//Storyboard Layer 1 (Fail)
//Storyboard Layer 2 (Pass)
//Storyboard Layer 3 (Foreground)
//Storyboard Layer 4 (Overlay)
//Storyboard Sound Samples

[TimingPoints]
64,315.789473684211,4,2,22,62,1,0
1327,-200,4,2,22,62,0,1
1485,-200,4,2,22,62,0,1
1642,-200,4,2,22,62,0,1
1800,-200,4,2,22,62,0,1
1958,-200,4,2,22,62,0,1
2116,-200,4,2,22,62,0,1
2274,-200,4,2,22,62,0,1
2432,-200,4,2,22,62,0,1
2590,-200,4,2,22,62,0,1
2985,-200,4,2,22,62,0,1
3221,-200,4,2,22,62,0,1
3458,-200,4,2,22,62,0,1
3537,-100,4,2,22,62,0,1
3774,-100,4,2,22,62,0,1
3853,-200,4,2,22,62,0,1
4011,-200,4,2,22,62,0,1
4169,-200,4,2,22,62,0,1
4327,-200,4,2,22,62,0,1
4485,-200,4,2,22,62,0,1
4643,-200,4,2,22,62,0,1
4800,-200,4,2,22,62,0,1
4958,-200,4,2,22,62,0,1
5116,-200,4,2,22,62,0,1
5195,-200,4,2,22,62,0,1
5589,-200,4,2,22,62,0,1
5669,-200,4,2,22,62,0,1
5748,-100,4,2,22,62,0,1
5985,-100,4,2,22,62,0,1
6064,-100,4,2,22,62,0,1
6300,-100,4,2,22,62,0,1
6379,-200,4,2,22,62,0,1
6537,-200,4,2,22,62,0,1
6695,-200,4,2,22,62,0,1
6853,-200,4,2,22,62,0,1
7011,-200,4,2,22,62,0,1
7169,-200,4,2,22,62,0,1
7326,-200,4,2,22,62,0,1
7484,-200,4,2,22,62,0,1
7642,-200,4,2,22,62,0,1
8511,-200,4,2,22,62,0,1
8590,-100,4,2,22,62,0,1
8827,-100,4,2,22,62,0,1
8906,-125,4,2,22,62,0,1
9064,-125,4,2,22,62,0,1
9222,-125,4,2,22,62,0,1
9378,-125,4,2,22,62,0,1
9380,-125,4,2,22,62,0,1
9538,-125,4,2,22,62,0,1
9694,-125,4,2,22,62,0,1
9696,-125,4,2,22,62,0,1
9853,-125,4,2,22,62,0,1
10011,-125,4,2,22,62,0,1
10169,-200,4,2,22,62,0,1
10248,-200,4,2,22,62,0,1
11037,-200,4,2,22,62,0,1
11116,-50,4,2,22,62,0,1
11156,-50,4,2,22,62,0,1
11274,-50,4,2,22,62,0,1
11353,-50,4,2,22,62,0,1
11432,-100,4,2,22,62,0,1
11511,-100,4,2,22,62,0,1
19011,-90.9090909090909,4,2,22,62,0,1
20274,-142.857142857143,4,2,22,62,0,1
21221,-100,4,2,22,62,0,1
21537,-83.3333333333333,4,2,22,62,0,1
30379,-100,4,2,22,62,0,1
30458,-100,4,2,22,62,0,1
31327,-50,4,2,22,62,0,1
31366,-50,4,2,22,62,0,1
31485,-50,4,2,22,62,0,1
31564,-50,4,2,22,62,0,1
31642,-200,4,2,22,62,0,1
31721,-200,4,2,22,62,0,1
32115,-200,4,2,22,62,0,1

[HitObjects]
126,279,1011,5,0,0:0:0:0:
322,237,1327,2,0,L|377:224,1,35
207,171,1642,2,0,L|158:156,1,35
424,155,1958,2,0,L|425:91,1,35
273,75,2274,2,0,L|272:139,1,35
175,225,2590,2,0,P|137:242|84:255,1,87.5
331,258,3221,6,0,L|389:262,1,52.5
154,108,3537,2,0,P|98:96|52:66,1,105
326,104,3853,2,0,L|373:98,1,35
146,187,4169,2,0,L|99:196,1,35
390,185,4485,2,0,L|435:175,1,35
232,253,4800,2,0,L|188:264,1,35
432,264,5116,2,0,L|449:264,1,17.5
120,240,5274,2,0,L|96:240,1,17.5
240,216,5432,6,0,L|288:192,1,52.5
392,144,5748,2,0,P|424:123|491:106,1,105
273,69,6064,2,0,L|153:69,1,105
426,227,6379,2,0,L|417:274,1,35
220,222,6695,6,0,L|185:228,1,35
340,144,7011,2,0,L|374:137,1,35
146,157,7327,2,0,L|111:163,1,35
437,82,7642,1,0,0:0:0:0:
136,168,7958,1,0,0:0:0:0:
430,170,8274,2,0,L|450:222,1,52.5
281,272,8590,6,0,L|165:295,1,105
328,153,8906,2,0,L|329:71,1,56
133,129,9221,2,0,P|98:155|89:175,1,56
312,238,9537,2,0,L|381:269,1,56
128,255,9853,2,0,L|48:251,1,56
284,139,10169,2,0,L|308:138,1,17.5
392,127,10327,5,0,0:0:0:0:
105,168,10485,1,0,0:0:0:0:
392,127,10642,1,0,0:0:0:0:
105,168,10800,1,0,0:0:0:0:
392,127,10958,2,0,L|419:123,1,17.5
224,168,11116,1,0,0:0:0:0:
208,176,11156,1,0,0:0:0:0:
192,192,11195,1,0,0:0:0:0:
184,208,11235,1,0,0:0:0:0:
208,272,11274,1,0,0:0:0:0:
193,261,11314,1,0,0:0:0:0:
180,242,11353,1,0,0:0:0:0:
175,225,11393,1,0,0:0:0:0:
304,288,11432,2,0,L|336:276,1,35
136,320,11590,2,0,L|102:331,1,35
306,212,11748,5,0,0:0:0:0:
32,249,11906,1,0,0:0:0:0:
306,212,12064,1,0,0:0:0:0:
32,249,12222,1,0,0:0:0:0:
306,212,12379,1,0,0:0:0:0:
32,249,12537,1,0,0:0:0:0:
388,267,12695,1,0,0:0:0:0:
95,161,12853,1,0,0:0:0:0:
457,188,13011,1,0,0:0:0:0:
157,225,13169,1,0,0:0:0:0:
510,256,13327,1,0,0:0:0:0:
230,164,13485,1,0,0:0:0:0:
410,111,13642,2,0,P|453:103|479:79,1,70
319,60,13958,6,0,L|264:66,1,35
77,89,14116,2,0,L|124:80,1,35
319,142,14274,1,0,0:0:0:0:
47,178,14432,1,0,0:0:0:0:
319,142,14590,1,0,0:0:0:0:
47,178,14748,1,0,0:0:0:0:
319,142,14906,1,0,0:0:0:0:
47,178,15064,1,0,0:0:0:0:
339,255,15221,1,0,0:0:0:0:
94,113,15379,1,0,0:0:0:0:
410,207,15537,1,0,0:0:0:0:
138,177,15695,1,0,0:0:0:0:
477,163,15853,1,0,0:0:0:0:
206,120,16011,1,0,0:0:0:0:
48,232,16169,2,0,L|31:315,1,70
213,316,16485,6,0,L|249:300,1,35
466,187,16642,2,0,L|423:209,1,35
165,253,16800,1,0,0:0:0:0:
480,107,16958,1,0,0:0:0:0:
165,253,17116,1,0,0:0:0:0:
480,107,17274,1,0,0:0:0:0:
165,253,17432,1,0,0:0:0:0:
480,107,17590,1,0,0:0:0:0:
37,142,17748,1,0,0:0:0:0:
480,107,17906,1,0,0:0:0:0:
37,142,18064,1,0,0:0:0:0:
480,107,18222,1,0,0:0:0:0:
37,142,18379,1,0,0:0:0:0:
480,107,18537,1,0,0:0:0:0:
199,88,18695,2,0,P|164:121|117:138,1,70
0,192,19011,5,0,0:0:0:0:
165,193,19327,1,0,0:0:0:0:
512,192,19642,1,0,0:0:0:0:
347,191,19958,1,0,0:0:0:0:
96,144,20274,2,0,P|152:112|200:96,2,97.9999970092774
328,192,21221,2,0,L|416:208,1,70
232,288,21537,5,0,0:0:0:0:
480,200,21695,1,0,0:0:0:0:
216,264,21853,1,0,0:0:0:0:
464,176,22011,1,0,0:0:0:0:
200,240,22169,1,0,0:0:0:0:
448,152,22327,1,0,0:0:0:0:
184,216,22485,1,0,0:0:0:0:
432,128,22643,1,0,0:0:0:0:
104,160,22800,5,0,0:0:0:0:
480,192,22958,1,0,0:0:0:0:
88,184,23116,1,0,0:0:0:0:
464,216,23274,1,0,0:0:0:0:
72,208,23432,1,0,0:0:0:0:
448,240,23590,1,0,0:0:0:0:
56,232,23748,1,0,0:0:0:0:
432,264,23906,1,0,0:0:0:0:
152,344,24064,5,0,0:0:0:0:
400,64,24221,1,0,0:0:0:0:
128,344,24379,1,0,0:0:0:0:
424,64,24537,1,0,0:0:0:0:
104,344,24695,1,0,0:0:0:0:
448,64,24852,1,0,0:0:0:0:
80,344,25010,1,0,0:0:0:0:
472,64,25168,1,0,0:0:0:0:
216,184,25327,6,0,P|176:208|128:224,1,83.9999974365235
384,144,25642,2,0,L|432:136,1,41.9999987182618
128,120,25800,2,0,L|80:112,1,41.9999987182618
416,240,25958,2,0,L|464:256,1,41.9999987182618
72,200,26116,2,0,L|16:208,1,41.9999987182618
448,184,26274,2,0,L|496:176,1,41.9999987182618
48,176,26432,2,0,L|0:168,1,41.9999987182618
256,232,26590,5,0,0:0:0:0:
384,256,26748,1,0,0:0:0:0:
128,256,26906,1,0,0:0:0:0:
256,168,27064,1,0,0:0:0:0:
448,256,27222,1,0,0:0:0:0:
64,256,27380,1,0,0:0:0:0:
256,96,27537,1,0,0:0:0:0:
512,256,27695,1,0,0:0:0:0:
0,256,27853,5,0,0:0:0:0:
328,192,28011,1,0,0:0:0:0:
184,192,28169,1,0,0:0:0:0:
360,192,28327,1,0,0:0:0:0:
152,192,28485,1,0,0:0:0:0:
392,192,28642,1,0,0:0:0:0:
120,192,28800,1,0,0:0:0:0:
424,192,28958,1,0,0:0:0:0:
232,192,29116,6,0,P|192:160|136:120,1,83.9999974365235
392,112,29432,2,0,L|472:104,1,41.9999987182618
112,240,29590,2,0,L|64:256,1,41.9999987182618
384,248,29748,2,0,P|432:224|472:168,2,83.9999974365235
152,320,30221,6,0,L|96:352,1,41.9999987182618
360,128,30379,2,0,L|400:104,1,35
240,168,30537,2,0,P|176:192|112:256,2,140
96,112,31327,6,0,L|24:112,1,70
280,96,31485,2,0,L|360:96,1,70
96,232,31642,2,0,P|64:264|32:328,1,105
