osu file format v14

[General]
AudioFilename: audio.mp3
AudioLeadIn: 0
PreviewTime:21142
Countdown: 0
SampleSet: Soft
StackLeniency: 0.4
Mode: 0
LetterboxInBreaks: 0
WidescreenStoryboard: 1

[Editor]
DistanceSpacing: 0.3
BeatDivisor: 4
GridSize: 32
TimelineZoom: 2.799999

[Metadata]
Title:PADORU / PADORU
TitleUnicode:PADORU / PADORU
Artist:Turbo
ArtistUnicode:Turbo
Creator:Sotarks
Version:toybot's Insane
Source:Fate/EXTRA
Tags:TurboAutism eurobeats nero claudius christmas xmas remix edit Hashire sori yo Kaze no you ni Tsukimihara wo armin a_r_m_i_n agatsu akitoshi corinn -laura- kowari fieryrage ggf gottagof4st stack kyuukai yaleufeu lasse milan- nao tomori naotoshi nevo realazy reform kujinn shardex shunao shogunmoon smokelind toybot doormat kiyoshi guarden nymphe fatfan kolek haruto haruto_aizawa japanese anime electronic video game jingle bells
BeatmapID:2245787
BeatmapSetID:1073074

[Difficulty]
HPDrainRate:5
CircleSize:4
OverallDifficulty:8
ApproachRate:9
SliderMultiplier:1.57
SliderTickRate:1

[Events]
//Background and Video events
0,0,"bg.jpg",0,0
//Break Periods
//Storyboard Layer 0 (Background)
//Storyboard Layer 1 (Fail)
//Storyboard Layer 2 (Pass)
//Storyboard Layer 3 (Foreground)
//Storyboard Layer 4 (Overlay)
//Storyboard Sound Samples

[TimingPoints]
64,315.789473684211,4,2,22,62,1,0
1327,-100,4,2,22,72,0,0
1485,-100,4,2,22,32,0,0
1642,-133.333333333333,4,2,22,72,0,0
1800,-133.333333333333,4,2,22,32,0,0
1958,-133.333333333333,4,2,22,72,0,0
2116,-133.333333333333,4,2,22,32,0,0
2274,-133.333333333333,4,2,22,72,0,0
2432,-133.333333333333,4,2,22,32,0,0
2590,-133.333333333333,4,2,22,72,0,0
3458,-133.333333333333,4,2,22,5,0,0
3537,-133.333333333333,4,2,22,72,0,0
3774,-133.333333333333,4,2,22,5,0,0
3853,-100,4,2,22,72,0,0
4011,-100,4,2,22,32,0,0
4169,-133.333333333333,4,2,22,72,0,0
4327,-133.333333333333,4,2,22,32,0,0
4485,-133.333333333333,4,2,22,72,0,0
4643,-133.333333333333,4,2,22,32,0,0
4800,-133.333333333333,4,2,22,72,0,0
4958,-133.333333333333,4,2,22,32,0,0
5116,-133.333333333333,4,2,22,72,0,0
5669,-133.333333333333,4,2,22,5,0,0
5748,-100,4,2,22,72,0,0
5985,-100,4,2,22,5,0,0
6064,-100,4,2,22,72,0,0
6300,-100,4,2,22,5,0,0
6379,-100,4,2,22,72,0,0
6537,-100,4,2,22,32,0,0
6695,-133.333333333333,4,2,22,72,0,0
6853,-133.333333333333,4,2,22,32,0,0
7011,-133.333333333333,4,2,22,72,0,0
7169,-133.333333333333,4,2,22,32,0,0
7326,-133.333333333333,4,2,22,72,0,0
7484,-133.333333333333,4,2,22,32,0,0
7642,-133.333333333333,4,2,22,72,0,0
8511,-133.333333333333,4,2,22,5,0,0
8590,-100,4,2,22,72,0,0
8827,-100,4,2,22,5,0,0
8906,-100,4,2,22,72,0,0
9064,-100,4,2,22,32,0,0
9222,-100,4,2,22,72,0,0
9380,-100,4,2,22,32,0,0
9537,-100,4,2,22,72,0,0
9853,-100,4,2,22,72,0,0
10011,-100,4,2,22,32,0,0
10169,-100,4,2,22,72,0,0
11116,-50,4,2,22,72,0,0
11353,-50,4,2,22,5,0,0
11432,-83.3333333333333,4,2,22,82,0,0
19564,-83.3333333333333,4,2,22,5,0,0
19642,-83.3333333333333,4,2,22,82,0,0
21458,-83.3333333333333,4,2,22,5,0,0
21537,-83.3333333333333,4,2,22,92,0,0
27142,-83.3333333333333,4,2,22,5,0,0
27221,-83.3333333333333,4,2,22,92,0,0
30458,-83.3333333333333,4,2,22,82,0,0
31327,-66.6666666666667,4,2,22,82,0,0
31564,-66.6666666666667,4,2,22,5,0,0
31642,-200,4,2,22,82,0,0
31958,-200,4,2,22,5,0,0

[Colours]
Combo1 : 199,215,222
Combo2 : 139,152,201
Combo3 : 92,109,175

[HitObjects]
123,244,1011,5,8,0:2:0:0:
123,244,1327,2,0,P|120:205|111:166,1,78.5,6|0,1:2|0:2,0:2:0:0:
83,94,1642,2,0,P|117:126|206:118,2,117.750004491806,2|2|2,0:2|0:2|0:2,0:2:0:0:
230,196,2590,2,0,P|255:92|153:57,1,235.500008983612,2|0,0:2|0:0,0:2:0:0:
349,310,3537,5,2,1:2:0:0:
349,310,3853,2,0,P|359:266|358:228,1,78.5,6|0,1:2|0:2,0:2:0:0:
424,191,4169,2,0,P|366:195|317:164,1,117.750004491806,2|2,0:2|0:2,0:2:0:0:
238,150,4800,1,2,0:2:0:0:
201,79,5116,2,0,P|254:72|315:171,1,176.625006737709,2|0,0:2|0:0,0:2:0:0:
218,266,5748,6,0,B|140:248|140:248|65:292,1,157,2|2,1:2|0:2,0:2:0:0:
73,286,6379,6,0,P|85:237|80:188,1,78.5,6|0,1:2|0:2,0:2:0:0:
49,138,6695,1,2,0:2:0:0:
105,84,7011,1,2,0:2:0:0:
177,115,7327,1,2,0:2:0:0:
163,191,7642,5,2,0:2:0:0:
211,281,7958,1,0,0:0:0:0:
315,309,8274,1,0,0:0:0:0:
413,261,8590,2,0,P|403:223|397:168,1,78.5,2|0,1:2|0:0,0:2:0:0:
466,47,8906,6,0,P|465:91|431:126,1,78.5,6|0,1:2|0:2,0:2:0:0:
363,108,9221,2,0,P|298:67|222:81,1,157,2|2,0:2|0:2,0:2:0:0:
196,169,9695,1,0,0:2:0:0:
290,231,9853,2,0,P|284:192|282:152,1,78.5,2|0,0:2|0:2,0:2:0:0:
81,33,10169,6,0,P|87:71|90:110,1,78.5,2|0,3:2|3:2,0:0:0:0:
90,110,10406,1,0,3:0:0:0:
90,110,10485,1,2,3:2:0:0:
89,224,10642,1,0,3:2:0:0:
191,291,10800,1,2,3:2:0:0:
196,169,10958,1,0,3:2:0:0:
299,239,11116,6,0,L|336:228,6,39.25,6|0|0|0|0|0|0,0:2|0:0|0:0|0:0|0:0|0:0|0:2,0:2:0:0:
298,239,11432,6,0,P|308:193|308:146,1,94.1999971252442,6|0,1:2|3:2,0:0:0:0:
395,117,11669,1,0,3:2:0:0:
395,117,11748,2,0,P|326:57|240:83,1,188.399994250488,2|0,1:2|1:2,0:2:0:0:
298,239,12221,1,0,0:2:0:0:
398,209,12379,1,0,1:2:0:0:
207,173,12537,1,0,0:2:0:0:
193,341,12695,6,0,P|236:333|286:330,1,94.1999971252442,0|2,1:2|0:2,0:0:0:0:
426,363,13011,1,2,1:2:0:0:
374,300,13169,1,2,0:2:0:0:
387,222,13327,1,2,1:2:0:0:
442,167,13485,1,2,0:2:0:0:
464,95,13642,1,0,1:2:0:0:
414,40,13800,1,0,0:2:0:0:
280,117,13958,6,0,P|289:162|293:210,1,94.1999971252442,6|0,1:2|3:2,0:0:0:0:
322,291,14195,1,0,3:2:0:0:
322,291,14274,2,0,B|217:309|253:225|137:245,1,188.399994250488,2|0,1:2|1:2,0:2:0:0:
16,343,14748,1,0,0:2:0:0:
175,326,14906,1,0,1:2:0:0:
73,198,15064,1,0,0:2:0:0:
87,290,15221,6,0,P|133:299|180:303,1,94.1999971252442,0|2,1:2|0:2,0:0:0:0:
311,218,15537,1,2,1:2:0:0:
229,223,15695,1,2,0:2:0:0:
153,191,15853,1,2,1:2:0:0:
106,123,16011,1,2,0:2:0:0:
113,41,16169,5,0,1:2:0:0:
113,41,16327,1,0,1:2:0:0:
235,0,16485,5,6,1:2:0:0:
288,85,16642,1,0,3:2:0:0:
288,85,16721,1,0,3:2:0:0:
288,85,16800,2,0,P|267:139|134:129,1,188.399994250488,2|0,1:2|1:2,0:2:0:0:
50,184,17274,1,0,0:2:0:0:
218,251,17432,2,0,P|172:254|125:261,1,94.1999971252442,0|0,1:2|0:2,0:0:0:0:
26,79,17748,6,0,P|72:75|119:68,1,94.1999971252442,0|2,1:2|0:2,0:0:0:0:
227,12,18064,1,2,1:2:0:0:
311,6,18221,1,2,0:2:0:0:
379,58,18379,1,2,1:2:0:0:
372,143,18537,1,2,0:2:0:0:
300,190,18695,1,0,1:2:0:0:
220,162,18853,1,0,0:2:0:0:
372,143,19011,6,0,P|385:191|383:236,1,94.1999971252442,6|0,1:2|3:2,0:0:0:0:
433,323,19248,1,0,3:2:0:0:
433,323,19327,2,0,P|376:281|287:291,1,141.299995687866,2|0,1:2|0:0,0:2:0:0:
251,333,19642,2,0,L|130:352,1,94.1999971252442,0|0,1:2|0:2,0:0:0:0:
153,218,19958,2,0,L|59:232,1,94.1999971252442,0|0,1:2|0:2,0:0:0:0:
255,125,20274,6,0,L|441:97,1,188.399994250488,6|0,1:2|0:2,0:2:0:0:
441,97,20748,1,0,1:2:0:0:
441,97,21064,1,0,0:2:0:0:
378,45,21221,2,0,P|361:111|401:167,1,141.299995687866,0|0,1:2|0:0,0:0:0:0:
401,167,21537,6,0,P|386:223|399:274,1,94.1999971252442,14|0,1:2|3:2,0:0:0:0:
456,304,21774,1,0,3:2:0:0:
456,304,21853,2,0,P|408:285|340:286,1,94.1999971252442,10|0,1:2|0:2,0:2:0:0:
256,202,22169,1,10,1:2:0:0:
197,264,22327,1,0,0:2:0:0:
39,293,22485,1,10,1:2:0:0:
118,328,22642,1,0,0:2:0:0:
170,178,22800,6,0,P|163:132|150:85,1,94.1999971252442,10|2,1:2|0:2,0:0:0:0:
224,50,23116,1,10,1:2:0:0:
245,130,23274,1,2,0:2:0:0:
326,57,23432,1,10,1:2:0:0:
324,88,23590,1,2,0:2:0:0:
410,112,23748,1,10,1:2:0:0:
404,120,23906,1,0,0:2:0:0:
450,303,24064,6,0,P|464:255|459:200,1,94.1999971252442,14|0,1:2|3:2,0:0:0:0:
461,211,24300,1,0,3:2:0:0:
461,211,24379,2,0,P|375:236|357:324,1,188.399994250488,10|10,1:2|1:2,0:2:0:0:
273,364,24853,1,0,0:2:0:0:
172,217,25011,1,10,1:2:0:0:
254,261,25169,1,0,0:2:0:0:
84,366,25327,6,0,P|87:319|101:274,1,94.1999971252442,10|2,1:2|0:2,0:0:0:0:
73,168,25642,1,10,1:2:0:0:
44,76,25800,1,2,0:2:0:0:
152,111,25958,1,10,1:2:0:0:
166,70,26116,1,2,0:2:0:0:
255,122,26274,5,10,1:2:0:0:
255,122,26432,1,0,1:2:0:0:
202,202,26590,6,0,P|251:209|293:223,1,94.1999971252442,14|0,1:2|3:2,0:0:0:0:
364,186,26827,1,0,3:2:0:0:
364,186,26906,2,0,P|338:254|376:328,1,141.299995687866,10|0,1:2|0:0,0:2:0:0:
440,319,27221,1,10,1:2:0:0:
465,147,27379,1,0,0:2:0:0:
382,94,27537,1,10,1:2:0:0:
491,237,27695,1,0,0:2:0:0:
290,97,27853,6,0,P|239:91|191:73,1,94.1999971252442,10|2,1:2|0:2,0:0:0:0:
87,161,28169,1,10,1:2:0:0:
67,21,28327,1,2,0:2:0:0:
169,161,28485,1,10,1:2:0:0:
198,76,28642,1,2,0:2:0:0:
239,205,28800,1,10,1:2:0:0:
264,179,28958,1,0,0:2:0:0:
269,284,29116,6,0,P|259:334|256:377,1,94.1999971252442,14|0,1:2|3:2,0:0:0:0:
255,377,29353,1,0,3:2:0:0:
255,377,29432,1,10,1:2:0:0:
182,235,29590,1,0,0:2:0:0:
243,100,29748,2,0,P|253:50|256:7,1,94.1999971252442,10|0,1:2|0:2,0:0:0:0:
256,6,29985,1,0,0:0:0:0:
256,6,30064,1,10,1:2:0:0:
330,149,30221,1,0,0:2:0:0:
182,235,30379,6,0,P|133:185|6:208,1,188.399994250488,14|0,1:2|0:2,0:2:0:0:
21,193,30853,1,8,1:2:0:0:
21,193,31169,1,0,0:2:0:0:
155,308,31327,6,0,P|236:292|254:211,1,176.625006737709,8|0,1:2|0:2,0:2:0:0:
214,142,31642,6,0,B|222:128|224:105|224:105|236:123|253:132,1,78.5,2|0,1:2|0:0,0:0:0:0:
