osu file format v14

[General]
AudioFilename: audio.mp3
AudioLeadIn: 0
PreviewTime:21142
Countdown: 0
SampleSet: Soft
StackLeniency: 0.7
Mode: 0
LetterboxInBreaks: 0
WidescreenStoryboard: 1

[Editor]
DistanceSpacing: 0.2
BeatDivisor: 4
GridSize: 32
TimelineZoom: 1.7

[Metadata]
Title:PADORU / PADORU
TitleUnicode:PADORU / PADORU
Artist:Turbo
ArtistUnicode:Turbo
Creator:Sotarks
Version:shardex' Insane
Source:Fate/EXTRA
Tags:TurboAutism eurobeats nero claudius christmas xmas remix edit Hashire sori yo Kaze no you ni Tsukimihara wo armin a_r_m_i_n agatsu akitoshi corinn -laura- kowari fieryrage ggf gottagof4st stack kyuukai yaleufeu lasse milan- nao tomori naotoshi nevo realazy reform kujinn shardex shunao shogunmoon smokelind toybot doormat kiyoshi guarden nymphe fatfan kolek haruto haruto_aizawa japanese anime electronic video game jingle bells
BeatmapID:2245784
BeatmapSetID:1073074

[Difficulty]
HPDrainRate:6
CircleSize:4
OverallDifficulty:8.5
ApproachRate:9
SliderMultiplier:1.82
SliderTickRate:1

[Events]
//Background and Video events
0,0,"bg.jpg",0,0
//Break Periods
//Storyboard Layer 0 (Background)
//Storyboard Layer 1 (Fail)
//Storyboard Layer 2 (Pass)
//Storyboard Layer 3 (Foreground)
//Storyboard Layer 4 (Overlay)
//Storyboard Sound Samples

[TimingPoints]
64,315.789473684211,4,2,22,62,1,0
1011,-125,4,2,22,62,0,0
1327,-125,4,2,22,72,0,0
1485,-125,4,2,22,32,0,0
1642,-125,4,2,22,72,0,0
1800,-125,4,2,22,32,0,0
1958,-166.666666666667,4,2,22,72,0,0
2116,-166.666666666667,4,2,22,32,0,0
2274,-166.666666666667,4,2,22,72,0,0
2432,-166.666666666667,4,2,22,32,0,0
2590,-166.666666666667,4,2,22,72,0,0
3458,-166.666666666667,4,2,22,5,0,0
3537,-125,4,2,22,72,0,0
3774,-125,4,2,22,5,0,0
3853,-125,4,2,22,72,0,0
4011,-125,4,2,22,32,0,0
4169,-125,4,2,22,72,0,0
4327,-125,4,2,22,32,0,0
4485,-166.666666666667,4,2,22,72,0,0
4643,-166.666666666667,4,2,22,32,0,0
4800,-166.666666666667,4,2,22,72,0,0
4958,-166.666666666667,4,2,22,32,0,0
5116,-250,4,2,22,72,0,0
5669,-250,4,2,22,5,0,0
5748,-250,4,2,22,72,0,0
5985,-250,4,2,22,5,0,0
6064,-250,4,2,22,72,0,0
6300,-250,4,2,22,5,0,0
6379,-125,4,2,22,72,0,0
6537,-125,4,2,22,32,0,0
6695,-125,4,2,22,72,0,0
6853,-125,4,2,22,32,0,0
7011,-125,4,2,22,72,0,0
7169,-125,4,2,22,32,0,0
7326,-125,4,2,22,72,0,0
7484,-125,4,2,22,32,0,0
7642,-125,4,2,22,72,0,0
8511,-125,4,2,22,5,0,0
8590,-125,4,2,22,72,0,0
8827,-125,4,2,22,5,0,0
8906,-125,4,2,22,72,0,0
9064,-125,4,2,22,32,0,0
9222,-125,4,2,22,72,0,0
9378,-125,4,2,22,32,0,0
9380,-125,4,2,22,32,0,0
9538,-125,4,2,22,72,0,0
9694,-125,4,2,22,32,0,0
9696,-125,4,2,22,32,0,0
9853,-125,4,2,22,72,0,0
10011,-125,4,2,22,32,0,0
10169,-125,4,2,22,72,0,0
11432,-100,4,2,22,82,0,0
11748,-125,4,2,22,82,0,0
13958,-100,4,2,22,82,0,0
14195,-125,4,2,22,82,0,0
16485,-100,4,2,22,82,0,0
16800,-125,4,2,22,82,0,0
19011,-100,4,2,22,82,0,0
19248,-125,4,2,22,82,0,0
20274,-166.666666666667,4,2,22,82,0,0
21537,-90.9090909090909,4,2,22,92,0,0
21853,-111.111111111111,4,2,22,92,0,0
24064,-90.9090909090908,4,2,22,92,0,0
24379,-111.111111111111,4,2,22,92,0,0
26590,-90.9090909090909,4,2,22,92,0,0
26906,-111.111111111111,4,2,22,92,0,0
29116,-90.9090909090908,4,2,22,92,0,0
29432,-111.111111111111,4,2,22,92,0,0
30458,-111.111111111111,4,2,22,82,0,0
31327,-100,4,2,22,82,0,0
31564,-100,4,2,22,5,0,0
31642,-100,4,2,22,82,0,0

[Colours]
Combo1 : 199,215,222
Combo2 : 139,152,201
Combo3 : 92,109,175

[HitObjects]
203,89,1011,5,8,0:2:0:0:
203,89,1327,6,0,P|267:100|240:161,1,145.6,6|2,1:2|0:2,0:2:0:0:
122,23,1958,2,0,P|117:75|106:153,1,109.199996667481,2|2,0:2|0:2,0:2:0:0:
0,172,2590,6,0,B|113:136|92:208|216:174,1,218.399993334961,2|0,0:2|0:0,0:2:0:0:
325,118,3537,5,2,1:2:0:0:
325,118,3853,6,0,P|275:92|256:171,1,145.6,6|2,1:2|0:2,0:2:0:0:
408,195,4485,2,0,L|425:69,1,109.199996667481,2|2,0:2|0:2,0:2:0:0:
326,243,5116,6,0,B|274:238|274:238|244:251|244:251|181:246,1,145.6,2|2,0:2|1:2,0:2:0:0:
183,246,6064,1,2,0:2:0:0:
183,246,6379,6,0,P|248:258|342:288,1,145.6,6|2,1:2|0:2,0:2:0:0:
392,340,7011,1,2,0:2:0:0:
470,293,7327,1,2,0:2:0:0:
449,204,7642,1,2,0:2:0:0:
437,203,7958,5,0,0:0:0:0:
425,202,8274,5,0,0:0:0:0:
333,194,8590,5,2,1:2:0:0:
333,194,8906,6,0,P|328:119|323:64,1,109.2,6|0,1:2|0:0,0:2:0:0:
323,64,9221,6,0,P|362:56|404:61,1,72.8,2|0,0:2|0:2,0:2:0:0:
298,64,9537,6,0,P|334:48|359:25,1,72.8,2|0,0:2|0:2,0:2:0:0:
268,66,9853,6,0,P|301:80|328:104,1,72.8,2|0,0:2|0:2,0:2:0:0:
184,26,10169,6,0,P|149:33|80:45,1,72.8,2|0,3:2|3:2,0:0:0:0:
38,105,10485,1,2,3:2:0:0:
38,105,10642,1,0,3:2:0:0:
138,194,10800,2,0,P|144:142|151:101,1,72.8,2|0,3:2|3:2,0:0:0:0:
46,239,11116,6,0,L|53:272,6,18.2,6|0|0|0|0|0|0,0:2|0:0|0:0|0:0|0:0|0:0|0:2,0:2:0:0:
58,282,11432,6,0,P|110:287|176:328,1,91,6|0,1:2|3:2,0:0:0:0:
201,359,11669,1,0,3:2:0:0:
214,369,11748,2,0,L|241:238,1,109.2,2|0,1:2|0:0,0:2:0:0:
244,232,12064,5,0,1:2:0:0:
265,141,12221,1,0,0:2:0:0:
336,209,12379,2,0,P|381:202|404:183,1,72.8,0|0,1:2|0:2,0:0:0:0:
487,223,12695,6,0,L|497:133,1,72.8,0|2,1:2|0:2,0:0:0:0:
414,94,13011,1,2,1:2:0:0:
414,94,13169,1,2,0:2:0:0:
401,185,13327,2,0,B|386:220|386:220|392:257,1,72.8,2|2,1:2|0:2,0:0:0:0:
483,331,13642,2,0,B|498:296|498:296|492:259,1,72.8,0|0,1:2|0:2,0:2:0:0:
383,364,13958,6,0,P|346:337|276:324,1,91,6|0,1:2|3:2,0:0:0:0:
226,251,14195,1,0,3:2:0:0:
232,272,14274,2,0,L|113:299,1,109.2,2|0,1:2|0:0,0:2:0:0:
103,306,14590,6,0,P|97:349|91:379,1,72.8,0|0,1:2|0:2,0:0:0:0:
11,293,14906,2,0,P|4:257|0:221,1,72.8,0|0,1:2|0:2,0:0:0:0:
57,148,15221,6,0,L|144:164,1,72.8,0|2,1:2|0:2,0:0:0:0:
222,114,15537,1,2,1:2:0:0:
142,73,15695,1,2,0:2:0:0:
208,202,15853,1,2,1:2:0:0:
265,43,16011,1,2,0:2:0:0:
138,155,16169,1,0,1:2:0:0:
304,140,16327,1,0,1:2:0:0:
382,215,16485,6,0,L|406:90,1,91,6|0,1:2|3:2,0:0:0:0:
421,39,16721,1,0,3:2:0:0:
446,46,16800,2,0,P|466:95|421:130,1,109.2,2|0,1:2|0:0,0:2:0:0:
399,125,17116,6,0,L|306:111,1,72.8,0|0,1:2|0:2,0:0:0:0:
240,95,17432,2,0,L|168:84,1,72.8,0|0,1:2|0:2,0:0:0:0:
221,186,17748,5,0,1:2:0:0:
141,226,17906,1,2,0:2:0:0:
232,277,18064,1,2,1:2:0:0:
111,219,18221,1,2,0:2:0:0:
262,170,18379,1,2,1:2:0:0:
142,312,18537,1,2,0:2:0:0:
160,122,18695,1,0,1:2:0:0:
279,261,18853,1,0,0:2:0:0:
355,201,19011,6,0,P|308:165|258:164,1,91,6|0,1:2|3:2,0:0:0:0:
209,128,19248,1,0,3:2:0:0:
209,151,19327,2,0,P|266:150|319:111,1,109.2,2|0,1:2|0:0,0:2:0:0:
316,98,19642,6,0,P|320:53|325:10,1,72.8,0|0,1:2|0:2,0:0:0:0:
295,201,19958,2,0,P|298:237|302:273,1,72.8,0|0,1:2|0:2,0:0:0:0:
444,292,20274,6,0,B|469:296|496:293|496:293|477:271|449:264,1,109.199996667481,6|0,1:2|0:2,0:2:0:0:
370,342,20748,1,0,1:2:0:0:
375,358,21064,1,0,0:2:0:0:
321,271,21221,2,0,P|335:231|342:184,1,81.8999975006104,0|0,1:2|0:0,0:0:0:0:
343,161,21537,6,0,P|262:145|211:134,1,100.10000305481,14|0,1:2|3:2,0:0:0:0:
179,190,21774,1,0,3:2:0:0:
192,208,21853,2,0,L|184:68,1,122.849996250916,10|0,1:2|0:0,0:2:0:0:
101,34,22169,6,0,B|85:67|85:67|102:122,1,81.8999975006104,10|0,1:2|0:2,0:0:0:0:
270,111,22485,2,0,B|283:67|283:67|267:34,1,81.8999975006104,10|0,1:2|0:2,0:0:0:0:
125,195,22800,5,10,1:2:0:0:
184,85,22958,1,2,0:2:0:0:
257,227,23116,1,10,1:2:0:0:
98,110,23274,1,2,0:2:0:0:
278,65,23432,1,10,1:2:0:0:
141,241,23590,1,2,0:2:0:0:
179,46,23748,1,10,1:2:0:0:
306,214,23906,1,0,0:2:0:0:
382,145,24064,6,0,L|395:42,1,100.10000305481,14|0,1:2|3:2,0:0:0:0:
469,113,24300,1,0,3:2:0:0:
484,96,24379,2,0,B|508:172|508:172|506:195|495:219,1,122.849996250916,10|0,1:2|0:0,0:2:0:0:
501,242,24695,6,0,P|458:236|397:226,1,81.8999975006104,10|0,1:2|0:2,0:0:0:0:
330,215,25011,1,10,1:2:0:0:
330,215,25169,1,0,0:2:0:0:
173,284,25327,6,0,P|213:278|254:271,1,81.8999975006104,10|2,1:2|0:2,0:0:0:0:
422,199,25642,1,10,1:2:0:0:
246,149,25800,1,2,0:2:0:0:
346,317,25958,1,10,1:2:0:0:
384,116,26116,1,2,0:2:0:0:
242,259,26274,1,10,1:2:0:0:
447,204,26432,1,0,1:2:0:0:
272,104,26590,6,0,P|229:126|208:174,1,100.10000305481,14|0,1:2|3:2,0:0:0:0:
272,299,26827,5,0,3:2:0:0:
293,320,26906,2,0,L|306:191,1,122.849996250916,10|0,1:2|0:0,0:2:0:0:
298,185,27221,6,0,L|406:171,1,81.8999975006104,10|0,1:2|0:2,0:0:0:0:
186,199,27537,2,0,L|104:209,1,81.8999975006104,10|0,1:2|0:2,0:0:0:0:
260,278,27853,5,10,1:2:0:0:
214,96,28011,1,2,0:2:0:0:
152,296,28169,1,10,1:2:0:0:
322,170,28327,1,2,0:2:0:0:
124,120,28485,1,10,1:2:0:0:
254,297,28642,1,2,0:2:0:0:
299,65,28800,1,10,1:2:0:0:
102,200,28958,1,0,0:2:0:0:
211,287,29116,6,0,L|329:275,1,100.10000305481,14|0,1:2|3:2,0:0:0:0:
383,330,29353,5,0,3:2:0:0:
396,350,29432,2,0,B|413:306|413:306|392:202,1,122.849996250916,10|0,1:2|0:0,0:2:0:0:
342,159,29748,6,0,P|377:140|418:142,1,81.8999975006104,10|0,1:2|0:2,0:0:0:0:
493,252,30064,2,0,L|507:94,1,122.849996250916,10|0,1:2|0:0,0:0:0:0:
506,102,30379,5,14,1:2:0:0:
506,102,30853,1,8,1:2:0:0:
397,101,31169,5,0,0:2:0:0:
488,35,31327,2,0,P|497:112|488:184,1,136.5,8|0,1:2|0:2,0:2:0:0:
423,234,31642,5,2,1:2:0:0:
