osu file format v14

[General]
AudioFilename: audio.mp3
AudioLeadIn: 0
PreviewTime:21142
Countdown: 0
SampleSet: Soft
StackLeniency: 0.4
Mode: 0
LetterboxInBreaks: 0
WidescreenStoryboard: 0

[Editor]
DistanceSpacing: 0.3
BeatDivisor: 4
GridSize: 32
TimelineZoom: 2.799999

[Metadata]
Title:PADORU / PADORU
TitleUnicode:PADORU / PADORU
Artist:Turbo
ArtistUnicode:Turbo
Creator:Sotarks
Version:Shunao's Insane
Source:Fate/EXTRA
Tags:TurboAutism eurobeats nero claudius christmas xmas remix edit Hashire sori yo Kaze no you ni Tsukimihara wo armin a_r_m_i_n agatsu akitoshi corinn -laura- kowari fieryrage ggf gottagof4st stack kyuukai yaleufeu lasse milan- nao tomori naotoshi nevo realazy reform kujinn shardex shunao shogunmoon smokelind toybot doormat kiyoshi guarden nymphe fatfan kolek haruto haruto_aizawa japanese anime electronic video game jingle bells
BeatmapID:2245785
BeatmapSetID:1073074

[Difficulty]
HPDrainRate:5.5
CircleSize:4.5
OverallDifficulty:8
ApproachRate:8.7
SliderMultiplier:1.6
SliderTickRate:1

[Events]
//Background and Video events
0,0,"bg.jpg",0,0
//Break Periods
//Storyboard Layer 0 (Background)
//Storyboard Layer 1 (Fail)
//Storyboard Layer 2 (Pass)
//Storyboard Layer 3 (Foreground)
//Storyboard Layer 4 (Overlay)
//Storyboard Sound Samples

[TimingPoints]
64,315.789473684211,4,2,22,62,1,0
64,-200,4,2,22,62,0,0
1327,-200,4,2,22,72,0,0
1485,-200,4,2,22,32,0,0
1642,-200,4,2,22,72,0,0
1800,-200,4,2,22,32,0,0
1958,-200,4,2,22,72,0,0
2116,-200,4,2,22,32,0,0
2274,-200,4,2,22,72,0,0
2432,-200,4,2,22,32,0,0
2590,-200,4,2,22,72,0,0
3458,-200,4,2,22,5,0,0
3537,-200,4,2,22,72,0,0
3774,-200,4,2,22,5,0,0
3853,-200,4,2,22,72,0,0
4011,-200,4,2,22,32,0,0
4169,-200,4,2,22,72,0,0
4327,-200,4,2,22,32,0,0
4485,-200,4,2,22,72,0,0
4641,-200,4,2,22,32,0,0
4643,-200,4,2,22,32,0,0
4800,-200,4,2,22,72,0,0
4958,-200,4,2,22,32,0,0
5116,-200,4,2,22,72,0,0
5669,-200,4,2,22,5,0,0
5748,-133.333333333333,4,2,22,72,0,0
5985,-133.333333333333,4,2,22,5,0,0
6064,-133.333333333333,4,2,22,72,0,0
6300,-133.333333333333,4,2,22,5,0,0
6379,-200,4,2,22,72,0,0
6537,-200,4,2,22,32,0,0
6695,-200,4,2,22,72,0,0
6853,-200,4,2,22,32,0,0
7011,-200,4,2,22,72,0,0
7169,-200,4,2,22,32,0,0
7326,-200,4,2,22,72,0,0
7484,-200,4,2,22,32,0,0
7642,-200,4,2,22,72,0,0
8511,-200,4,2,22,5,0,0
8590,-133.333333333333,4,2,22,72,0,0
8827,-133.333333333333,4,2,22,5,0,0
8906,-133.333333333333,4,2,22,72,0,0
9064,-133.333333333333,4,2,22,32,0,0
9222,-133.333333333333,4,2,22,72,0,0
9378,-133.333333333333,4,2,22,32,0,0
9380,-133.333333333333,4,2,22,32,0,0
9538,-133.333333333333,4,2,22,72,0,0
9694,-133.333333333333,4,2,22,32,0,0
9696,-133.333333333333,4,2,22,32,0,0
9853,-133.333333333333,4,2,22,72,0,0
10011,-133.333333333333,4,2,22,32,0,0
10169,-133.333333333333,4,2,22,72,0,0
11353,-133.333333333333,4,2,22,5,0,0
11432,-100,4,2,22,82,0,0
20274,-80,4,2,22,82,0,0
21537,-83.3333333333333,4,2,22,92,0,1
28800,-71.4285714285714,4,2,22,92,0,0
30379,-80,4,2,22,92,0,0
30458,-80,4,2,22,82,0,0
31327,-133.333333333333,4,2,22,82,0,0
31564,-133.333333333333,4,2,22,5,0,0
31642,-133.333333333333,4,2,22,82,0,0

[Colours]
Combo1 : 199,215,222
Combo2 : 139,152,201
Combo3 : 92,109,175

[HitObjects]
206,39,1011,5,8,0:2:0:0:
206,39,1327,6,0,L|215:95,1,40,6|0,1:2|0:2,0:2:0:0:
280,139,1642,2,0,L|285:99,1,40,2|0,0:2|0:2,0:2:0:0:
345,33,1958,2,0,L|354:89,1,40,2|0,0:2|0:2,0:2:0:0:
420,133,2274,2,0,L|425:93,1,40,2|0,0:2|0:2,0:2:0:0:
473,203,2590,2,0,P|433:221|380:214,1,80,2|0,0:2|0:0,0:2:0:0:
397,219,3537,5,2,1:2:0:0:
207,316,3853,6,0,L|213:372,1,40,6|0,1:2|0:2,0:2:0:0:
288,307,4169,2,0,L|293:259,1,40,2|0,0:2|0:2,0:2:0:0:
201,255,4484,2,0,L|206:305,1,40,2|0,0:2|0:2,0:2:0:0:
282,250,4800,2,0,L|287:202,1,40,2|0,0:2|0:2,0:2:0:0:
193,140,5116,2,0,P|234:142|273:117,1,80,2|0,0:2|0:0,0:2:0:0:
267,123,5748,6,0,L|256:21,1,90.0000034332277,2|0,1:2|0:2,0:2:0:0:
253,7,6064,6,0,P|296:17|340:5,1,90.0000034332277,2|0,0:2|0:2,0:2:0:0:
412,20,6379,6,0,L|407:75,1,40,6|0,1:2|0:2,0:2:0:0:
352,128,6695,2,0,L|358:184,1,40,2|0,0:2|0:2,0:2:0:0:
437,205,7011,2,0,L|432:260,1,40,2|0,0:2|0:2,0:2:0:0:
377,313,7327,2,0,L|383:369,1,40,2|0,0:2|0:2,0:2:0:0:
296,323,7642,2,0,L|305:236,2,80,2|0|0,0:2|0:0|0:0,0:2:0:0:
296,323,8590,5,2,1:2:0:0:
82,156,8906,2,0,L|73:83,1,60.0000022888184,6|0,1:2|0:2,0:2:0:0:
186,142,9221,2,0,L|179:217,1,60.0000022888184,2|0,0:2|0:2,0:2:0:0:
290,148,9537,2,0,L|281:75,1,60.0000022888184,2|0,0:2|0:2,0:2:0:0:
394,134,9853,2,0,L|387:209,1,60.0000022888184,2|0,0:2|0:2,0:2:0:0:
333,305,10169,5,2,3:2:0:0:
280,229,10327,1,0,3:2:0:0:
380,227,10485,1,2,3:2:0:0:
340,317,10642,1,0,3:2:0:0:
268,216,10800,1,2,3:2:0:0:
388,215,10958,1,0,3:2:0:0:
243,311,11116,6,0,P|198:299|148:295,1,90.0000034332277,6|0,0:2|0:2,0:2:0:0:
115,302,11432,5,6,1:2:0:0:
60,204,11590,1,0,3:2:0:0:
60,204,11669,1,0,3:2:0:0:
60,204,11748,2,0,P|102:194|159:190,1,80,2|0,1:2|0:2,0:2:0:0:
228,102,12064,2,0,P|184:99|130:87,1,80,0|0,1:2|0:2,0:0:0:0:
226,190,12379,2,0,P|266:182|321:179,1,80,0|0,1:2|0:2,0:0:0:0:
426,207,12695,5,0,1:2:0:0:
358,107,12853,1,2,0:2:0:0:
395,232,13011,1,2,1:2:0:0:
434,99,13169,1,2,0:2:0:0:
373,242,13327,1,2,1:2:0:0:
489,165,13485,2,0,L|479:72,2,80,2|0|0,0:2|1:2|0:2,0:0:0:0:
501,302,13958,5,6,1:2:0:0:
396,364,14116,1,0,3:2:0:0:
396,364,14195,1,0,3:2:0:0:
396,364,14274,2,0,P|353:353|311:350,1,80,2|0,1:2|0:2,0:2:0:0:
212,284,14590,2,0,P|251:280|290:269,1,80,0|0,1:2|0:2,0:0:0:0:
362,166,14906,2,0,P|319:155|277:152,1,80,0|0,1:2|0:2,0:0:0:0:
170,204,15221,5,0,1:2:0:0:
215,84,15379,1,2,0:2:0:0:
192,214,15537,1,2,1:2:0:0:
173,75,15695,1,2,0:2:0:0:
156,229,15853,1,2,1:2:0:0:
93,101,16011,2,0,P|93:59|113:13,2,80,2|0|0,0:2|1:2|1:2,0:0:0:0:
156,229,16485,5,6,1:2:0:0:
258,317,16643,1,0,3:2:0:0:
258,317,16722,1,0,3:2:0:0:
258,317,16801,2,0,L|340:309,1,80,2|0,1:2|0:2,0:2:0:0:
421,215,17117,2,0,L|327:205,1,80,0|0,1:2|0:2,0:0:0:0:
270,104,17432,2,0,L|365:95,1,80,0|0,1:2|0:2,0:0:0:0:
471,106,17748,5,0,1:2:0:0:
396,7,17906,1,2,0:2:0:0:
447,127,18064,1,2,1:2:0:0:
491,0,18222,1,2,0:2:0:0:
369,92,18380,1,2,1:2:0:0:
493,155,18537,2,0,L|505:66,2,80,2|0|0,0:2|1:2|0:2,0:0:0:0:
415,273,19011,5,6,1:2:0:0:
306,239,19169,1,0,3:2:0:0:
306,239,19248,1,0,3:2:0:0:
306,239,19327,2,0,P|346:244|404:257,1,80,2|0,1:2|0:2,0:2:0:0:
496,323,19642,1,0,1:2:0:0:
426,192,19800,1,0,0:2:0:0:
415,346,19958,1,0,1:2:0:0:
512,231,20116,1,0,0:2:0:0:
313,158,20274,6,0,B|234:116|200:211|101:152,1,200,6|0,1:2|0:2,0:2:0:0:
226,5,20748,2,0,L|244:213,1,200,0|0,1:2|0:2,0:2:0:0:
254,373,21221,1,0,1:2:0:0:
254,373,21537,5,14,1:2:0:0:
131,301,21695,1,0,3:2:0:0:
131,301,21774,1,0,3:2:0:0:
131,301,21853,2,0,P|76:287|25:282,1,95.9999970703126,10|0,1:2|0:2,0:2:0:0:
157,186,22169,2,0,P|104:190|47:198,1,95.9999970703126,10|0,1:2|0:2,0:0:0:0:
188,99,22485,2,0,P|140:92|92:89,1,95.9999970703126,10|0,1:2|0:2,0:0:0:0:
222,20,22800,5,10,1:2:0:0:
269,156,22958,1,2,0:2:0:0:
312,43,23116,1,10,1:2:0:0:
265,182,23274,1,2,0:2:0:0:
188,99,23432,1,10,1:2:0:0:
351,125,23590,2,0,P|401:119|459:104,2,95.9999970703126,2|10|0,0:2|1:2|0:2,0:0:0:0:
414,265,24063,5,14,1:2:0:0:
271,276,24221,1,0,3:2:0:0:
271,276,24300,1,0,3:2:0:0:
271,276,24379,2,0,L|382:285,1,95.9999970703126,10|0,1:2|0:2,0:2:0:0:
220,350,24695,2,0,L|115:358,1,95.9999970703126,10|0,1:2|0:2,0:0:0:0:
27,242,25011,2,0,L|134:251,1,95.9999970703126,10|0,1:2|0:2,0:0:0:0:
199,122,25327,5,10,1:2:0:0:
150,259,25485,1,2,0:2:0:0:
122,142,25642,1,10,1:2:0:0:
194,273,25800,1,2,0:2:0:0:
261,181,25958,1,10,1:2:0:0:
112,108,26116,2,0,P|59:97|-3:97,1,95.9999970703126,2|10,0:2|1:2,0:0:0:0:
110,264,26432,1,8,1:2:0:0:
261,181,26590,5,14,1:2:0:0:
213,42,26748,1,0,3:2:0:0:
213,42,26827,1,0,3:2:0:0:
213,42,26906,2,0,L|198:157,1,95.9999970703126,10|0,1:2|0:2,0:2:0:0:
311,28,27222,2,0,L|321:132,1,95.9999970703126,10|0,1:2|0:2,0:0:0:0:
435,23,27537,2,0,L|425:118,1,95.9999970703126,10|0,1:2|0:2,0:0:0:0:
391,263,27853,5,10,1:2:0:0:
291,155,28011,1,2,0:2:0:0:
311,275,28169,1,10,1:2:0:0:
387,146,28327,1,2,0:2:0:0:
318,239,28485,1,10,1:2:0:0:
417,290,28643,2,0,P|467:282|522:279,2,95.9999970703126,2|10|0,0:2|1:2|0:2,0:0:0:0:
253,363,29116,5,14,1:2:0:0:
125,255,29274,1,0,3:2:0:0:
125,255,29353,1,0,3:2:0:0:
125,255,29432,2,0,P|134:317|138:371,1,111.999996582031,10|0,1:2|0:2,0:2:0:0:
278,259,29748,1,10,1:2:0:0:
117,172,29906,1,0,0:2:0:0:
211,301,30064,1,10,1:2:0:0:
183,129,30221,1,0,0:2:0:0:
326,155,30379,6,0,P|260:92|158:126,1,200,14|0,1:2|0:2,0:2:0:0:
38,213,30853,2,0,L|22:-1,1,200,8|0,1:2|0:2,0:2:0:0:
171,29,31327,2,0,L|163:127,1,90.0000034332277,8|0,1:2|0:2,0:2:0:0:
154,196,31642,5,2,1:2:0:0:
