osu file format v14

[General]
AudioFilename: audio.mp3
AudioLeadIn: 0
PreviewTime:21142
Countdown: 0
SampleSet: Soft
StackLeniency: 0.7
Mode: 0
LetterboxInBreaks: 0
WidescreenStoryboard: 1

[Editor]
DistanceSpacing: 0.2
BeatDivisor: 4
GridSize: 16
TimelineZoom: 1.6

[Metadata]
Title:PADORU / PADORU
TitleUnicode:PADORU / PADORU
Artist:Turbo
ArtistUnicode:Turbo
Creator:Sotarks
Version:Reform's Expert
Source:Fate/EXTRA
Tags:TurboAutism eurobeats nero claudius christmas xmas remix edit Hashire sori yo Kaze no you ni Tsukimihara wo armin a_r_m_i_n agatsu akitoshi corinn -laura- kowari fieryrage ggf gottagof4st stack kyuukai yaleufeu lasse milan- nao tomori naotoshi nevo realazy reform kujinn shardex shunao shogunmoon smokelind toybot doormat kiyoshi guarden nymphe fatfan kolek haruto haruto_aizawa japanese anime electronic video game jingle bells
BeatmapID:2245783
BeatmapSetID:1073074

[Difficulty]
HPDrainRate:5.5
CircleSize:3.5
OverallDifficulty:9
ApproachRate:9
SliderMultiplier:1.72
SliderTickRate:1

[Events]
//Background and Video events
0,0,"bg.jpg",0,0
//Break Periods
//Storyboard Layer 0 (Background)
//Storyboard Layer 1 (Fail)
//Storyboard Layer 2 (Pass)
//Storyboard Layer 3 (Foreground)
//Storyboard Layer 4 (Overlay)
//Storyboard Sound Samples

[TimingPoints]
64,315.789473684211,4,2,22,62,1,0
1327,-138.888888888889,4,2,22,72,0,0
1485,-138.888888888889,4,2,22,32,0,0
1642,-138.888888888889,4,2,22,72,0,0
1800,-138.888888888889,4,2,22,32,0,0
1958,-138.888888888889,4,2,22,72,0,0
2116,-138.888888888889,4,2,22,32,0,0
2274,-138.888888888889,4,2,22,72,0,0
2432,-138.888888888889,4,2,22,32,0,0
2590,-833.333333333333,4,2,22,72,0,0
3458,-833.333333333333,4,2,22,5,0,0
3537,-75.7575757575758,4,2,22,72,0,0
3774,-833.333333333333,4,2,22,5,0,0
3853,-138.888888888889,4,2,22,72,0,0
4011,-138.888888888889,4,2,22,32,0,0
4169,-138.888888888889,4,2,22,72,0,0
4327,-138.888888888889,4,2,22,32,0,0
4485,-138.888888888889,4,2,22,72,0,0
4643,-138.888888888889,4,2,22,32,0,0
4800,-138.888888888889,4,2,22,72,0,0
4958,-138.888888888889,4,2,22,32,0,0
5116,-833.333333333333,4,2,22,72,0,0
5669,-833.333333333333,4,2,22,5,0,0
5748,-121.951219512195,4,2,22,72,0,0
5985,-833.333333333333,4,2,22,5,0,0
6064,-833.333333333333,4,2,22,72,0,0
6300,-833.333333333333,4,2,22,5,0,0
6379,-138.888888888889,4,2,22,72,0,0
6537,-138.888888888889,4,2,22,32,0,0
6695,-138.888888888889,4,2,22,72,0,0
6853,-138.888888888889,4,2,22,32,0,0
7011,-138.888888888889,4,2,22,72,0,0
7169,-138.888888888889,4,2,22,32,0,0
7326,-138.888888888889,4,2,22,72,0,0
7484,-138.888888888889,4,2,22,32,0,0
7642,-833.333333333333,4,2,22,72,0,0
8511,-833.333333333333,4,2,22,5,0,0
8590,-75.7575757575758,4,2,22,72,0,0
8827,-833.333333333333,4,2,22,5,0,0
8906,-138.888888888889,4,2,22,72,0,0
9064,-138.888888888889,4,2,22,32,0,0
9222,-138.888888888889,4,2,22,72,0,0
9380,-138.888888888889,4,2,22,32,0,0
9538,-138.888888888889,4,2,22,72,0,0
9696,-138.888888888889,4,2,22,32,0,0
9853,-138.888888888889,4,2,22,72,0,0
10011,-138.888888888889,4,2,22,32,0,0
10169,-138.888888888889,4,2,22,72,0,0
11116,-81.9672131147541,4,2,22,72,0,0
11353,-833.333333333333,4,2,22,5,0,0
11432,-98.0392156862745,4,2,22,82,0,0
21458,-98.0392156862745,4,2,22,5,0,0
21537,-89.2857142857143,4,2,22,92,0,1
30379,-89.2857142857143,4,2,22,92,0,0
30458,-89.2857142857143,4,2,22,82,0,0
31564,-833.333333333333,4,2,22,5,0,0
31642,-833.333333333333,4,2,22,82,0,0

[Colours]
Combo1 : 199,215,222
Combo2 : 139,152,201
Combo3 : 92,109,175

[HitObjects]
69,110,1011,5,8,0:2:0:0:
69,110,1327,2,0,P|79:71|166:61,2,123.840003023438,6|2|2,1:2|0:2|0:2,0:2:0:0:
183,180,2274,1,2,0:2:0:0:
278,66,2590,6,0,P|308:71|339:82,1,61.9200015117188,2|2,0:2|1:2,0:2:0:0:
428,195,3853,6,0,B|417:242|417:242|428:269|428:269|411:335,2,123.840003023438,6|2|2,1:2|0:2|0:2,0:2:0:0:
459,72,4800,1,2,0:2:0:0:
348,172,5116,6,0,P|328:176|309:179,1,36.120000881836,2|0,0:2|0:2,0:2:0:0:
252,222,5748,6,0,P|203:206|151:193,1,105.780001614075,2|0,1:2|0:2,0:2:0:0:
112,185,6064,1,2,0:2:0:0:
327,354,6379,6,0,P|384:347|458:328,1,123.840003023438,6|2,1:2|0:2,0:2:0:0:
459,113,7011,2,0,P|398:97|337:90,1,123.840003023438,2|2,0:2|0:2,0:2:0:0:
89,259,7642,2,0,P|126:257|153:251,1,61.9200015117188,2|2,0:2|1:2,0:2:0:0:
215,50,8906,6,0,P|234:110|247:192,1,123.840003023438,6|2,1:2|0:2,0:2:0:0:
402,347,9537,2,0,P|420:288|431:227,1,123.840003023438,2|2,0:2|0:2,0:2:0:0:
364,49,10169,1,2,3:2:0:0:
364,49,10327,1,0,3:2:0:0:
421,140,10485,1,2,3:2:0:0:
421,140,10642,1,0,3:2:0:0:
309,132,10800,1,2,3:2:0:0:
309,132,10958,1,0,3:2:0:0:
492,82,11116,6,0,P|468:132|477:262,1,157.379993516144,6|0,0:2|0:2,0:2:0:0:
487,338,11432,5,6,1:2:0:0:
349,228,11590,1,0,3:2:0:0:
349,228,11669,1,0,3:2:0:0:
349,228,11748,2,0,P|298:231|264:279,1,87.7200005354004,2|0,1:2|0:2,0:2:0:0:
366,360,12064,1,0,1:2:0:0:
152,322,12221,2,0,P|132:276|146:223,1,87.7200005354004,0|0,0:2|1:2,0:0:0:0:
281,96,12537,2,0,P|301:142|287:195,1,87.7200005354004,0|0,0:2|1:2,0:0:0:0:
83,110,12853,5,2,0:2:0:0:
248,15,13011,1,2,1:2:0:0:
152,218,13169,1,2,0:2:0:0:
68,12,13327,1,2,1:2:0:0:
256,116,13485,1,2,0:2:0:0:
7,223,13642,2,0,P|-9:177|7:125,1,87.7200005354004,0|0,1:2|0:2,0:2:0:0:
126,67,13958,5,6,1:2:0:0:
214,237,14116,1,0,3:2:0:0:
214,237,14195,1,0,3:2:0:0:
214,237,14274,2,0,P|266:252|311:259,1,87.7200005354004,2|0,1:2|0:2,0:2:0:0:
201,102,14590,1,0,1:2:0:0:
88,262,14748,2,0,P|36:277|-9:284,1,87.7200005354004,0|0,0:2|1:2,0:0:0:0:
217,349,15064,2,0,P|260:356|302:369,1,87.7200005354004,0|0,0:2|1:2,0:0:0:0:
65,168,15379,5,2,0:2:0:0:
268,238,15537,1,2,1:2:0:0:
83,348,15695,1,2,0:2:0:0:
157,134,15853,1,2,1:2:0:0:
253,320,16011,1,2,0:2:0:0:
28,254,16169,2,0,P|10:204|24:145,1,87.7200005354004,0|0,1:2|1:2,0:0:0:0:
166,30,16485,5,6,1:2:0:0:
278,241,16642,1,0,3:2:0:0:
278,241,16721,1,0,3:2:0:0:
278,241,16800,2,0,P|288:181|295:118,1,87.7200005354004,2|0,1:2|0:2,0:2:0:0:
153,186,17116,1,0,1:2:0:0:
382,25,17274,2,0,P|392:85|399:148,1,87.7200005354004,0|0,0:2|1:2,0:0:0:0:
182,292,17590,2,0,P|172:232|165:169,1,87.7200005354004,0|0,0:2|1:2,0:0:0:0:
375,239,17906,5,2,0:2:0:0:
165,63,18064,1,2,1:2:0:0:
432,118,18221,1,2,0:2:0:0:
215,255,18379,1,2,1:2:0:0:
282,27,18537,1,2,0:2:0:0:
393,248,18695,1,0,1:2:0:0:
132,163,18853,1,0,0:2:0:0:
372,91,19011,5,6,1:2:0:0:
256,313,19169,1,0,3:2:0:0:
256,313,19248,1,0,3:2:0:0:
256,313,19327,2,0,P|208:328|146:333,1,87.7200005354004,2|0,1:2|0:2,0:2:0:0:
389,206,19642,2,0,P|432:212|474:225,1,87.7200005354004,0|0,1:2|0:2,0:0:0:0:
185,164,19958,2,0,P|173:115|182:56,1,87.7200005354004,0|0,1:2|0:2,0:0:0:0:
356,30,20274,5,6,1:2:0:0:
86,176,20748,5,0,1:2:0:0:
403,355,21064,5,0,0:2:0:0:
406,266,21221,2,0,P|362:268|316:357,1,131.580000803101,0|0,1:2|0:0,0:0:0:0:
307,374,21537,5,14,1:2:0:0:
169,219,21695,1,0,3:2:0:0:
169,219,21774,1,0,3:2:0:0:
169,219,21853,2,0,P|116:211|59:202,1,96.3200011757813,10|0,1:2|0:2,0:2:0:0:
237,77,22169,1,10,1:2:0:0:
317,238,22327,1,0,0:2:0:0:
125,129,22485,2,0,P|116:70|137:22,1,96.3200011757813,10|0,1:2|0:2,0:0:0:0:
337,120,22800,5,10,1:2:0:0:
221,273,22958,1,2,0:2:0:0:
267,50,23116,1,10,1:2:0:0:
421,244,23274,1,2,0:2:0:0:
386,15,23432,1,10,1:2:0:0:
300,213,23590,1,2,0:2:0:0:
187,32,23748,2,0,P|137:15|71:18,1,96.3200011757813,10|0,1:2|0:2,0:2:0:0:
152,242,24064,5,14,1:2:0:0:
305,94,24221,1,0,3:2:0:0:
305,94,24300,1,0,3:2:0:0:
305,94,24379,2,0,P|355:77|421:80,1,96.3200011757813,10|0,1:2|0:2,0:2:0:0:
283,319,24695,1,10,1:2:0:0:
179,146,24853,1,0,0:2:0:0:
425,253,25011,2,0,P|416:305|405:366,1,96.3200011757813,10|0,1:2|0:2,0:0:0:0:
161,226,25327,5,10,1:2:0:0:
408,170,25485,1,2,0:2:0:0:
182,313,25642,1,10,1:2:0:0:
221,70,25800,1,2,0:2:0:0:
338,307,25958,1,10,1:2:0:0:
77,196,26116,1,2,0:2:0:0:
322,124,26274,1,10,1:2:0:0:
224,345,26432,1,0,1:2:0:0:
123,89,26590,5,14,1:2:0:0:
280,269,26748,1,0,3:2:0:0:
280,269,26827,1,0,3:2:0:0:
280,269,26906,2,0,P|346:255|409:244,1,96.3200011757813,10|0,1:2|0:2,0:2:0:0:
224,42,27221,1,10,1:2:0:0:
130,243,27379,1,0,0:2:0:0:
379,130,27537,2,0,P|389:64|398:6,1,96.3200011757813,10|0,1:2|0:2,0:0:0:0:
95,147,27853,5,10,1:2:0:0:
380,266,28011,1,2,0:2:0:0:
102,364,28169,1,10,1:2:0:0:
317,159,28327,1,2,0:2:0:0:
213,361,28485,1,10,1:2:0:0:
136,54,28642,1,2,0:2:0:0:
419,205,28800,1,10,1:2:0:0:
96,279,28958,1,0,0:2:0:0:
361,53,29116,5,14,1:2:0:0:
269,369,29274,1,0,3:2:0:0:
269,369,29353,1,0,3:2:0:0:
269,369,29432,2,0,P|213:359|159:344,1,96.3200011757813,10|0,1:2|0:2,0:2:0:0:
42,76,29748,2,0,P|98:61|152:51,1,96.3200011757813,10|0,1:2|0:2,0:0:0:0:
395,324,30064,1,10,1:2:0:0:
103,208,30221,1,0,0:2:0:0:
363,32,30379,6,0,P|340:100|332:246,1,192.640002351563,14|0,1:2|0:2,0:2:0:0:
395,324,30853,2,0,B|281:312|356:244|202:230,1,192.640002351563,8|0,1:2|0:2,0:2:0:0:
74,367,31327,2,0,P|82:292|92:190,1,144.480001763672,8|0,1:2|0:2,0:2:0:0:
94,169,31642,5,2,1:2:0:0:
