osu file format v14

[General]
AudioFilename: audio.mp3
AudioLeadIn: 0
PreviewTime:21142
Countdown: 0
SampleSet: Soft
StackLeniency: 0.3
Mode: 0
LetterboxInBreaks: 0
WidescreenStoryboard: 1

[Editor]
DistanceSpacing: 0.2
BeatDivisor: 4
GridSize: 16
TimelineZoom: 1.6

[Metadata]
Title:PADORU / PADORU
TitleUnicode:PADORU / PADORU
Artist:Turbo
ArtistUnicode:Turbo
Creator:Sotarks
Version:Nevo's Expert
Source:Fate/EXTRA
Tags:TurboAutism eurobeats nero claudius christmas xmas remix edit Hashire sori yo Kaze no you ni Tsukimihara wo armin a_r_m_i_n agatsu akitoshi corinn -laura- kowari fieryrage ggf gottagof4st stack kyuukai yaleufeu lasse milan- nao tomori naotoshi nevo realazy reform kujinn shardex shunao shogunmoon smokelind toybot doormat kiyoshi guarden nymphe fatfan kolek haruto haruto_aizawa japanese anime electronic video game jingle bells
BeatmapID:2245781
BeatmapSetID:1073074

[Difficulty]
HPDrainRate:6
CircleSize:4
OverallDifficulty:9
ApproachRate:9.3
SliderMultiplier:2
SliderTickRate:1

[Events]
//Background and Video events
0,0,"bg.jpg",0,0
//Break Periods
//Storyboard Layer 0 (Background)
//Storyboard Layer 1 (Fail)
//Storyboard Layer 2 (Pass)
//Storyboard Layer 3 (Foreground)
//Storyboard Layer 4 (Overlay)
//Storyboard Sound Samples

[TimingPoints]
64,315.789473684211,4,2,22,62,1,0
1327,-100,4,2,22,72,0,0
1485,-100,4,2,22,32,0,0
1642,-100,4,2,22,72,0,0
1800,-100,4,2,22,32,0,0
1958,-100,4,2,22,72,0,0
2116,-100,4,2,22,32,0,0
2274,-100,4,2,22,72,0,0
2432,-100,4,2,22,32,0,0
2590,-200,4,2,22,72,0,0
3458,-200,4,2,22,5,0,0
3537,-100,4,2,22,72,0,0
3774,-100,4,2,22,5,0,0
3853,-100,4,2,22,72,0,0
4011,-100,4,2,22,32,0,0
4169,-100,4,2,22,72,0,0
4327,-100,4,2,22,32,0,0
4485,-100,4,2,22,72,0,0
4643,-100,4,2,22,32,0,0
4800,-100,4,2,22,72,0,0
4958,-100,4,2,22,32,0,0
5116,-222.222222222221,4,2,22,72,0,0
5669,-222.222222222221,4,2,22,5,0,0
5748,-133.333333333333,4,2,22,72,0,0
5985,-133.333333333333,4,2,22,5,0,0
6064,-285.714285714284,4,2,22,72,0,0
6300,-285.714285714284,4,2,22,5,0,0
6379,-100,4,2,22,72,0,0
6537,-100,4,2,22,32,0,0
6695,-100,4,2,22,72,0,0
6853,-100,4,2,22,32,0,0
7011,-100,4,2,22,72,0,0
7169,-100,4,2,22,32,0,0
7326,-100,4,2,22,72,0,0
7484,-100,4,2,22,32,0,0
7642,-200,4,2,22,72,0,0
8511,-200,4,2,22,5,0,0
8590,-100,4,2,22,72,0,0
8827,-100,4,2,22,5,0,0
8906,-100,4,2,22,72,0,0
9064,-100,4,2,22,32,0,0
9222,-100,4,2,22,72,0,0
9378,-100,4,2,22,32,0,0
9380,-100,4,2,22,32,0,0
9538,-100,4,2,22,72,0,0
9694,-100,4,2,22,32,0,0
9696,-100,4,2,22,32,0,0
9853,-100,4,2,22,72,0,0
10011,-100,4,2,22,32,0,0
10169,-100,4,2,22,72,0,0
11353,-100,4,2,22,5,0,0
11432,-100,4,2,22,82,0,0
21537,-100,4,2,22,92,0,0
30458,-100,4,2,22,82,0,0
31327,-166.666666666667,4,2,22,82,0,0
31564,-166.666666666667,4,2,22,5,0,0
31642,-166.666666666667,4,2,22,82,0,0

[Colours]
Combo1 : 199,215,222
Combo2 : 139,152,201
Combo3 : 92,109,175

[HitObjects]
256,113,1011,6,0,L|256:148,1,33.3333333333333,8|0,0:2|0:0,0:0:0:0:
330,336,1327,6,0,P|406:324|319:283,1,200,6|2,1:2|0:2,0:2:0:0:
182,336,1958,2,0,B|74:353|74:353|25:317,1,150,2|0,0:2|0:0,0:2:0:0:
98,251,2274,2,0,B|206:234|206:234|255:270,1,150,2|0,0:2|0:0,0:2:0:0:
282,171,2590,2,0,B|230:137|230:137|58:165,1,200,2|0,0:2|0:0,0:2:0:0:
387,44,3537,2,0,L|406:156,1,100,2|0,1:2|0:0,0:2:0:0:
420,308,3853,6,0,L|440:95,1,200,6|2,1:2|0:2,0:2:0:0:
121,189,4485,2,0,P|57:159|118:143,1,150,2|0,0:2|0:0,0:2:0:0:
248,132,4800,2,0,P|284:182|222:189,1,150,2|0,0:2|0:0,0:2:0:0:
149,77,5116,6,0,P|154:29|178:81,1,134.999995880127,2|0,0:2|0:0,0:2:0:0:
422,64,5748,2,0,B|399:38|399:38|292:58,1,112.500004291535,2|0,1:2|0:2,0:2:0:0:
311,137,6064,2,0,L|372:124,1,52.4999983978272,2|0,0:2|0:2,0:2:0:0:
300,149,6379,6,0,L|191:175,1,100,6|0,1:2|0:2,0:2:0:0:
356,217,6695,2,0,L|247:243,1,100,2|0,0:2|0:2,0:2:0:0:
404,292,7011,2,0,L|295:318,1,100,2|0,0:2|0:2,0:2:0:0:
300,149,7327,2,0,L|191:175,1,100,2|0,0:2|0:2,0:2:0:0:
36,299,7642,6,0,P|92:255|186:332,1,200,2|0,0:2|0:0,0:2:0:0:
15,211,8590,2,0,L|21:102,1,100,2|0,1:2|0:0,0:2:0:0:
174,16,8906,6,0,P|163:66|119:131,1,100,6|0,1:2|0:2,0:2:0:0:
323,72,9221,2,0,P|279:99|202:114,1,100,2|0,0:2|0:2,0:2:0:0:
405,220,9537,2,0,P|355:209|290:165,1,100,2|0,0:2|0:2,0:2:0:0:
339,371,9853,2,0,P|311:327|296:250,1,100,2|0,0:2|0:2,0:2:0:0:
404,113,10169,5,2,3:2:0:0:
256,192,10248,12,6,11116,0:2:0:0:
58,156,11432,5,6,1:2:0:0:
261,205,11590,1,0,3:2:0:0:
253,235,11669,1,0,3:2:0:0:
243,268,11748,1,2,1:2:0:0:
462,63,12064,5,0,1:2:0:0:
250,109,12221,1,0,0:2:0:0:
300,357,12379,1,0,1:2:0:0:
512,311,12537,1,0,0:2:0:0:
394,159,12695,6,0,B|362:206|362:206|374:275,1,100,0|2,1:2|0:2,0:0:0:0:
193,106,13011,2,0,B|249:110|249:110|303:65,1,100,2|2,1:2|0:2,0:0:0:0:
248,307,13327,2,0,B|223:255|223:255|157:231,1,100,2|2,1:2|0:2,0:0:0:0:
58,232,13642,1,0,1:2:0:0:
58,232,13800,1,0,0:2:0:0:
224,22,13958,5,6,1:2:0:0:
21,71,14116,1,0,3:2:0:0:
29,101,14195,1,0,3:2:0:0:
39,134,14274,1,2,1:2:0:0:
322,223,14590,5,0,1:2:0:0:
193,106,14748,1,0,0:2:0:0:
125,262,14906,1,0,1:2:0:0:
252,372,15064,1,0,0:2:0:0:
389,146,15221,6,0,P|339:125|287:125,1,100,0|2,1:2|0:2,0:0:0:0:
84,194,15537,1,2,1:2:0:0:
44,122,15695,1,2,0:2:0:0:
269,290,15853,1,2,1:2:0:0:
322,223,16011,1,2,0:2:0:0:
82,348,16169,1,0,1:2:0:0:
12,297,16327,1,0,1:2:0:0:
202,141,16485,5,6,1:2:0:0:
354,320,16642,1,0,3:2:0:0:
393,305,16721,1,0,3:2:0:0:
431,292,16800,1,2,1:2:0:0:
366,44,17116,5,0,1:2:0:0:
304,220,17274,1,0,0:2:0:0:
146,44,17432,1,0,1:2:0:0:
208,220,17590,1,0,0:2:0:0:
414,165,17748,5,0,1:2:0:0:
257,92,17906,1,2,0:2:0:0:
98,165,18064,1,2,1:2:0:0:
255,50,18221,1,2,0:2:0:0:
430,142,18379,2,0,L|415:252,1,100,2|2,1:2|0:2,0:0:0:0:
82,142,18695,2,0,L|97:252,1,100,0|0,1:2|0:2,0:2:0:0:
256,358,19011,5,6,1:2:0:0:
302,209,19169,1,0,3:2:0:0:
256,193,19248,1,0,3:2:0:0:
210,209,19327,1,2,1:2:0:0:
420,352,19642,6,0,P|438:286|414:250,1,100,0|0,1:2|0:2,0:0:0:0:
92,352,19958,2,0,P|74:286|98:250,1,100,0|0,1:2|0:2,0:0:0:0:
381,95,20274,5,6,1:2:0:0:
87,50,20590,5,0,0:2:0:0:
392,111,20748,1,0,1:2:0:0:
71,182,21064,5,0,0:2:0:0:
401,248,21221,1,0,1:2:0:0:
74,315,21379,1,0,0:0:0:0:
281,121,21537,6,0,B|295:71|295:71|234:92,1,100,14|0,1:2|3:2,0:0:0:0:
184,137,21774,1,0,3:2:0:0:
210,214,21853,2,0,B|246:251|246:251|258:187,1,100,10|0,1:2|0:2,0:2:0:0:
345,340,22169,2,0,B|308:308|308:308|359:295,1,100,10|0,1:2|0:2,0:0:0:0:
163,350,22485,2,0,B|208:334|208:334|194:384,1,100,10|0,1:2|0:2,0:0:0:0:
3,274,22800,5,10,1:2:0:0:
180,87,22958,1,2,0:2:0:0:
149,267,23116,1,10,1:2:0:0:
78,231,23274,1,2,0:2:0:0:
298,97,23432,1,10,1:2:0:0:
339,351,23590,1,2,0:2:0:0:
154,176,23748,2,0,L|267:165,1,100,10|0,1:2|0:2,0:2:0:0:
424,304,24064,6,0,B|383:267|383:267|417:229,1,100,14|0,1:2|3:2,0:0:0:0:
460,167,24300,1,0,3:2:0:0:
507,98,24379,2,0,B|536:64|536:64|495:27,1,100,10|0,1:2|0:2,0:2:0:0:
312,89,24695,2,0,P|372:97|417:84,1,100,10|0,1:2|0:2,0:0:0:0:
200,89,25011,2,0,P|140:97|95:84,1,100,10|0,1:2|0:2,0:0:0:0:
256,166,25327,6,0,L|256:250,1,50,10|0,1:2|0:0,0:0:0:0:
255,349,25485,1,2,0:2:0:0:
165,171,25642,1,10,1:2:0:0:
85,256,25800,1,2,0:2:0:0:
347,171,25958,1,10,1:2:0:0:
427,256,26116,1,2,0:2:0:0:
77,376,26274,1,10,1:2:0:0:
435,376,26432,1,0,1:2:0:0:
34,187,26590,6,0,B|-4:225|-4:225|11:280,1,100,14|0,1:2|3:2,0:0:0:0:
143,319,26827,1,0,3:2:0:0:
143,319,26906,2,0,B|129:267|129:267|73:252,1,100,10|0,1:2|0:2,0:2:0:0:
256,204,27221,2,0,B|218:241|218:241|233:297,1,100,10|0,1:2|0:2,0:0:0:0:
100,163,27537,2,0,B|151:176|151:176|192:136,1,100,10|0,1:2|0:2,0:0:0:0:
200,13,27853,5,10,1:2:0:0:
121,70,28011,1,2,0:2:0:0:
388,190,28169,1,10,1:2:0:0:
378,93,28327,1,2,0:2:0:0:
140,264,28484,1,10,1:2:0:0:
229,304,28642,1,2,0:2:0:0:
127,167,28800,2,0,P|65:171|28:183,1,100,10|0,1:2|0:2,0:0:0:0:
318,265,29116,6,0,P|380:261|417:249,1,100,14|0,1:2|3:2,0:0:0:0:
485,197,29353,1,0,3:2:0:0:
403,161,29432,2,0,P|353:159|305:145,1,100,10|0,1:2|0:2,0:2:0:0:
489,22,29748,2,0,B|509:70|509:70|478:122,1,100,10|0,1:2|0:2,0:0:0:0:
240,87,30064,2,0,B|227:41|227:41|259:0,1,100,10|0,1:2|0:2,0:0:0:0:
335,249,30379,5,14,1:2:0:0:
68,294,30695,5,0,0:2:0:0:
353,263,30853,1,8,1:2:0:0:
107,133,31169,5,0,0:2:0:0:
442,173,31327,2,0,B|460:122|460:122|408:121,1,89.9999972534181,8|0,1:2|0:2,0:2:0:0:
352,173,31642,5,2,1:2:0:0:
