osu file format v14

[General]
AudioFilename: audio.mp3
AudioLeadIn: 0
PreviewTime:21142
Countdown: 0
SampleSet: Soft
StackLeniency: 0.7
Mode: 0
LetterboxInBreaks: 0
WidescreenStoryboard: 1

[Editor]
DistanceSpacing: 0.5
BeatDivisor: 4
GridSize: 32
TimelineZoom: 1.7

[Metadata]
Title:PADORU / PADORU
TitleUnicode:PADORU / PADORU
Artist:Turbo
ArtistUnicode:Turbo
Creator:Sotarks
Version:Milan-'s Expert
Source:Fate/EXTRA
Tags:TurboAutism eurobeats nero claudius christmas xmas remix edit Hashire sori yo Kaze no you ni Tsukimihara wo armin a_r_m_i_n agatsu akitoshi corinn -laura- kowari fieryrage ggf gottagof4st stack kyuukai yaleufeu lasse milan- nao tomori naotoshi nevo realazy reform kujinn shardex shunao shogunmoon smokelind toybot doormat kiyoshi guarden nymphe fatfan kolek haruto haruto_aizawa japanese anime electronic video game jingle bells
BeatmapID:2245779
BeatmapSetID:1073074

[Difficulty]
HPDrainRate:7
CircleSize:4.5
OverallDifficulty:8.7
ApproachRate:9
SliderMultiplier:3
SliderTickRate:1

[Events]
//Background and Video events
0,0,"bg.jpg",0,0
//Break Periods
//Storyboard Layer 0 (Background)
//Storyboard Layer 1 (Fail)
//Storyboard Layer 2 (Pass)
//Storyboard Layer 3 (Foreground)
//Storyboard Layer 4 (Overlay)
//Storyboard Sound Samples

[TimingPoints]
64,315.789473684211,4,2,0,55,1,0
1321,-166.666666666667,4,2,0,55,0,0
3531,-66.6666666666667,4,2,0,55,0,0
3631,-166.666666666667,4,2,0,55,0,0
5742,-66.6666666666667,4,2,0,55,0,0
6373,-166.666666666667,4,2,0,55,0,0
7998,-166.666666666667,4,2,0,10,0,0
8274,-166.666666666667,4,2,0,55,0,0
8314,-166.666666666667,4,2,0,10,0,0
8584,-66.6666666666667,4,2,0,55,0,0
8900,-100,4,2,0,55,0,0
11110,-100,4,2,0,60,0,0
11432,-100,4,2,0,65,0,0
21531,-66.6666666666667,4,2,0,70,0,0
22163,-100,4,2,0,70,0,0
22952,-50,4,2,0,70,0,0
24689,-66.6666666666667,4,2,0,70,0,0
25321,-50,4,2,0,70,0,0
27215,-66.6666666666667,4,2,0,70,0,0
28005,-50,4,2,0,70,0,0
31321,-66.6666666666667,4,2,0,70,0,0

[Colours]
Combo1 : 199,215,222
Combo2 : 139,152,201
Combo3 : 92,109,175

[HitObjects]
449,44,1327,6,0,P|364:62|312:146,4,179.999994506836,4|2|2|2|2,0:0|0:0|0:0|0:0|0:0,0:0:0:0:
9,28,3537,6,0,L|68:396,1,337.500012874604,4|0,0:0|0:0,0:0:0:0:
68,360,3853,2,0,P|152:342|205:258,4,179.999994506836,4|2|2|2|2,0:0|0:0|0:0|0:0|0:0,0:0:0:0:
354,134,5748,6,0,P|466:31|364:143,1,450.000017166138,4|0,0:0|0:0,0:0:0:0:
152,112,6379,2,0,P|189:73|163:111,4,179.999994506836,4|2|2|2|2,0:0|0:0|0:0|0:0|0:0,0:0:0:0:
481,0,7958,2,0,L|474:35,1,22.4999993133545,2|0,0:0|0:0,0:0:0:0:
481,0,8274,2,0,L|474:35,1,22.4999993133545,2|0,0:0|0:0,0:0:0:0:
481,0,8590,6,0,L|410:372,1,337.500012874604,4|0,0:0|0:0,0:0:0:0:
422,336,8906,6,0,B|348:292|344:182|344:182|387:173|435:238|382:293,1,300,4|2,0:0|0:0,0:0:0:0:
150,277,9537,2,0,B|76:233|72:123|72:123|115:114|163:179|110:234,1,300,2|2,0:0|0:0,0:0:0:0:
306,343,10169,2,0,B|247:97|247:97|397:73|474:120|516:281|469:380|400:397|351:377|351:377|259:343|194:366,1,900,2|2,0:0|0:3,0:0:0:0:
235,373,11195,1,2,0:3:0:0:
235,373,11274,1,2,0:3:0:0:
235,373,11353,1,2,0:3:0:0:
235,373,11432,6,0,L|191:201,1,150,4|0,0:0|0:0,0:0:0:0:
37,254,11669,1,0,0:0:0:0:
37,254,11748,2,0,L|-7:82,1,150,2|0,1:0|0:0,0:0:0:0:
197,227,12064,5,2,1:0:0:0:
235,373,12221,1,0,0:0:0:0:
197,227,12379,1,2,1:0:0:0:
235,373,12536,1,0,0:0:0:0:
157,83,12695,5,2,1:0:0:0:
221,121,12853,1,2,0:2:0:0:
296,122,13011,1,0,1:0:0:0:
368,102,13169,1,2,0:0:0:0:
368,102,13327,5,0,1:0:0:0:
330,166,13485,1,2,0:2:0:0:
329,241,13643,1,0,1:0:0:0:
349,313,13801,1,2,0:0:0:0:
0,346,13958,6,0,L|37:200,1,150,4|0,0:0|0:0,0:0:0:0:
198,227,14195,1,0,0:0:0:0:
198,227,14274,2,0,L|235:81,1,150,2|0,1:0|0:0,0:0:0:0:
37,200,14590,5,2,1:0:0:0:
0,346,14747,1,0,0:0:0:0:
37,200,14905,1,2,1:0:0:0:
0,346,15064,1,0,0:0:0:0:
75,46,15221,5,2,1:0:0:0:
141,80,15379,1,2,0:2:0:0:
203,38,15537,1,0,1:0:0:0:
269,72,15695,1,2,0:2:0:0:
463,46,15853,5,0,1:0:0:0:
397,80,16011,1,2,0:2:0:0:
335,38,16169,1,0,1:0:0:0:
269,72,16327,1,2,0:2:0:0:
235,373,16485,6,0,L|191:201,1,150,4|0,0:0|0:0,0:0:0:0:
37,254,16722,1,0,0:0:0:0:
37,254,16801,2,0,L|-7:82,1,150,2|0,1:0|0:0,0:0:0:0:
197,227,17116,5,2,1:0:0:0:
235,373,17274,1,0,0:0:0:0:
197,227,17432,1,2,1:0:0:0:
235,373,17589,1,0,0:0:0:0:
157,83,17748,5,2,1:0:0:0:
220,43,17906,1,2,0:0:0:0:
289,74,18064,1,0,1:0:0:0:
280,148,18221,1,2,0:0:0:0:
410,239,18379,5,0,1:0:0:0:
347,197,18537,1,2,0:0:0:0:
278,230,18695,1,0,1:0:0:0:
287,304,18852,1,2,0:0:0:0:
0,346,19011,6,0,L|37:200,1,150,4|0,0:0|0:0,0:0:0:0:
198,227,19248,1,0,0:0:0:0:
198,227,19327,2,0,L|235:81,1,150,2|0,1:0|0:0,0:0:0:0:
37,200,19643,5,2,1:0:0:0:
0,346,19958,1,2,1:0:0:0:
75,46,20274,5,2,1:0:0:0:
353,37,20748,5,2,1:3:0:0:
353,37,21064,1,2,0:3:0:0:
75,46,21221,1,2,1:3:0:0:
75,46,21537,6,0,B|65:35|28:29|28:29|133:-5|253:101,1,225.000008583069,4|2,0:0|0:3,0:0:0:0:
47,142,21774,1,2,0:3:0:0:
47,142,21853,2,0,B|37:131|0:125|0:125|105:91|225:197,1,225.000008583069,2|0,1:0|0:3,0:0:0:0:
0,219,22169,6,0,L|90:235,1,75,2|0,1:1|0:0,0:0:0:0:
73,234,22485,6,0,L|171:258,1,75,2|0,1:1|0:0,0:0:0:0:
496,325,22800,5,2,1:0:0:0:
496,325,22958,2,0,L|344:354,1,150,2|0,0:0|0:0,0:0:0:0:
347,270,23116,2,0,L|499:241,1,150,2|0,1:2|0:0,0:0:0:0:
492,160,23274,2,0,L|340:189,1,150,2|0,0:0|0:0,0:0:0:0:
334,110,23432,2,0,L|486:81,1,150,2|0,1:2|0:0,0:0:0:0:
479,0,23590,2,0,L|327:29,1,150,2|0,0:0|0:0,0:0:0:0:
13,86,23748,1,2,1:2:0:0:
13,86,24064,6,0,B|31:35|107:2|184:8|184:8|111:17|30:126,1,300,4|2,0:0|0:3,0:0:0:0:
181,165,24300,1,2,0:3:0:0:
181,165,24379,2,0,B|159:132|86:138|86:138|160:117|241:135|269:182,1,300,2|0,1:0|0:0,0:0:0:0:
5,246,24695,6,0,L|38:354,1,112.500004291535,2|0,1:0|0:0,0:0:0:0:
40,352,25011,6,0,L|113:267,1,112.500004291535,2|0,1:0|0:0,0:0:0:0:
345,353,25327,5,2,1:0:0:0:
345,353,25485,2,0,L|497:382,1,150,2|0,0:0|0:0,0:0:0:0:
494,298,25643,2,0,L|342:269,1,150,2|0,1:2|0:0,0:0:0:0:
349,188,25801,2,0,L|501:217,1,150,2|0,0:0|0:0,0:0:0:0:
507,138,25959,2,0,L|355:109,1,150,2|0,1:2|0:0,0:0:0:0:
362,28,26117,2,0,L|506:49,1,150,2|0,0:0|0:0,0:0:0:0:
509,52,26274,1,2,1:2:0:0:
362,28,26432,1,2,1:2:0:0:
108,145,26590,6,0,B|81:165|39:148|39:148|99:196|191:166|248:84,1,300,4|2,0:0|0:3,0:0:0:0:
146,72,26827,1,0,0:0:0:0:
146,72,26906,2,0,B|124:45|142:3|142:3|94:62|124:154|206:212,1,300,2|0,1:1|0:3,0:0:0:0:
70,285,27221,6,0,L|182:321,1,112.500004291535,2|0,1:1|0:0,0:0:0:0:
176,321,27537,6,0,L|74:367,1,112.500004291535,2|0,1:1|0:0,0:0:0:0:
496,325,27853,5,2,1:0:0:0:
496,325,28011,6,0,L|344:354,1,150,2|0,0:0|0:0,0:0:0:0:
347,270,28169,2,0,L|499:241,1,150,2|0,1:2|0:0,0:0:0:0:
492,160,28327,2,0,L|340:189,1,150,2|0,0:0|0:0,0:0:0:0:
334,110,28485,2,0,L|486:81,1,150,2|0,1:2|0:0,0:0:0:0:
479,0,28643,2,0,L|327:29,1,150,2|0,0:0|0:0,0:0:0:0:
13,86,28800,1,2,1:2:0:0:
389,192,29116,6,0,B|327:244|327:244|277:128|277:128|220:223,1,300,4|2,0:0|0:3,0:0:0:0:
236,214,29353,1,2,0:3:0:0:
236,214,29432,2,0,B|151:178|151:178|180:301|180:301|102:275,1,300,2|0,1:0|0:0,0:0:0:0:
482,198,29748,6,0,P|486:108|449:204,1,300,2|0,1:0|0:0,0:0:0:0:
0,263,30064,2,0,P|-4:352|32:256,1,300,2|0,1:0|0:0,0:0:0:0:
290,345,30379,5,4,0:0:0:0:
290,345,30853,5,2,1:3:0:0:
264,261,31169,1,2,0:3:0:0:
104,329,31327,2,0,P|310:372|429:194,1,450.000017166138,4|4,0:0|0:3,0:0:0:0:
