osu file format v14

[General]
AudioFilename: audio.mp3
AudioLeadIn: 0
PreviewTime:21142
Countdown: 0
SampleSet: Soft
StackLeniency: 0.2
Mode: 0
LetterboxInBreaks: 0
WidescreenStoryboard: 1

[Editor]
DistanceSpacing: 0.2
BeatDivisor: 4
GridSize: 4
TimelineZoom: 1.6

[Metadata]
Title:PADORU / PADORU
TitleUnicode:PADORU / PADORU
Artist:Turbo
ArtistUnicode:Turbo
Creator:Sotarks
Version:Kyuukai's Extra
Source:Fate/EXTRA
Tags:TurboAutism eurobeats nero claudius christmas xmas remix edit Hashire sori yo Kaze no you ni Tsukimihara wo armin a_r_m_i_n agatsu akitoshi corinn -laura- kowari fieryrage ggf gottagof4st stack kyuukai yaleufeu lasse milan- nao tomori naotoshi nevo realazy reform kujinn shardex shunao shogunmoon smokelind toybot doormat kiyoshi guarden nymphe fatfan kolek haruto haruto_aizawa japanese anime electronic video game jingle bells
BeatmapID:2245777
BeatmapSetID:1073074

[Difficulty]
HPDrainRate:5.2
CircleSize:3.3
OverallDifficulty:9.2
ApproachRate:9.2
SliderMultiplier:1.82
SliderTickRate:1

[Events]
//Background and Video events
0,0,"bg.jpg",0,0
//Break Periods
//Storyboard Layer 0 (Background)
//Storyboard Layer 1 (Fail)
//Storyboard Layer 2 (Pass)
//Storyboard Layer 3 (Foreground)
//Storyboard Layer 4 (Overlay)
//Storyboard Sound Samples

[TimingPoints]
64,315.789473684211,4,2,22,62,1,0
1327,-138.888888888889,4,2,22,72,0,0
1485,-138.888888888889,4,2,22,32,0,0
1642,-138.888888888889,4,2,22,72,0,0
1800,-138.888888888889,4,2,22,32,0,0
1958,-138.888888888889,4,2,22,72,0,0
2116,-138.888888888889,4,2,22,32,0,0
2274,-138.888888888889,4,2,22,72,0,0
2430,-138.888888888889,4,2,22,72,0,0
2432,-138.888888888889,4,2,22,32,0,0
2590,-833.333333333333,4,2,22,72,0,0
3458,-833.333333333333,4,2,22,5,0,0
3537,-75.7575757575758,4,2,22,72,0,0
3774,-833.333333333333,4,2,22,5,0,0
3853,-138.888888888889,4,2,22,72,0,0
4011,-138.888888888889,4,2,22,32,0,0
4169,-138.888888888889,4,2,22,72,0,0
4327,-138.888888888889,4,2,22,32,0,0
4485,-138.888888888889,4,2,22,72,0,0
4643,-138.888888888889,4,2,22,32,0,0
4800,-138.888888888889,4,2,22,72,0,0
4958,-138.888888888889,4,2,22,32,0,0
5116,-833.333333333333,4,2,22,72,0,0
5669,-833.333333333333,4,2,22,5,0,0
5748,-75.7575757575758,4,2,22,72,0,0
5985,-833.333333333333,4,2,22,5,0,0
6064,-833.333333333333,4,2,22,72,0,0
6300,-833.333333333333,4,2,22,5,0,0
6379,-138.888888888889,4,2,22,72,0,0
6537,-138.888888888889,4,2,22,32,0,0
6695,-138.888888888889,4,2,22,72,0,0
6853,-138.888888888889,4,2,22,32,0,0
7011,-138.888888888889,4,2,22,72,0,0
7169,-138.888888888889,4,2,22,32,0,0
7326,-138.888888888889,4,2,22,72,0,0
7484,-138.888888888889,4,2,22,32,0,0
7642,-833.333333333333,4,2,22,72,0,0
8511,-833.333333333333,4,2,22,5,0,0
8590,-75.7575757575758,4,2,22,72,0,0
8827,-833.333333333333,4,2,22,5,0,0
8906,-138.888888888889,4,2,22,72,0,0
9064,-138.888888888889,4,2,22,32,0,0
9222,-138.888888888889,4,2,22,72,0,0
9378,-138.888888888889,4,2,22,72,0,0
9380,-138.888888888889,4,2,22,32,0,0
9538,-138.888888888889,4,2,22,72,0,0
9694,-138.888888888889,4,2,22,72,0,0
9696,-138.888888888889,4,2,22,32,0,0
9853,-138.888888888889,4,2,22,72,0,0
10011,-138.888888888889,4,2,22,32,0,0
10169,-138.888888888889,4,2,22,72,0,0
11116,-81.9672131147541,4,2,22,72,0,0
11353,-833.333333333333,4,2,22,5,0,0
11432,-98.0392156862745,4,2,22,82,0,0
21537,-89.2857142857143,4,2,22,92,0,1
30379,-89.2857142857143,4,2,22,92,0,0
30458,-89.2857142857143,4,2,22,82,0,0
31327,-138.888888888889,4,2,22,82,0,0
31564,-833.333333333333,4,2,22,5,0,0
31642,-833.333333333333,4,2,22,82,0,0

[Colours]
Combo1 : 199,215,222
Combo2 : 139,152,201
Combo3 : 92,109,175

[HitObjects]
320,248,1011,5,8,0:2:0:0:
320,248,1327,2,0,L|328:164,1,65.5200015996094,6|0,1:2|0:2,0:0:0:0:
241,62,1642,2,0,L|248:128,1,65.5200015996094,2|0,0:2|0:2,0:0:0:0:
304,236,1958,2,0,L|312:152,1,65.5200015996094,2|0,0:2|0:2,0:0:0:0:
225,50,2274,2,0,L|232:116,1,65.5200015996094,2|0,0:2|0:2,0:0:0:0:
184,204,2590,6,0,P|155:196|126:202,1,60.0600014663086,2|0,0:2|0:2,0:0:0:0:
126,202,3537,6,0,B|112:248|112:248|56:188|108:120,1,180.179999450134,2|0,1:2|0:2,0:0:0:0:
152,60,3853,6,0,P|115:43|79:47,1,65.5200015996094,6|0,1:2|0:2,0:0:0:0:
244,128,4169,2,0,P|273:113|305:112,1,65.5200015996094,2|0,0:2|0:2,0:0:0:0:
144,40,4485,6,0,P|105:30|71:40,1,65.5200015996094,2|0,0:2|0:2,0:0:0:0:
256,144,4801,2,0,P|287:134|319:139,1,65.5200015996094,2|0,0:2|0:2,0:0:0:0:
384,200,5116,6,0,L|376:237,1,38.2200009331055,2|0,0:2|0:2,0:0:0:0:
376,237,5748,2,0,P|287:215|207:299,1,180.179999450134,2|0,1:2|0:2,0:0:0:0:
256,340,6064,5,2,0:2:0:0:
256,340,6379,2,0,B|224:352|224:352|168:336,1,65.5200015996094,6|0,1:2|0:2,0:0:0:0:
104,254,6695,2,0,B|96:224|96:224|108:192,1,65.5200015996094,2|0,0:2|0:2,0:0:0:0:
244,356,7011,2,0,B|212:368|212:368|156:352,1,65.5200015996094,2|0,0:2|0:2,0:0:0:0:
88,244,7327,2,0,B|79:213|79:213|91:181,1,65.5200015996094,2|0,0:2|0:2,0:0:0:0:
88,72,7642,6,0,P|110:90|139:84,1,60.0600014663086,2|0,0:2|0:2,0:0:0:0:
139,84,8590,6,0,B|180:56|180:56|307:84,1,180.179999450134,2|0,1:2|0:2,0:0:0:0:
388,140,8906,6,0,L|404:76,1,65.5200015996094,6|0,1:2|0:2,0:0:0:0:
316,247,9221,2,0,L|300:184,1,65.5200015996094,2|0,0:2|0:2,0:0:0:0:
468,196,9537,2,0,L|484:132,1,65.5200015996094,2|0,0:2|0:2,0:0:0:0:
232,303,9853,2,0,L|216:240,1,65.5200015996094,2|0,0:2|0:2,0:0:0:0:
276,84,10169,5,2,3:2:0:0:
116,184,10327,1,0,3:2:0:0:
196,56,10485,1,2,3:2:0:0:
215,239,10642,1,0,3:2:0:0:
116,28,10800,1,2,3:2:0:0:
116,28,10879,1,0,3:0:0:0:
116,28,10958,1,0,3:2:0:0:
276,84,11116,6,0,P|344:80|292:16,1,166.529993139176,6|0,0:2|0:2,0:0:0:0:
228,12,11432,5,6,1:2:0:0:
303,195,11590,1,0,3:2:0:0:
303,195,11669,1,0,3:2:0:0:
303,195,11748,2,0,P|352:188|396:168,1,92.8200005665283,2|0,1:2|0:2,0:0:0:0:
504,76,12064,1,0,1:2:0:0:
416,268,12221,1,0,0:2:0:0:
372,88,12379,1,0,1:2:0:0:
512,196,12537,1,0,0:2:0:0:
348,320,12695,5,0,1:2:0:0:
432,156,12853,1,2,0:2:0:0:
460,340,13011,1,2,1:2:0:0:
272,208,13169,1,2,0:2:0:0:
416,268,13327,1,2,1:2:0:0:
164,320,13485,1,2,0:2:0:0:
256,116,13642,2,0,L|272:208,1,92.8200005665283,0|0,1:2|0:2,0:0:0:0:
56,116,13958,5,6,1:2:0:0:
140,24,14116,1,0,3:2:0:0:
140,24,14195,1,0,3:2:0:0:
140,24,14274,2,0,L|156:116,1,92.8200005665283,2|0,1:2|0:2,0:0:0:0:
56,232,14590,1,0,1:2:0:0:
256,292,14748,1,0,0:2:0:0:
168,192,14906,1,0,1:2:0:0:
56,348,15064,1,0,0:2:0:0:
256,292,15221,5,0,1:2:0:0:
56,232,15379,1,2,0:2:0:0:
276,152,15537,1,2,1:2:0:0:
56,68,15695,1,2,0:2:0:0:
168,192,15853,1,2,1:2:0:0:
276,4,16011,1,2,0:2:0:0:
152,124,16169,2,0,L|168:200,1,46.4100002832642,0|0,1:2|0:0,0:0:0:0:
256,232,16327,2,0,L|266:187,1,46.4100002832642,0|0,1:2|0:0,0:0:0:0:
300,20,16485,5,6,1:2:0:0:
448,120,16642,1,0,3:2:0:0:
448,120,16721,1,0,3:2:0:0:
448,120,16800,2,0,P|403:132|359:119,1,92.8200005665283,2|0,1:2|0:2,0:0:0:0:
212,20,17116,1,0,1:2:0:0:
256,232,17274,1,0,0:2:0:0:
140,148,17432,1,0,1:2:0:0:
359,119,17590,1,0,0:2:0:0:
256,332,17748,5,0,1:2:0:0:
244,104,17906,1,2,0:2:0:0:
396,280,18064,1,2,1:2:0:0:
340,36,18221,1,2,0:2:0:0:
256,232,18379,1,2,1:2:0:0:
359,119,18537,1,2,0:2:0:0:
140,148,18695,1,0,1:2:0:0:
340,208,18853,1,0,0:2:0:0:
80,284,19011,5,6,1:2:0:0:
140,148,19169,1,0,3:2:0:0:
140,148,19248,1,0,3:2:0:0:
140,148,19327,2,0,L|124:40,1,92.8200005665283,2|0,1:2|0:2,0:0:0:0:
231,267,19642,1,0,1:2:0:0:
48,116,19800,1,0,0:2:0:0:
320,68,19958,1,0,1:2:0:0:
256,364,20116,1,0,0:2:0:0:
140,192,20274,5,6,1:2:0:0:
231,267,20432,1,0,0:0:0:0:
372,192,20748,5,0,1:2:0:0:
281,267,21064,5,0,0:2:0:0:
256,80,21221,1,0,1:2:0:0:
256,80,21537,5,14,1:2:0:0:
388,304,21695,1,0,3:2:0:0:
388,304,21774,1,0,3:2:0:0:
388,304,21853,2,0,L|404:184,1,101.920001244141,10|0,1:2|0:2,0:0:0:0:
424,36,22169,1,10,1:2:0:0:
256,260,22327,1,0,0:2:0:0:
464,128,22485,1,10,1:2:0:0:
204,36,22642,1,0,0:2:0:0:
401,202,22800,5,10,1:2:0:0:
180,292,22958,1,2,0:2:0:0:
260,116,23116,1,10,1:2:0:0:
352,372,23274,1,2,0:2:0:0:
160,176,23432,1,10,1:2:0:0:
436,208,23590,1,2,0:2:0:0:
180,292,23748,2,0,L|72:264,1,101.920001244141,10|0,1:2|0:2,0:0:0:0:
160,60,24064,5,14,1:2:0:0:
308,244,24221,1,0,3:2:0:0:
308,244,24300,1,0,3:2:0:0:
308,244,24379,2,0,L|416:216,1,101.920001244141,10|0,1:2|0:2,0:0:0:0:
352,60,24695,1,10,1:2:0:0:
256,380,24853,1,0,0:2:0:0:
160,60,25011,1,10,1:2:0:0:
332,280,25169,1,0,0:2:0:0:
64,200,25327,5,10,1:2:0:0:
352,60,25485,1,2,0:2:0:0:
124,380,25642,1,10,1:2:0:0:
48,88,25800,1,2,0:2:0:0:
332,280,25957,1,10,1:2:0:0:
12,320,26116,1,2,0:2:0:0:
256,136,26274,2,0,L|262:85,1,50.9600006220703,10|0,1:2|0:0,0:0:0:0:
158,13,26432,2,0,L|164:64,1,50.9600006220703,0|0,1:2|0:0,0:0:0:0:
116,212,26590,5,14,1:2:0:0:
360,120,26748,1,0,3:2:0:0:
360,120,26827,1,0,3:2:0:0:
360,120,26906,2,0,L|484:128,1,101.920001244141,10|0,1:2|0:2,0:0:0:0:
208,336,27221,1,10,1:2:0:0:
512,280,27379,1,0,0:2:0:0:
292,28,27537,1,10,1:2:0:0:
360,308,27695,1,0,0:2:0:0:
448,12,27853,5,10,1:2:0:0:
128,184,28011,1,2,0:2:0:0:
480,144,28169,1,10,1:2:0:0:
152,12,28327,1,2,0:2:0:0:
256,356,28485,1,10,1:2:0:0:
360,12,28642,1,2,0:2:0:0:
144,287,28800,2,0,P|96:304|50:287,1,101.920001244141,10|0,1:2|0:2,0:0:0:0:
200,108,29116,5,14,1:2:0:0:
349,260,29274,1,0,3:2:0:0:
349,260,29353,1,0,3:2:0:0:
349,260,29432,2,0,P|302:242|255:259,1,101.920001244141,10|0,1:2|0:2,0:0:0:0:
464,384,29748,5,10,1:2:0:0:
352,40,29906,1,0,0:2:0:0:
256,344,30064,1,10,1:2:0:0:
160,40,30221,1,0,0:2:0:0:
512,192,30379,1,14,1:2:0:0:
168,260,30537,2,0,P|155:211|168:162,1,101.920001244141,0|0,0:0|0:2,0:0:0:0:
256,88,30853,1,8,1:2:0:0:
256,88,31169,5,0,0:2:0:0:
348,200,31327,2,0,L|244:212,1,98.2800023994141,8|0,1:2|0:2,0:0:0:0:
251,211,31642,5,2,1:2:0:0:
