osu file format v14

[General]
AudioFilename: audio.mp3
AudioLeadIn: 0
PreviewTime:21142
Countdown: 0
SampleSet: Soft
StackLeniency: 0.7
Mode: 0
LetterboxInBreaks: 0
WidescreenStoryboard: 1

[Editor]
DistanceSpacing: 1.2
BeatDivisor: 4
GridSize: 16
TimelineZoom: 1.6

[Metadata]
Title:PADORU / PADORU
TitleUnicode:PADORU / PADORU
Artist:Turbo
ArtistUnicode:Turbo
Creator:Sotarks
Version:Kowari's Hard
Source:Fate/EXTRA
Tags:TurboAutism eurobeats nero claudius christmas xmas remix edit Hashire sori yo Kaze no you ni Tsukimihara wo armin a_r_m_i_n agatsu akitoshi corinn -laura- kowari fieryrage ggf gottagof4st stack kyuukai yaleufeu lasse milan- nao tomori naotoshi nevo realazy reform kujinn shardex shunao shogunmoon smokelind toybot doormat kiyoshi guarden nymphe fatfan kolek haruto haruto_aizawa japanese anime electronic video game jingle bells
BeatmapID:2245776
BeatmapSetID:1073074

[Difficulty]
HPDrainRate:4.5
CircleSize:3.5
OverallDifficulty:7
ApproachRate:8
SliderMultiplier:1.32
SliderTickRate:1

[Events]
//Background and Video events
0,0,"bg.jpg",0,0
//Break Periods
//Storyboard Layer 0 (Background)
//Storyboard Layer 1 (Fail)
//Storyboard Layer 2 (Pass)
//Storyboard Layer 3 (Foreground)
//Storyboard Layer 4 (Overlay)
//Storyboard Sound Samples

[TimingPoints]
64,315.789473684211,4,2,22,62,1,0
1327,-121.951219512195,4,2,22,72,0,0
1485,-121.951219512195,4,2,22,32,0,0
1642,-121.951219512195,4,2,22,72,0,0
1800,-121.951219512195,4,2,22,32,0,0
1958,-121.951219512195,4,2,22,72,0,0
2116,-121.951219512195,4,2,22,32,0,0
2274,-121.951219512195,4,2,22,72,0,0
2432,-121.951219512195,4,2,22,32,0,0
2590,-121.951219512195,4,2,22,72,0,0
3458,-121.951219512195,4,2,22,5,0,0
3537,-121.951219512195,4,2,22,72,0,0
3774,-121.951219512195,4,2,22,5,0,0
3853,-121.951219512195,4,2,22,72,0,0
4011,-121.951219512195,4,2,22,32,0,0
4169,-121.951219512195,4,2,22,72,0,0
4327,-121.951219512195,4,2,22,32,0,0
4485,-121.951219512195,4,2,22,72,0,0
4643,-121.951219512195,4,2,22,32,0,0
4800,-121.951219512195,4,2,22,72,0,0
4958,-121.951219512195,4,2,22,32,0,0
5116,-121.951219512195,4,2,22,72,0,0
5669,-121.951219512195,4,2,22,5,0,0
5748,-121.951219512195,4,2,22,72,0,0
5985,-121.951219512195,4,2,22,5,0,0
6064,-121.951219512195,4,2,22,72,0,0
6300,-121.951219512195,4,2,22,5,0,0
6379,-121.951219512195,4,2,22,72,0,0
6537,-121.951219512195,4,2,22,32,0,0
6695,-121.951219512195,4,2,22,72,0,0
6853,-121.951219512195,4,2,22,32,0,0
7011,-121.951219512195,4,2,22,72,0,0
7169,-121.951219512195,4,2,22,32,0,0
7326,-121.951219512195,4,2,22,72,0,0
7484,-121.951219512195,4,2,22,32,0,0
7642,-121.951219512195,4,2,22,72,0,0
8511,-121.951219512195,4,2,22,5,0,0
8590,-121.951219512195,4,2,22,72,0,0
8827,-121.951219512195,4,2,22,5,0,0
8906,-121.951219512195,4,2,22,72,0,0
9222,-121.951219512195,4,2,22,72,0,0
9378,-121.951219512195,4,2,22,32,0,0
9380,-121.951219512195,4,2,22,32,0,0
9538,-121.951219512195,4,2,22,72,0,0
9694,-121.951219512195,4,2,22,32,0,0
9696,-121.951219512195,4,2,22,32,0,0
9853,-121.951219512195,4,2,22,72,0,0
10011,-121.951219512195,4,2,22,32,0,0
10169,-121.951219512195,4,2,22,72,0,0
11353,-121.951219512195,4,2,22,5,0,0
11432,-98.0392156862744,4,2,22,82,0,0
21537,-89.2857142857143,4,2,22,92,0,1
30379,-89.2857142857143,4,2,22,92,0,0
30458,-89.2857142857143,4,2,22,82,0,0
31564,-89.2857142857143,4,2,22,5,0,0
31642,-89.2857142857143,4,2,22,82,0,0

[Colours]
Combo1 : 199,215,222
Combo2 : 139,152,201
Combo3 : 92,109,175

[HitObjects]
472,351,1011,5,8,0:2:0:0:
383,255,1327,2,0,P|336:257|273:281,1,108.240001651611,6|2,1:2|0:2,0:2:0:0:
177,359,1958,2,0,B|115:357|141:322|58:311,2,108.240001651611,2|2|2,0:2|0:2|0:2,0:2:0:0:
375,23,3537,5,2,1:2:0:0:
270,100,3853,2,0,P|226:59|171:61,1,108.240001651611,6|2,1:2|0:2,0:2:0:0:
75,135,4485,2,0,P|87:69|95:15,2,108.240001651611,2|2|2,0:2|0:2|0:2,0:2:0:0:
27,369,5748,6,0,P|103:350|152:341,1,108.240001651611,2|2,1:2|0:2,0:2:0:0:
244,278,6379,6,0,P|225:215|246:174,1,108.240001651611,6|2,1:2|0:2,0:2:0:0:
355,116,7011,2,0,P|439:141|473:147,2,108.240001651611,2|2|2,0:2|0:2|0:2,0:2:0:0:
281,8,7958,2,0,P|224:48|170:68,1,108.240001651611,2|2,0:0|0:0,0:0:0:0:
85,142,8590,1,2,1:2:0:0:
46,24,8906,5,6,1:2:0:0:
46,24,9064,1,0,0:2:0:0:
124,56,9221,2,0,P|156:44|186:36,1,54.1200008258057,2|0,0:2|0:2,0:2:0:0:
249,93,9537,2,0,P|237:125|229:155,1,54.1200008258057,2|0,0:2|0:2,0:2:0:0:
163,211,9853,2,0,P|174:243|183:273,1,54.1200008258057,2|0,0:2|0:2,0:2:0:0:
245,339,10169,6,0,P|286:329|314:324,1,54.1200008258057,2|0,3:2|3:2,0:0:0:0:
357,251,10485,2,0,P|398:261|426:266,1,54.1200008258057,2|0,3:2|3:2,0:0:0:0:
488,212,10800,1,2,3:2:0:0:
488,212,10958,1,0,3:2:0:0:
446,116,11116,2,0,P|406:108|371:128,1,81.1800012387085,6|0,0:2|0:2,0:2:0:0:
358,156,11432,5,6,1:2:0:0:
272,94,11590,2,0,L|282:56,2,33.6600002054443,0|0|2,3:2|3:2|1:2,0:0:0:0:
182,159,11906,1,0,0:2:0:0:
230,258,12064,2,0,P|279:245|311:239,1,67.3200004108887,0|0,1:2|0:2,0:0:0:0:
156,332,12379,2,0,P|123:324|90:315,1,67.3200004108887,0|0,1:2|0:2,0:0:0:0:
26,234,12695,5,0,1:2:0:0:
79,138,12853,1,2,0:2:0:0:
79,138,13011,2,0,P|69:87|65:51,1,67.3200004108887,2|2,1:2|0:2,0:0:0:0:
155,13,13327,2,0,P|198:33|224:41,1,67.3200004108887,2|2,1:2|0:2,0:0:0:0:
276,129,13642,2,0,P|324:113|360:107,1,67.3200004108887,0|0,1:2|0:2,0:2:0:0:
443,101,13958,5,6,1:2:0:0:
480,195,14116,2,0,L|521:208,2,33.6600002054443,0|0|2,3:2|3:2|1:2,0:0:0:0:
393,259,14432,1,0,0:2:0:0:
449,356,14590,2,0,P|481:343|507:316,1,67.3200004108887,0|0,1:2|0:2,0:0:0:0:
346,340,14906,2,0,P|314:327|286:301,1,67.3200004108887,0|0,1:2|0:2,0:0:0:0:
319,195,15221,5,0,1:2:0:0:
248,119,15379,1,2,0:2:0:0:
248,119,15537,2,0,P|195:132|162:139,1,67.3200004108887,2|2,1:2|0:2,0:0:0:0:
109,209,15853,2,0,P|56:196|23:189,1,67.3200004108887,2|2,1:2|0:2,0:0:0:0:
126,309,16169,1,0,1:2:0:0:
219,279,16327,1,0,1:2:0:0:
284,364,16485,5,6,1:2:0:0:
368,298,16642,2,0,L|414:309,2,33.6600002054443,0|0|2,3:2|3:2|1:2,0:0:0:0:
299,218,16958,1,0,0:2:0:0:
376,136,17116,2,0,P|434:149|467:156,1,67.3200004108887,0|0,1:2|0:2,0:0:0:0:
290,71,17432,2,0,P|232:84|199:91,1,67.3200004108887,0|0,1:2|0:2,0:0:0:0:
123,46,17748,5,0,1:2:0:0:
55,131,17906,1,2,0:2:0:0:
55,131,18064,2,0,P|71:187|81:224,1,67.3200004108887,2|2,1:2|0:2,0:0:0:0:
184,184,18379,2,0,P|168:240|158:277,1,67.3200004108887,2|2,1:2|0:2,0:0:0:0:
227,339,18695,2,0,P|277:327|316:319,1,67.3200004108887,0|0,1:2|0:2,0:2:0:0:
363,235,19011,5,6,1:2:0:0:
293,162,19169,2,0,L|249:152,2,33.6600002054443,0|0|2,3:2|3:2|1:2,0:0:0:0:
359,82,19485,1,0,0:2:0:0:
457,119,19642,6,0,P|468:58|474:35,1,67.3200004108887,0|0,1:2|0:2,0:0:0:0:
397,204,19958,2,0,P|404:236|409:270,1,67.3200004108887,0|0,1:2|0:2,0:0:0:0:
347,355,20274,5,6,1:2:0:0:
271,301,20432,2,0,B|204:297|216:344|133:336,2,134.640000821777,0|0|0,0:0|1:2|0:2,0:0:0:0:
311,205,21221,2,0,P|297:147|292:116,1,67.3200004108887,0|0,1:2|0:0,0:0:0:0:
295,30,21537,5,14,1:2:0:0:
209,91,21695,1,0,3:2:0:0:
209,91,21774,1,0,3:2:0:0:
209,91,21853,2,0,P|146:74|125:69,1,73.9200009023438,10|0,1:2|0:2,0:2:0:0:
58,138,22169,2,0,P|71:186|79:227,1,73.9200009023438,10|0,1:2|0:2,0:0:0:0:
25,303,22485,1,10,1:2:0:0:
25,303,22642,1,0,0:2:0:0:
115,365,22800,6,0,P|168:347|196:340,1,73.9200009023438,10|2,1:2|0:2,0:0:0:0:
260,256,23116,2,0,P|313:274|341:281,1,73.9200009023438,10|2,1:2|0:2,0:0:0:0:
423,218,23432,1,10,1:2:0:0:
386,118,23590,1,2,0:2:0:0:
480,52,23748,6,0,P|491:91|476:135,1,73.9200009023438,10|0,1:2|0:2,0:2:0:0:
378,144,24064,1,14,1:2:0:0:
311,52,24221,1,0,3:2:0:0:
311,52,24300,1,0,3:2:0:0:
311,52,24379,2,0,P|261:40|231:32,1,73.9200009023438,10|0,1:2|0:2,0:2:0:0:
166,113,24695,2,0,P|179:173|184:214,1,73.9200009023438,10|0,1:2|0:2,0:0:0:0:
243,273,25011,1,10,1:2:0:0:
243,273,25169,1,0,0:2:0:0:
169,357,25327,6,0,P|109:340|84:334,1,73.9200009023438,10|2,1:2|0:2,0:0:0:0:
26,253,25642,2,0,P|62:244|97:234,1,73.9200009023438,10|2,1:2|0:2,0:0:0:0:
171,145,25958,2,0,P|147:87|139:57,1,73.9200009023438,10|2,1:2|0:2,0:0:0:0:
231,11,26274,1,10,1:2:0:0:
330,60,26432,1,0,1:2:0:0:
431,22,26590,5,14,1:2:0:0:
487,111,26748,1,0,3:2:0:0:
487,111,26827,1,0,3:2:0:0:
487,111,26906,2,0,P|472:158|463:190,1,73.9200009023438,10|0,1:2|0:2,0:2:0:0:
396,256,27221,2,0,P|352:250|320:225,1,73.9200009023438,10|0,1:2|0:2,0:0:0:0:
262,156,27537,2,0,P|218:162|186:187,1,73.9200009023438,10|0,1:2|0:2,0:0:0:0:
157,286,27853,5,10,1:2:0:0:
54,338,28011,1,2,0:2:0:0:
54,338,28169,2,0,P|36:285|25:259,1,73.9200009023438,10|2,1:2|0:2,0:0:0:0:
87,181,28485,2,0,P|105:128|116:102,1,73.9200009023438,10|2,1:2|0:2,0:0:0:0:
204,50,28800,2,0,P|245:83|276:90,1,73.9200009023438,10|0,1:2|0:2,0:0:0:0:
366,55,29116,5,14,1:2:0:0:
393,153,29274,1,0,3:2:0:0:
393,153,29353,1,0,3:2:0:0:
393,153,29432,2,0,P|351:167|306:186,1,73.9200009023438,10|0,1:2|0:2,0:2:0:0:
199,251,29748,2,0,P|241:265|286:284,1,73.9200009023438,10|0,1:2|0:2,0:0:0:0:
335,360,30064,2,0,P|398:339|425:335,1,73.9200009023438,10|0,1:2|0:2,0:0:0:0:
492,259,30379,5,14,1:2:0:0:
412,180,30537,2,0,P|398:240|393:260,1,73.9200009023438,0|0,0:0|0:2,0:0:0:0:
356,100,30853,2,0,P|334:65|230:58,1,147.840001804688,8|0,1:2|0:2,0:2:0:0:
178,158,31327,6,0,B|117:118|159:77|90:40,1,147.840001804688,8|2,1:2|1:2,0:2:0:0:
