osu file format v14

[General]
AudioFilename: audio.mp3
AudioLeadIn: 0
PreviewTime:21142
Countdown: 0
SampleSet: Soft
StackLeniency: 0.7
Mode: 0
LetterboxInBreaks: 0
WidescreenStoryboard: 1

[Editor]
DistanceSpacing: 0.2
BeatDivisor: 4
GridSize: 16
TimelineZoom: 1.6

[Metadata]
Title:PADORU / PADORU
TitleUnicode:PADORU / PADORU
Artist:Turbo
ArtistUnicode:Turbo
Creator:Sotarks
Version:Insane
Source:Fate/EXTRA
Tags:TurboAutism eurobeats nero claudius christmas xmas remix edit Hashire sori yo Kaze no you ni Tsukimihara wo armin a_r_m_i_n agatsu akitoshi corinn -laura- kowari fieryrage ggf gottagof4st stack kyuukai yaleufeu lasse milan- nao tomori naotoshi nevo realazy reform kujinn shardex shunao shogunmoon smokelind toybot doormat kiyoshi guarden nymphe fatfan kolek haruto haruto_aizawa japanese anime electronic video game jingle bells
BeatmapID:2245775
BeatmapSetID:1073074

[Difficulty]
HPDrainRate:5.2
CircleSize:3.8
OverallDifficulty:8.2
ApproachRate:9
SliderMultiplier:1.62
SliderTickRate:1

[Events]
//Background and Video events
0,0,"bg.jpg",0,0
//Break Periods
//Storyboard Layer 0 (Background)
//Storyboard Layer 1 (Fail)
//Storyboard Layer 2 (Pass)
//Storyboard Layer 3 (Foreground)
//Storyboard Layer 4 (Overlay)
//Storyboard Sound Samples

[TimingPoints]
64,315.789473684211,4,2,22,62,1,0
1327,-138.888888888889,4,2,22,72,0,0
1485,-138.888888888889,4,2,22,32,0,0
1642,-138.888888888889,4,2,22,72,0,0
1800,-138.888888888889,4,2,22,32,0,0
1958,-138.888888888889,4,2,22,72,0,0
2116,-138.888888888889,4,2,22,32,0,0
2274,-138.888888888889,4,2,22,72,0,0
2432,-138.888888888889,4,2,22,32,0,0
2590,-833.333333333333,4,2,22,72,0,0
3458,-833.333333333333,4,2,22,5,0,0
3537,-75.7575757575758,4,2,22,72,0,0
3774,-833.333333333333,4,2,22,5,0,0
3853,-138.888888888889,4,2,22,72,0,0
4011,-138.888888888889,4,2,22,32,0,0
4169,-138.888888888889,4,2,22,72,0,0
4327,-138.888888888889,4,2,22,32,0,0
4485,-138.888888888889,4,2,22,72,0,0
4643,-138.888888888889,4,2,22,32,0,0
4800,-138.888888888889,4,2,22,72,0,0
4958,-138.888888888889,4,2,22,32,0,0
5116,-833.333333333333,4,2,22,72,0,0
5669,-833.333333333333,4,2,22,5,0,0
5748,-75.7575757575758,4,2,22,72,0,0
5985,-833.333333333333,4,2,22,5,0,0
6064,-833.333333333333,4,2,22,72,0,0
6300,-833.333333333333,4,2,22,5,0,0
6379,-138.888888888889,4,2,22,72,0,0
6537,-138.888888888889,4,2,22,32,0,0
6695,-138.888888888889,4,2,22,72,0,0
6853,-138.888888888889,4,2,22,32,0,0
7011,-138.888888888889,4,2,22,72,0,0
7169,-138.888888888889,4,2,22,32,0,0
7326,-138.888888888889,4,2,22,72,0,0
7484,-138.888888888889,4,2,22,32,0,0
7642,-833.333333333333,4,2,22,72,0,0
8511,-833.333333333333,4,2,22,5,0,0
8590,-75.7575757575758,4,2,22,72,0,0
8827,-833.333333333333,4,2,22,5,0,0
8906,-138.888888888889,4,2,22,72,0,0
9064,-138.888888888889,4,2,22,32,0,0
9222,-138.888888888889,4,2,22,72,0,0
9378,-138.888888888889,4,2,22,32,0,0
9380,-138.888888888889,4,2,22,32,0,0
9538,-138.888888888889,4,2,22,72,0,0
9694,-138.888888888889,4,2,22,32,0,0
9696,-138.888888888889,4,2,22,32,0,0
9853,-138.888888888889,4,2,22,72,0,0
10009,-138.888888888889,4,2,22,32,0,0
10011,-138.888888888889,4,2,22,32,0,0
10169,-138.888888888889,4,2,22,72,0,0
11116,-81.9672131147541,4,2,22,72,0,0
11353,-833.333333333333,4,2,22,5,0,0
11432,-98.0392156862745,4,2,22,82,0,0
21537,-89.2857142857143,4,2,22,92,0,1
30379,-89.2857142857143,4,2,22,92,0,0
30458,-89.2857142857143,4,2,22,82,0,0
31564,-833.333333333333,4,2,22,5,0,0
31642,-833.333333333333,4,2,22,82,0,0

[Colours]
Combo1 : 199,215,222
Combo2 : 139,152,201
Combo3 : 92,109,175

[HitObjects]
228,91,1011,5,8,0:2:0:0:
228,91,1327,2,0,P|271:84|300:73,1,58.3200014238282,6|0,1:2|0:2,0:2:0:0:
229,182,1642,2,0,P|200:173|172:170,1,58.3200014238282,2|0,0:2|0:2,0:2:0:0:
320,152,1958,2,0,P|331:193|340:222,1,58.3200014238282,2|0,0:2|0:2,0:2:0:0:
249,317,2274,2,0,P|257:289|264:260,1,58.3200014238282,2|0,0:2|0:2,0:2:0:0:
354,292,2590,6,0,P|384:298|408:305,1,53.4600013051758,2|0,0:2|0:2,0:2:0:0:
448,272,3537,6,0,P|362:279|270:282,1,160.379999510559,2|0,1:2|0:2,0:2:0:0:
218,242,3853,6,0,P|214:286|207:322,1,58.3200014238282,6|0,1:2|0:2,0:2:0:0:
121,264,4169,2,0,P|116:235|114:206,1,58.3200014238282,2|0,0:2|0:2,0:2:0:0:
185,104,4485,2,0,P|181:148|174:184,1,58.3200014238282,2|0,0:2|0:2,0:2:0:0:
88,126,4801,2,0,P|83:97|81:68,1,58.3200014238282,2|0,0:2|0:2,0:2:0:0:
157,1,5116,6,0,L|155:35,1,34.0200008305664,2|0,0:2|0:2,0:2:0:0:
173,54,5748,6,0,P|180:159|189:245,1,160.379999510559,2|0,1:2|0:2,0:2:0:0:
162,245,6064,6,0,L|165:229,1,14.580000355957,2|0,0:2|0:2,0:2:0:0:
214,304,6379,6,0,P|254:289|277:284,1,58.3200014238282,6|0,1:2|0:2,0:2:0:0:
335,206,6695,2,0,P|306:198|279:187,1,58.3200014238282,2|0,0:2|0:2,0:2:0:0:
186,97,7011,2,0,P|179:139|169:167,1,58.3200014238282,2|0,0:2|0:2,0:2:0:0:
304,90,7327,2,0,P|296:61|292:33,1,58.3200014238282,2|0,0:2|0:2,0:2:0:0:
147,14,7642,6,0,P|126:21|93:29,1,53.4600013051758,2|0,0:2|0:2,0:2:0:0:
67,19,8590,6,0,P|53:144|46:186,1,160.379999510559,2|0,1:2|0:2,0:2:0:0:
49,257,8906,6,0,P|99:246|128:239,1,58.3200014238282,6|0,1:2|0:2,0:2:0:0:
169,144,9221,2,0,P|198:150|226:156,1,58.3200014238282,2|0,0:2|0:2,0:2:0:0:
390,137,9537,2,0,P|340:126|311:119,1,58.3200014238282,2|0,0:2|0:2,0:2:0:0:
269,24,9853,2,0,P|240:30|212:36,1,58.3200014238282,2|0,0:2|0:2,0:2:0:0:
99,110,10169,1,2,3:2:0:0:
256,192,10248,12,6,11116,0:2:0:0:
383,271,11432,6,0,P|337:265|298:255,1,82.6200005042725,6|0,1:2|3:2,0:0:0:0:
245,183,11669,1,0,3:2:0:0:
245,183,11748,2,0,P|191:216|201:336,1,165.240001008545,2|0,1:2|1:2,0:2:0:0:
265,268,12221,1,0,0:2:0:0:
154,197,12379,1,0,1:2:0:0:
253,86,12537,2,0,P|265:146|275:196,1,82.6200005042725,0|0,0:2|1:2,0:0:0:0:
161,71,12853,5,2,0:2:0:0:
305,22,13011,2,0,P|293:82|283:132,1,82.6200005042725,2|2,1:2|0:2,0:0:0:0:
217,5,13327,1,2,1:2:0:0:
399,81,13485,2,0,P|389:45|382:0,1,82.6200005042725,2|0,0:2|1:2,0:0:0:0:
308,134,13800,1,0,0:2:0:0:
407,264,13958,6,0,P|337:277|299:292,1,82.6200005042725,6|0,1:2|3:2,0:0:0:0:
261,220,14195,1,0,3:2:0:0:
261,220,14274,2,0,P|190:270|99:238,1,165.240001008545,2|0,1:2|1:2,0:2:0:0:
185,170,14748,1,0,0:2:0:0:
79,81,14906,1,0,1:2:0:0:
81,243,15064,2,0,P|88:181|97:137,1,82.6200005042725,0|0,0:2|1:2,0:0:0:0:
6,199,15379,5,2,0:2:0:0:
162,70,15537,2,0,P|168:110|172:151,1,82.6200005042725,2|2,1:2|0:2,0:0:0:0:
81,285,15853,1,2,1:2:0:0:
259,162,16011,2,0,P|252:202|248:243,1,82.6200005042725,2|0,0:2|1:2,0:0:0:0:
274,374,16327,1,0,1:2:0:0:
412,157,16485,6,0,P|335:182|321:195,1,82.6200005042725,6|0,1:2|3:2,0:0:0:0:
396,239,16721,1,0,3:2:0:0:
396,239,16800,2,0,P|470:213|480:125,1,165.240001008545,2|0,1:2|1:2,0:2:0:0:
339,26,17274,1,0,0:2:0:0:
401,163,17432,1,0,1:2:0:0:
255,79,17590,2,0,P|249:132|240:182,1,82.6200005042725,0|0,0:2|1:2,0:0:0:0:
157,66,17906,5,2,0:2:0:0:
329,263,18064,2,0,P|322:222|318:181,1,82.6200005042725,2|2,1:2|0:2,0:0:0:0:
131,257,18379,1,2,1:2:0:0:
181,81,18537,2,0,P|176:122|170:162,1,82.6200005042725,2|0,0:2|1:2,0:0:0:0:
331,106,18853,1,0,0:2:0:0:
197,226,19011,6,0,P|147:214|111:210,1,82.6200005042725,6|0,1:2|3:2,0:0:0:0:
11,237,19248,1,0,3:2:0:0:
11,237,19327,2,0,P|82:231|104:325,1,165.240001008545,2|0,1:2|1:2,0:2:0:0:
80,374,19800,1,0,0:2:0:0:
197,226,19958,1,0,1:2:0:0:
67,138,20116,1,0,0:2:0:0:
112,307,20274,6,0,P|213:279|298:277,1,165.240001008545,6|0,1:2|0:2,0:2:0:0:
416,148,20748,2,0,P|333:140|255:116,1,165.240001008545,0|0,1:2|0:2,0:2:0:0:
133,18,21221,1,0,1:2:0:0:
133,18,21537,6,0,P|142:77|145:134,1,90.7200011074219,14|0,1:2|3:2,0:0:0:0:
196,180,21774,1,0,3:2:0:0:
196,180,21853,2,0,P|199:134|207:90,1,90.7200011074219,10|0,1:2|0:2,0:2:0:0:
115,216,22169,1,10,1:2:0:0:
280,138,22327,1,0,0:2:0:0:
115,216,22485,2,0,P|112:170|104:126,1,90.7200011074219,10|0,1:2|0:2,0:2:0:0:
286,226,22800,1,10,1:2:0:0:
343,60,22958,5,2,0:2:0:0:
205,180,23116,1,10,1:2:0:0:
387,254,23274,1,2,0:2:0:0:
292,129,23432,1,10,1:2:0:0:
223,295,23590,1,2,0:2:0:0:
364,166,23748,2,0,P|298:156|273:151,1,90.7200011074219,10|0,1:2|0:2,0:2:0:0:
65,241,24064,6,0,P|109:234|154:226,1,90.7200011074219,14|0,1:2|3:2,0:0:0:0:
185,149,24300,1,0,3:2:0:0:
185,149,24379,2,0,P|140:142|95:134,1,90.7200011074219,10|0,1:2|0:2,0:2:0:0:
257,215,24695,1,10,1:2:0:0:
193,55,24853,1,0,0:2:0:0:
329,156,25011,2,0,P|374:149|419:141,1,90.7200011074219,10|0,1:2|0:2,0:2:0:0:
325,264,25327,1,10,1:2:0:0:
201,149,25485,5,2,0:2:0:0:
374,95,25642,1,10,1:2:0:0:
282,188,25800,1,2,0:2:0:0:
324,25,25958,1,10,1:2:0:0:
437,161,26116,1,2,0:2:0:0:
275,101,26274,1,10,1:2:0:0:
442,27,26432,1,0,1:2:0:0:
282,188,26590,6,0,P|215:177|175:167,1,90.7200011074219,14|0,1:2|3:2,0:0:0:0:
182,96,26827,1,0,3:2:0:0:
182,96,26906,2,0,P|137:105|92:112,1,90.7200011074219,10|0,1:2|0:2,0:2:0:0:
200,256,27221,1,10,1:2:0:0:
275,101,27379,1,0,0:2:0:0:
316,258,27537,2,0,P|361:267|406:274,1,90.7200011074219,10|0,1:2|0:2,0:2:0:0:
218,166,27853,1,10,1:2:0:0:
320,294,28011,5,2,0:2:0:0:
385,102,28169,1,10,1:2:0:0:
305,216,28327,1,2,0:2:0:0:
446,274,28485,1,10,1:2:0:0:
314,135,28642,1,2,0:2:0:0:
284,313,28800,2,0,P|223:300|189:286,1,90.7200011074219,10|0,1:2|0:2,0:0:0:0:
191,67,29116,6,0,P|130:80|96:94,1,90.7200011074219,14|0,1:2|3:2,0:0:0:0:
49,161,29353,1,0,3:2:0:0:
49,161,29432,2,0,P|93:169|136:184,1,90.7200011074219,10|0,1:2|0:2,0:2:0:0:
206,323,29748,1,10,1:2:0:0:
315,137,29906,1,0,0:2:0:0:
154,210,30064,1,10,1:2:0:0:
371,253,30221,1,0,0:2:0:0:
272,63,30379,6,0,P|237:131|258:242,1,181.440002214844,14|0,1:2|0:2,0:2:0:0:
335,305,30853,2,0,P|352:217|314:136,1,181.440002214844,8|0,1:2|0:2,0:2:0:0:
166,113,31327,2,0,P|251:101|271:32,1,136.080001661133,8|0,1:2|0:2,0:2:0:0:
264,34,31642,1,2,1:2:0:0:
