osu file format v14

[General]
AudioFilename: audio.mp3
AudioLeadIn: 0
PreviewTime:21142
Countdown: 0
SampleSet: Soft
StackLeniency: 0.5
Mode: 0
LetterboxInBreaks: 0
WidescreenStoryboard: 1

[Editor]
DistanceSpacing: 2.4
BeatDivisor: 4
GridSize: 32
TimelineZoom: 2.3

[Metadata]
Title:PADORU / PADORU
TitleUnicode:PADORU / PADORU
Artist:Turbo
ArtistUnicode:Turbo
Creator:Sotarks
Version:Haruto's Insane
Source:Fate/EXTRA
Tags:TurboAutism eurobeats nero claudius christmas xmas remix edit Hashire sori yo Kaze no you ni Tsukimihara wo armin a_r_m_i_n agatsu akitoshi corinn -laura- kowari fieryrage ggf gottagof4st stack kyuukai yaleufeu lasse milan- nao tomori naotoshi nevo realazy reform kujinn shardex shunao shogunmoon smokelind toybot doormat kiyoshi guarden nymphe fatfan kolek haruto haruto_aizawa japanese anime electronic video game jingle bells
BeatmapID:2258687
BeatmapSetID:1073074

[Difficulty]
HPDrainRate:5
CircleSize:4
OverallDifficulty:8.5
ApproachRate:9
SliderMultiplier:1.65
SliderTickRate:1

[Events]
//Background and Video events
0,0,"bg.jpg",0,0
//Break Periods
//Storyboard Layer 0 (Background)
//Storyboard Layer 1 (Fail)
//Storyboard Layer 2 (Pass)
//Storyboard Layer 3 (Foreground)
//Storyboard Layer 4 (Overlay)
//Storyboard Sound Samples

[TimingPoints]
64,315.789473684211,4,2,22,62,1,0
1327,-166.666666666667,4,2,22,72,0,0
1485,-166.666666666667,4,2,22,32,0,0
1642,-166.666666666667,4,2,22,72,0,0
1800,-166.666666666667,4,2,22,32,0,0
1958,-166.666666666667,4,2,22,72,0,0
2116,-166.666666666667,4,2,22,32,0,0
2274,-250.000000000001,4,2,22,72,0,0
2511,-166.666666666667,4,2,22,32,0,0
2590,-166.666666666667,4,2,22,72,0,0
3458,-166.666666666667,4,2,22,5,0,0
3537,-166.666666666667,4,2,22,72,0,0
3774,-166.666666666667,4,2,22,5,0,0
3853,-166.666666666667,4,2,22,72,0,0
4011,-166.666666666667,4,2,22,32,0,0
4169,-166.666666666667,4,2,22,72,0,0
4327,-166.666666666667,4,2,22,32,0,0
4485,-166.666666666667,4,2,22,72,0,0
4643,-166.666666666667,4,2,22,32,0,0
4800,-250,4,2,22,72,0,0
5037,-166.666666666667,4,2,22,32,0,0
5116,-166.666666666667,4,2,22,72,0,0
5669,-166.666666666667,4,2,22,5,0,0
5748,-166.666666666667,4,2,22,72,0,0
5985,-166.666666666667,4,2,22,5,0,0
6064,-166.666666666667,4,2,22,72,0,0
6379,-166.666666666667,4,2,22,72,0,0
6537,-166.666666666667,4,2,22,32,0,0
6695,-166.666666666667,4,2,22,72,0,0
6853,-166.666666666667,4,2,22,32,0,0
7011,-166.666666666667,4,2,22,72,0,0
7169,-166.666666666667,4,2,22,32,0,0
7326,-166.666666666667,4,2,22,72,0,0
7484,-166.666666666667,4,2,22,32,0,0
7642,-166.666666666667,4,2,22,72,0,0
8511,-166.666666666667,4,2,22,5,0,0
8590,-166.666666666667,4,2,22,72,0,0
8827,-166.666666666667,4,2,22,5,0,0
8906,-62.5,4,2,22,72,0,0
9064,-166.666666666667,4,2,22,32,0,0
9222,-166.666666666667,4,2,22,72,0,0
9380,-166.666666666667,4,2,22,32,0,0
9537,-62.5,4,2,22,72,0,0
9696,-166.666666666667,4,2,22,32,0,0
9853,-142.857142857143,4,2,22,72,0,0
10011,-166.666666666667,4,2,22,32,0,0
10169,-166.666666666667,4,2,22,72,0,0
11116,-100,4,2,22,72,0,0
11353,-100,4,2,22,5,0,0
11432,-100,4,2,22,82,0,0
12695,-76.9230769230769,4,2,22,82,0,0
13011,-100,4,2,22,82,0,0
14274,-76.9230769230769,4,2,22,82,0,0
14590,-100,4,2,22,82,0,0
16800,-76.9230769230769,4,2,22,82,0,0
17116,-105.263157894737,4,2,22,82,0,0
17906,-100,4,2,22,82,0,0
19327,-76.9230769230769,4,2,22,82,0,0
19642,-100,4,2,22,82,0,0
21221,-55.5555555555556,4,2,22,82,0,0
21458,-100,4,2,22,5,0,0
21537,-100,4,2,22,92,0,0
25327,-76.9230769230769,4,2,22,92,0,0
25958,-100,4,2,22,92,0,0
28800,-66.6666666666667,4,2,22,92,0,0
29116,-100,4,2,22,92,0,0
30458,-100,4,2,22,82,0,0
30853,-71.4285714285714,4,2,22,82,0,0
31327,-35.7142857142857,4,2,22,82,0,0
31564,-100,4,2,22,5,0,0
31642,-100,4,2,22,82,0,0

[Colours]
Combo1 : 199,215,222
Combo2 : 139,152,201
Combo3 : 92,109,175

[HitObjects]
35,209,1011,5,8,0:2:0:0:
177,64,1327,2,0,L|188:122,1,49.4999984893799,6|0,1:2|0:2,0:0:0:0:
111,161,1642,2,0,L|101:112,1,49.4999984893799,2|0,0:2|0:2,0:0:0:0:
25,160,1958,6,0,L|34:208,1,49.4999984893799,2|0,0:2|0:2,0:0:0:0:
181,249,2274,2,0,L|190:200,1,49.4999984893799,2|0,0:2|0:0,0:0:0:0:
256,375,2590,1,2,0:2:0:0:
479,209,3537,1,2,1:2:0:0:
337,64,3853,2,0,L|326:122,1,49.4999984893799,6|0,1:2|0:2,0:0:0:0:
403,161,4169,2,0,L|412:112,1,49.4999984893799,2|0,0:2|0:2,0:0:0:0:
489,160,4484,6,0,L|479:208,1,49.4999984893799,2|0,0:2|0:2,0:0:0:0:
333,249,4800,2,0,L|323:200,1,49.4999984893799,2|0,0:2|0:0,0:0:0:0:
256,375,5116,1,2,0:2:0:0:
256,32,5748,5,2,1:2:0:0:
256,375,6064,1,2,0:2:0:0:
189,310,6221,5,0,0:0:0:0:
189,310,6300,1,0,0:2:0:0:
189,310,6379,2,0,L|140:300,1,49.4999984893799,6|0,1:2|0:2,0:0:0:0:
325,310,6695,2,0,L|374:300,1,49.4999984893799,2|0,0:2|0:2,0:0:0:0:
210,228,7011,6,0,L|161:218,1,49.4999984893799,2|0,0:2|0:2,0:0:0:0:
304,228,7327,2,0,L|353:218,1,49.4999984893799,2|0,0:2|0:2,0:0:0:0:
256,32,7642,5,2,0:2:0:0:
256,32,7958,1,0,0:0:0:0:
256,32,8274,1,0,0:0:0:0:
256,375,8590,2,0,L|256:298,1,74.2499977340699,2|0,1:2|0:2,0:0:0:0:
304,228,8906,6,0,B|422:205|422:205|451:236|495:240,1,198,6|0,1:2|0:0,0:0:0:0:
496,151,9221,2,0,P|486:124|497:105,1,49.4999984893799,2|0,0:2|0:2,0:0:0:0:
491,22,9537,6,0,B|451:25|423:55|423:55|304:33,1,198,2|0,0:2|0:0,0:0:0:0:
257,98,9853,2,0,L|257:172,1,57.7499982376099,2|0,0:2|0:2,0:0:0:0:
173,131,10169,5,2,3:2:0:0:
341,131,10327,1,0,3:2:0:0:
156,131,10485,1,2,3:2:0:0:
358,131,10642,1,0,3:2:0:0:
204,34,10800,5,2,3:2:0:0:
204,34,10879,1,0,3:2:0:0:
204,34,10958,1,0,3:2:0:0:
256,240,11116,1,6,0:2:0:0:
305,33,11274,1,0,0:0:0:0:
166,223,11432,6,0,P|157:248|149:314,1,82.5,6|0,1:2|3:2,0:0:0:0:
96,364,11669,1,0,3:2:0:0:
84,370,11748,2,0,L|2:354,1,82.5,2|0,1:2|0:2,0:0:0:0:
256,240,12064,2,0,L|337:224,1,82.5,0|0,1:2|0:2,0:0:0:0:
68,149,12379,1,0,1:2:0:0:
223,352,12537,1,0,0:2:0:0:
380,127,12695,2,0,B|305:111|298:165|224:150,1,160.874992635727,0|0,1:2|0:0,0:0:0:0:
151,103,13011,6,0,L|166:22,1,82.5,2|2,1:2|0:2,0:0:0:0:
353,214,13327,2,0,L|368:295,1,82.5,2|2,1:2|0:2,0:0:0:0:
407,38,13642,2,0,L|488:23,1,82.5,0|0,1:2|0:2,0:0:0:0:
109,289,13958,1,6,1:2:0:0:
255,239,14116,1,0,3:2:0:0:
255,239,14195,1,0,3:2:0:0:
255,239,14274,6,0,B|192:251|192:251|169:278|169:278|108:290,1,160.874992635727,2|0,1:2|0:0,0:0:0:0:
36,350,14590,6,0,P|23:310|18:269,1,82.5,0|0,1:2|0:2,0:0:0:0:
139,113,14906,2,0,P|126:152|121:193,1,82.5,0|0,1:2|0:2,0:0:0:0:
243,338,15221,5,0,1:2:0:0:
31,171,15379,1,2,0:2:0:0:
281,70,15537,1,2,1:2:0:0:
110,290,15695,5,2,0:2:0:0:
187,25,15853,1,2,1:2:0:0:
377,224,16011,1,2,0:2:0:0:
377,224,16090,1,0,0:0:0:0:
377,224,16169,2,0,L|296:209,1,82.5,0|0,1:2|1:2,0:0:0:0:
447,149,16485,5,6,1:2:0:0:
510,379,16642,1,0,3:2:0:0:
510,379,16721,1,0,3:2:0:0:
510,379,16800,6,0,B|498:316|498:316|470:292|470:292|459:231,1,160.874992635727,2|0,1:2|0:0,0:0:0:0:
389,309,17116,2,0,P|376:348|371:389,1,78.3749979071618,0|0,1:2|0:2,0:0:0:0:
447,149,17432,2,0,P|442:110|429:72,1,78.3749979071618,0|0,1:2|0:2,0:0:0:0:
115,262,17748,5,0,1:2:0:0:
285,230,17906,2,0,L|204:245,1,82.5,2|2,0:2|1:2,0:0:0:0:
354,132,18221,5,2,0:2:0:0:
273,117,18379,2,0,L|354:132,1,82.5,2|2,1:2|0:2,0:0:0:0:
261,4,18695,6,0,L|180:19,1,82.5,0|0,1:2|0:2,0:0:0:0:
26,278,19011,5,6,1:2:0:0:
88,29,19169,1,0,3:2:0:0:
88,29,19248,1,0,3:2:0:0:
88,29,19327,6,0,B|98:87|98:87|126:111|126:111|138:174,1,160.874992635727,2|0,1:2|0:0,0:0:0:0:
226,157,19642,2,0,L|241:76,1,82.5,0|0,1:2|0:2,0:0:0:0:
115,262,19958,2,0,L|130:343,1,82.5,0|0,1:2|0:2,0:0:0:0:
10,87,20274,5,6,1:2:0:0:
19,96,20432,1,0,0:0:0:0:
7,100,20590,1,0,0:2:0:0:
257,323,20748,1,0,1:2:0:0:
257,323,21064,6,0,L|269:258,1,41.25,0|0,0:2|0:0,0:0:0:0:
359,252,21221,6,0,B|319:228|297:163|297:163|247:210|198:211,1,222.74999320221,0|0,1:2|0:0,0:0:0:0:
413,59,21537,6,0,P|400:98|395:139,1,82.5,14|0,1:2|3:2,0:0:0:0:
401,158,21774,1,0,3:2:0:0:
401,158,21853,1,10,1:2:0:0:
507,33,22011,1,0,0:2:0:0:
507,207,22169,6,0,P|494:168|489:127,1,82.5,10|0,1:2|0:2,0:0:0:0:
316,74,22485,2,0,L|224:57,1,82.5,10|0,1:2|0:2,0:0:0:0:
26,278,22800,5,10,1:2:0:0:
198,210,22958,1,2,0:2:0:0:
99,206,23116,2,0,P|112:245|117:286,1,82.5,10|2,1:2|0:2,0:0:0:0:
65,367,23432,1,10,1:2:0:0:
72,121,23590,1,2,0:2:0:0:
189,383,23748,2,0,P|193:342|206:303,1,82.5,10|0,1:2|0:2,0:0:0:0:
275,251,23985,5,0,0:0:0:0:
283,247,24064,2,0,L|364:261,1,82.5,14|0,1:2|3:2,0:0:0:0:
290,159,24300,5,0,3:2:0:0:
299,160,24379,2,0,L|380:174,1,82.5,10|0,1:2|0:2,0:0:0:0:
443,108,24695,2,0,P|438:67|425:28,1,82.5,10|0,1:2|0:2,0:0:0:0:
201,196,25011,2,0,P|187:235|183:275,1,82.5,10|0,1:2|0:2,0:0:0:0:
378,352,25327,6,0,B|398:278|359:263|376:187,1,160.874992635727,10|0,1:2|0:0,0:0:0:0:
379,174,25642,1,10,1:2:0:0:
478,311,25800,5,2,0:2:0:0:
464,230,25958,2,0,L|478:311,1,82.5,10|2,1:2|0:2,0:0:0:0:
274,377,26274,2,0,L|288:295,1,82.5,10|0,1:2|1:2,0:0:0:0:
342,19,26590,6,0,L|327:100,1,82.5,14|0,1:2|3:2,0:0:0:0:
251,44,26827,1,0,3:2:0:0:
243,42,26906,2,0,L|161:27,1,82.5,10|0,1:2|0:2,0:0:0:0:
419,85,27221,2,0,L|500:99,1,82.5,10|0,1:2|0:2,0:0:0:0:
291,269,27537,2,0,L|305:187,1,82.5,10|0,1:2|0:2,0:0:0:0:
342,19,27853,5,10,1:2:0:0:
238,133,28011,1,2,0:2:0:0:
77,8,28169,5,10,1:2:0:0:
323,99,28327,1,2,0:2:0:0:
121,266,28485,2,0,L|135:184,1,82.5,10|2,1:2|0:2,0:0:0:0:
177,49,28800,6,0,B|188:116|188:116|221:144|221:144|235:218,1,185.625007081032,10|0,1:2|0:0,0:0:0:0:
311,279,29116,6,0,P|325:240|329:200,1,82.5,14|0,1:2|3:2,0:0:0:0:
186,376,29353,1,0,3:2:0:0:
183,367,29432,2,0,P|169:328|165:288,1,82.5,10|0,1:2|0:2,0:0:0:0:
323,99,29748,5,10,1:2:0:0:
402,140,29906,1,0,0:2:0:0:
251,161,30064,5,10,1:2:0:0:
172,202,30222,1,0,0:2:0:0:
479,80,30379,6,0,P|493:119|497:159,2,82.5,14|0|0,1:2|0:0|0:2,0:0:0:0:
402,139,30853,6,0,P|374:221|373:308,1,173.24999471283,8|0,1:2|0:0,0:0:0:0:
374,320,31169,1,0,0:2:0:0:
477,297,31327,6,0,B|392:124|144:237|297:320|350:276|317:191,1,346.499989425659,8|0,1:2|0:2,0:0:0:0:
275,138,31642,5,2,1:2:0:0:
