osu file format v14

[General]
AudioFilename: audio.mp3
AudioLeadIn: 0
PreviewTime:21142
Countdown: 0
SampleSet: Soft
StackLeniency: 0.3
Mode: 0
LetterboxInBreaks: 0
WidescreenStoryboard: 1

[Editor]
DistanceSpacing: 0.3
BeatDivisor: 8
GridSize: 16
TimelineZoom: 1.6

[Metadata]
Title:PADORU / PADORU
TitleUnicode:PADORU / PADORU
Artist:Turbo
ArtistUnicode:Turbo
Creator:Sotarks
Version:Fatfan's Extreme
Source:Fate/EXTRA
Tags:TurboAutism eurobeats nero claudius christmas xmas remix edit Hashire sori yo Kaze no you ni Tsukimihara wo armin a_r_m_i_n agatsu akitoshi corinn -laura- kowari fieryrage ggf gottagof4st stack kyuukai yaleufeu lasse milan- nao tomori naotoshi nevo realazy reform kujinn shardex shunao shogunmoon smokelind toybot doormat kiyoshi guarden nymphe fatfan kolek haruto haruto_aizawa japanese anime electronic video game jingle bells
BeatmapID:2250747
BeatmapSetID:1073074

[Difficulty]
HPDrainRate:5.2
CircleSize:4.2
OverallDifficulty:9.2
ApproachRate:9.2
SliderMultiplier:1.82
SliderTickRate:1

[Events]
//Background and Video events
0,0,"bg.jpg",0,0
//Break Periods
//Storyboard Layer 0 (Background)
//Storyboard Layer 1 (Fail)
//Storyboard Layer 2 (Pass)
//Storyboard Layer 3 (Foreground)
//Storyboard Layer 4 (Overlay)
//Storyboard Sound Samples

[TimingPoints]
64,315.789473684211,4,2,22,62,1,0
1011,-454.545454545455,4,2,22,62,0,0
1327,-138.888888888889,4,2,22,72,0,0
1485,-138.888888888889,4,2,22,32,0,0
1642,-138.888888888889,4,2,22,72,0,0
1800,-138.888888888889,4,2,22,32,0,0
1958,-138.888888888889,4,2,22,72,0,0
2116,-138.888888888889,4,2,22,32,0,0
2274,-138.888888888889,4,2,22,72,0,0
2432,-138.888888888889,4,2,22,32,0,0
2590,-138.888888888889,4,2,22,72,0,0
3379,-833.333333333333,4,2,22,5,0,0
3537,-454.545454545455,4,2,22,72,0,0
3774,-833.333333333333,4,2,22,5,0,0
3853,-138.888888888889,4,2,22,72,0,0
4011,-138.888888888889,4,2,22,32,0,0
4169,-138.888888888889,4,2,22,72,0,0
4327,-138.888888888889,4,2,22,32,0,0
4485,-138.888888888889,4,2,22,72,0,0
4643,-138.888888888889,4,2,22,32,0,0
4800,-138.888888888889,4,2,22,72,0,0
4958,-138.888888888889,4,2,22,32,0,0
5116,-98.0392156862746,4,2,22,72,0,0
5590,-833.333333333333,4,2,22,5,0,0
5748,-75.7575757575758,4,2,22,72,0,0
5985,-833.333333333333,4,2,22,5,0,0
6064,-454.545454545455,4,2,22,72,0,0
6300,-833.333333333333,4,2,22,5,0,0
6379,-138.888888888889,4,2,22,72,0,0
6537,-138.888888888889,4,2,22,32,0,0
6695,-138.888888888889,4,2,22,72,0,0
6853,-138.888888888889,4,2,22,32,0,0
7011,-138.888888888889,4,2,22,72,0,0
7169,-138.888888888889,4,2,22,32,0,0
7326,-138.888888888889,4,2,22,72,0,0
7484,-138.888888888889,4,2,22,32,0,0
7642,-312.5,4,2,22,72,0,0
8511,-833.333333333333,4,2,22,5,0,0
8590,-98.0392156862745,4,2,22,72,0,0
8827,-833.333333333333,4,2,22,5,0,0
8906,-138.888888888889,4,2,22,72,0,0
9064,-138.888888888889,4,2,22,32,0,0
9222,-138.888888888889,4,2,22,72,0,0
9380,-138.888888888889,4,2,22,32,0,0
9538,-138.888888888889,4,2,22,72,0,0
9696,-138.888888888889,4,2,22,32,0,0
9853,-138.888888888889,4,2,22,72,0,0
10011,-138.888888888889,4,2,22,32,0,0
10169,-138.888888888889,4,2,22,72,0,0
11116,-81.9672131147541,4,2,22,72,0,0
11136,-81.9672131147541,4,2,22,25,0,0
11353,-833.333333333333,4,2,22,5,0,0
11432,-98.0392156862746,4,2,22,82,0,0
12064,-192.307692307693,4,2,22,82,0,0
13958,-98.0392156862747,4,2,22,82,0,0
14590,-138.888888888889,4,2,22,82,0,0
16485,-98.0392156862747,4,2,22,82,0,0
17116,-108.695652173913,4,2,22,82,0,0
19011,-98.0392156862744,4,2,22,82,0,0
21537,-89.2857142857144,4,2,22,92,0,1
29116,-89.2857142857144,4,2,22,92,0,1
30379,-66.6666666666667,4,2,22,92,0,0
30458,-66.6666666666667,4,2,22,82,0,0
31564,-833.333333333333,4,2,22,5,0,0
31642,-833.333333333333,4,2,22,82,0,0

[Colours]
Combo1 : 199,215,222
Combo2 : 139,152,201
Combo3 : 92,109,175

[HitObjects]
150,152,1011,6,0,L|122:149,1,20.0200006109619,8|0,0:2|0:0,0:0:0:0:
37,175,1327,6,0,L|42:109,1,65.5200015996094,6|0,1:2|0:2,0:0:0:0:
110,52,1643,2,0,L|175:57,1,65.5200015996094,2|0,0:2|0:2,0:0:0:0:
234,125,1959,2,0,L|228:190,1,65.5200015996094,2|0,0:2|0:2,0:0:0:0:
160,249,2274,2,0,L|94:243,1,65.5200015996094,2|0,0:2|0:2,0:0:0:0:
94,102,2590,6,0,B|182:109|182:109|174:198|174:198|85:190|85:190|91:130,1,327.600007998047,2|0,0:2|0:0,0:0:0:0:
362,152,3537,6,0,L|390:149,1,20.0200006109619,2|0,1:2|0:0,0:0:0:0:
493,172,3853,6,0,L|486:92,1,65.5200015996094,6|0,1:2|0:2,0:0:0:0:
401,35,4169,2,0,L|321:41,1,65.5200015996094,2|0,0:2|0:2,0:0:0:0:
264,128,4485,2,0,L|270:207,1,65.5200015996094,2|0,0:2|0:2,0:0:0:0:
357,264,4800,2,0,L|436:257,1,65.5200015996094,2|0,0:2|0:2,0:0:0:0:
414,109,5116,6,0,B|338:115|338:115|345:190|345:190|420:184|420:184|416:133,1,278.460001699585,2|0,0:2|0:0,0:0:0:0:
394,131,5748,2,0,B|360:133|360:133|363:166|363:166|395:163|395:163|394:137,1,120.119999633423,2|0,1:2|0:0,0:0:0:0:
256,336,6064,6,0,L|256:364,1,20.0200006109619,2|0,0:2|0:0,0:0:0:0:
162,277,6379,6,0,L|175:192,1,65.5200015996094,6|0,1:2|0:2,0:0:0:0:
350,277,6695,2,0,L|337:192,1,65.5200015996094,2|0,0:2|0:2,0:0:0:0:
80,208,7011,2,0,L|93:123,1,65.5200015996094,2|0,0:2|0:2,0:0:0:0:
432,208,7327,2,0,L|419:123,1,65.5200015996094,2|0,0:2|0:2,0:0:0:0:
338,95,7642,6,0,L|333:57,1,29.12,2|0,0:2|0:0,0:0:0:0:
256,18,7958,2,0,L|256:48,1,29.12,2|0,0:2|0:0,0:0:0:0:
174,95,8274,2,0,L|177:66,1,29.12,2|0,0:2|0:0,0:0:0:0:
256,176,8590,6,0,L|256:272,1,92.8200005665283,2|0,1:2|0:0,0:0:0:0:
128,344,8906,6,0,P|117:313|119:280,1,65.5200015996094,6|0,1:2|0:2,0:0:0:0:
104,64,9221,2,0,P|134:53|167:55,1,65.5200015996094,2|0,0:2|0:2,0:0:0:0:
384,40,9537,2,0,P|394:70|392:103,1,65.5200015996094,2|0,0:2|0:2,0:0:0:0:
408,320,9853,2,0,P|377:330|344:328,1,65.5200015996094,2|0,0:2|0:2,0:0:0:0:
196,272,10169,5,2,3:2:0:0:
176,132,10327,1,0,3:2:0:0:
316,112,10485,1,2,3:2:0:0:
336,252,10642,1,0,3:2:0:0:
196,272,10800,1,2,3:2:0:0:
176,132,10958,1,0,3:2:0:0:
316,112,11116,6,0,L|320:149,6,27.7549988565293,6|0|0|0|0|0|0,0:2|0:0|0:0|0:0|0:0|0:0|0:0,0:0:0:0:
300,23,11432,5,6,1:2:0:0:
441,57,11589,1,0,3:2:0:0:
441,57,11668,1,0,3:2:0:0:
441,57,11748,2,0,L|429:155,1,92.8200005665283,2|0,1:2|0:2,0:0:0:0:
264,240,12064,6,0,L|271:306,1,47.3199997111816,0|0,1:2|0:2,0:0:0:0:
183,199,12379,2,0,L|175:134,1,47.3199997111816,0|0,1:2|0:2,0:0:0:0:
167,69,12695,1,0,1:2:0:0:
346,314,12853,5,2,0:2:0:0:
379,102,13011,1,2,1:2:0:0:
167,69,13169,1,2,0:2:0:0:
134,281,13327,1,2,1:2:0:0:
346,314,13485,1,2,0:2:0:0:
379,102,13643,1,0,1:2:0:0:
213,360,13958,5,6,1:2:0:0:
71,327,14115,1,0,3:2:0:0:
71,327,14194,1,0,3:2:0:0:
71,327,14274,2,0,L|83:229,1,92.8200005665283,2|0,1:2|0:2,0:0:0:0:
249,124,14590,6,0,L|242:58,1,65.5200015996094,0|0,1:2|0:2,0:0:0:0:
336,160,14906,2,0,L|344:225,1,65.5200015996094,0|0,1:2|0:2,0:0:0:0:
350,321,15221,1,0,1:2:0:0:
162,64,15380,5,2,0:2:0:0:
127,286,15538,1,2,1:2:0:0:
350,321,15696,1,2,0:2:0:0:
384,98,15854,1,2,1:2:0:0:
162,64,16011,1,2,0:2:0:0:
127,286,16169,1,0,1:2:0:0:
299,24,16485,5,6,1:2:0:0:
441,57,16642,1,0,3:2:0:0:
441,57,16721,1,0,3:2:0:0:
441,57,16800,2,0,L|429:155,1,92.8200005665283,2|0,1:2|0:2,0:0:0:0:
287,287,17116,6,0,L|298:385,1,83.7199971895753,0|0,1:2|0:2,0:0:0:0:
177,246,17432,2,0,L|165:150,1,83.7199971895753,0|0,1:2|0:2,0:0:0:0:
149,42,17748,1,0,1:2:0:0:
366,339,17907,5,2,0:2:0:0:
405,82,18065,1,2,1:2:0:0:
149,42,18221,1,2,0:2:0:0:
108,298,18379,1,2,1:2:0:0:
366,339,18537,1,2,0:2:0:0:
405,82,18695,1,0,1:2:0:0:
149,42,18853,1,0,0:2:0:0:
108,298,19011,6,0,L|17:277,1,92.8200005665283,6|0,1:2|3:2,0:0:0:0:
388,173,19327,2,0,L|478:152,1,92.8200005665283,2|0,1:2|0:2,0:0:0:0:
137,72,19642,5,0,1:2:0:0:
117,182,19800,1,0,0:2:0:0:
246,92,19958,1,0,1:2:0:0:
227,202,20116,1,0,0:2:0:0:
342,59,20274,6,0,B|436:50|436:50|444:145,1,185.640001133057,6|0,1:2|0:2,0:0:0:0:
329,284,20748,2,0,B|234:292|234:292|226:197,1,185.640001133057,0|0,1:2|0:2,0:0:0:0:
327,160,21221,2,0,B|352:162|352:162|350:187|350:187|325:184|325:184|327:160,1,92.8200005665283,0|0,1:2|0:0,0:0:0:0:
186,37,21537,5,14,1:2:0:0:
69,19,21695,1,0,3:2:0:0:
69,19,21774,1,0,3:2:0:0:
69,19,21853,2,0,L|89:118,1,101.920001244141,10|0,1:2|0:2,0:0:0:0:
277,257,22169,5,10,1:2:0:0:
199,151,22327,1,0,0:2:0:0:
325,192,22485,1,10,1:2:0:0:
199,232,22642,1,0,0:2:0:0:
277,126,22800,1,10,1:2:0:0:
166,314,22958,5,2,0:2:0:0:
133,102,23116,1,10,1:2:0:0:
345,69,23274,1,2,0:2:0:0:
378,281,23432,1,10,1:2:0:0:
166,314,23590,1,2,0:2:0:0:
133,102,23748,1,10,1:2:0:0:
326,347,24064,5,14,1:2:0:0:
443,365,24222,1,0,3:2:0:0:
443,365,24301,1,0,3:2:0:0:
443,365,24380,2,0,L|423:266,1,101.920001244141,10|0,1:2|0:2,0:0:0:0:
235,127,24695,5,10,1:2:0:0:
313,233,24853,1,0,0:2:0:0:
187,192,25011,1,10,1:2:0:0:
313,152,25168,1,0,0:2:0:0:
235,258,25326,1,10,1:2:0:0:
350,64,25485,5,2,0:2:0:0:
385,286,25642,1,10,1:2:0:0:
162,321,25800,1,2,0:2:0:0:
128,98,25958,1,10,1:2:0:0:
350,64,26115,1,2,0:2:0:0:
385,286,26273,1,10,1:2:0:0:
186,37,26590,5,14,1:2:0:0:
69,19,26748,1,0,3:2:0:0:
69,19,26827,1,0,3:2:0:0:
69,19,26906,2,0,L|89:118,1,101.920001244141,10|0,1:2|0:2,0:0:0:0:
277,257,27221,5,10,1:2:0:0:
199,151,27379,1,0,0:2:0:0:
325,192,27537,1,10,1:2:0:0:
199,232,27694,1,0,0:2:0:0:
277,126,27852,1,10,1:2:0:0:
146,339,28011,5,2,0:2:0:0:
106,82,28169,1,10,1:2:0:0:
362,42,28327,1,2,0:2:0:0:
403,298,28485,1,10,1:2:0:0:
146,339,28643,1,2,0:2:0:0:
106,82,28800,1,10,1:2:0:0:
362,42,28958,1,0,0:2:0:0:
426,314,29116,6,0,L|278:343,1,101.920001244141,14|0,1:2|3:2,0:0:0:0:
82,65,29432,2,0,L|230:36,1,101.920001244141,10|0,1:2|0:2,0:0:0:0:
129,362,29748,2,0,L|100:214,1,101.920001244141,10|0,1:2|0:2,0:0:0:0:
378,18,30064,2,0,L|407:166,1,101.920001244141,10|0,1:2|0:2,0:0:0:0:
305,251,30379,6,0,B|196:241|196:241|206:132|206:132|315:142|315:142|308:223,1,409.500015621186,14|8,1:2|1:2,0:0:0:0:
222,152,31169,5,0,0:2:0:0:
222,152,31327,2,0,B|295:157|295:157|288:231|288:231|214:225|214:225|219:175,1,273.000010414124,8|2,1:2|1:2,0:0:0:0:
