osu file format v14

[General]
AudioFilename: audio.mp3
AudioLeadIn: 0
PreviewTime:21142
Countdown: 0
SampleSet: Soft
StackLeniency: 0.7
Mode: 0
LetterboxInBreaks: 0
WidescreenStoryboard: 1

[Editor]
DistanceSpacing: 0.2
BeatDivisor: 4
GridSize: 16
TimelineZoom: 1.6

[Metadata]
Title:PADORU / PADORU
TitleUnicode:PADORU / PADORU
Artist:Turbo
ArtistUnicode:Turbo
Creator:Sotarks
Version:Expert
Source:Fate/EXTRA
Tags:TurboAutism eurobeats nero claudius christmas xmas remix edit Hashire sori yo Kaze no you ni Tsukimihara wo armin a_r_m_i_n agatsu akitoshi corinn -laura- kowari fieryrage ggf gottagof4st stack kyuukai yaleufeu lasse milan- nao tomori naotoshi nevo realazy reform kujinn shardex shunao shogunmoon smokelind toybot doormat kiyoshi guarden nymphe fatfan kolek haruto haruto_aizawa japanese anime electronic video game jingle bells
BeatmapID:2245771
BeatmapSetID:1073074

[Difficulty]
HPDrainRate:6.2
CircleSize:4.2
OverallDifficulty:8.2
ApproachRate:9.2
SliderMultiplier:1.82
SliderTickRate:1

[Events]
//Background and Video events
0,0,"bg.jpg",0,0
//Break Periods
//Storyboard Layer 0 (Background)
//Storyboard Layer 1 (Fail)
//Storyboard Layer 2 (Pass)
//Storyboard Layer 3 (Foreground)
//Storyboard Layer 4 (Overlay)
//Storyboard Sound Samples

[TimingPoints]
64,315.789473684211,4,2,22,62,1,0
1011,-81.9672131147541,4,2,22,62,0,0
1327,-75.7575757575758,4,2,22,72,0,0
1485,-75.7575757575758,4,2,22,32,0,0
1642,-75.7575757575758,4,2,22,72,0,0
1800,-75.7575757575758,4,2,22,32,0,0
1958,-75.7575757575758,4,2,22,72,0,0
2116,-75.7575757575758,4,2,22,32,0,0
2274,-75.7575757575758,4,2,22,72,0,0
2432,-75.7575757575758,4,2,22,32,0,0
2590,-833.333333333333,4,2,22,72,0,0
3458,-833.333333333333,4,2,22,5,0,0
3537,-81.9672131147541,4,2,22,72,0,0
3774,-833.333333333333,4,2,22,5,0,0
3853,-75.7575757575758,4,2,22,72,0,0
4011,-138.888888888889,4,2,22,32,0,0
4169,-138.888888888889,4,2,22,72,0,0
4327,-138.888888888889,4,2,22,32,0,0
4485,-138.888888888889,4,2,22,72,0,0
4643,-138.888888888889,4,2,22,32,0,0
4800,-138.888888888889,4,2,22,72,0,0
4958,-138.888888888889,4,2,22,32,0,0
5116,-833.333333333333,4,2,22,72,0,0
5669,-833.333333333333,4,2,22,5,0,0
5748,-75.7575757575758,4,2,22,72,0,0
5985,-833.333333333333,4,2,22,5,0,0
6064,-833.333333333333,4,2,22,72,0,0
6300,-833.333333333333,4,2,22,5,0,0
6379,-75.7575757575758,4,2,22,72,0,0
6537,-138.888888888889,4,2,22,32,0,0
6695,-138.888888888889,4,2,22,72,0,0
6853,-138.888888888889,4,2,22,32,0,0
7011,-138.888888888889,4,2,22,72,0,0
7169,-138.888888888889,4,2,22,32,0,0
7326,-138.888888888889,4,2,22,72,0,0
7484,-138.888888888889,4,2,22,32,0,0
7642,-833.333333333333,4,2,22,72,0,0
8511,-833.333333333333,4,2,22,5,0,0
8590,-81.9672131147541,4,2,22,72,0,0
8827,-833.333333333333,4,2,22,5,0,0
8906,-75.7575757575758,4,2,22,72,0,0
9064,-138.888888888889,4,2,22,32,0,0
9222,-138.888888888889,4,2,22,72,0,0
9380,-138.888888888889,4,2,22,32,0,0
9538,-138.888888888889,4,2,22,72,0,0
9696,-138.888888888889,4,2,22,32,0,0
9853,-138.888888888889,4,2,22,72,0,0
10011,-138.888888888889,4,2,22,32,0,0
10169,-833.33333333334,4,2,22,72,0,0
11116,-81.9672131147541,4,2,22,72,0,0
11353,-833.333333333333,4,2,22,5,0,0
11432,-98.0392156862745,4,2,22,82,0,0
21537,-89.2857142857143,4,2,22,92,0,1
30379,-89.2857142857143,4,2,22,92,0,0
30458,-89.2857142857143,4,2,22,82,0,0
31564,-833.333333333333,4,2,22,5,0,0
31642,-833.333333333333,4,2,22,82,0,0

[Colours]
Combo1 : 199,215,222
Combo2 : 139,152,201
Combo3 : 92,109,175

[HitObjects]
283,145,1011,6,0,P|240:97|255:97,1,166.529993139176,8|0,0:2|0:0,0:0:0:0:
283,145,1327,6,0,P|269:220|262:338,1,180.179999450134,6|0,1:2|0:0,0:2:0:0:
268,343,1642,1,2,0:2:0:0:
246,264,1958,1,2,0:2:0:0:
280,180,2274,1,2,0:2:0:0:
254,78,2590,6,0,L|248:17,1,60.0600014663086,2|0,0:2|0:2,0:2:0:0:
248,18,3537,6,0,P|186:80|152:19,1,166.529993139176,2|0,1:2|0:2,0:2:0:0:
150,36,3853,6,0,L|127:261,1,180.179999450134,6|0,1:2|0:0,0:2:0:0:
141,240,4169,1,2,0:2:0:0:
94,151,4485,1,2,0:2:0:0:
175,67,4800,1,2,0:2:0:0:
162,161,5116,6,0,L|125:148,1,38.2200009331055,2|0,0:2|0:2,0:2:0:0:
96,179,5748,6,0,L|280:153,1,180.179999450134,2|0,1:2|0:2,0:2:0:0:
305,182,6064,6,0,L|286:178,1,16.3800003999024,2|0,0:2|0:2,0:2:0:0:
341,113,6379,6,0,P|382:183|341:283,1,180.179999450134,6|0,1:2|0:0,0:2:0:0:
333,283,6695,1,2,0:2:0:0:
415,227,7011,1,2,0:2:0:0:
425,127,7327,1,2,0:2:0:0:
384,39,7642,6,0,L|323:50,1,60.0600014663086,2|0,0:2|0:2,0:2:0:0:
297,73,8590,6,0,P|234:15|231:69,1,166.529993139176,2|0,1:2|0:2,0:2:0:0:
222,44,8906,6,0,P|241:167|243:254,1,180.179999450134,6|0,1:2|0:0,0:2:0:0:
226,243,9221,1,2,0:2:0:0:
288,154,9537,1,2,0:2:0:0:
377,207,9853,1,2,0:2:0:0:
315,295,10169,6,0,L|304:235,1,60.0600014663086,2|0,3:2|0:0,0:0:0:0:
377,207,11116,6,0,B|294:199|294:199|300:191|300:191|191:180,1,166.529993139176,6|0,0:2|0:2,0:2:0:0:
140,173,11432,5,6,1:2:0:0:
310,94,11590,1,0,3:2:0:0:
306,79,11669,1,0,3:2:0:0:
302,64,11748,1,2,1:2:0:0:
229,106,12064,5,0,1:2:0:0:
309,177,12222,1,0,0:2:0:0:
394,101,12379,1,0,1:2:0:0:
314,30,12537,1,0,0:2:0:0:
311,102,12695,1,0,1:2:0:0:
402,218,12853,5,2,0:2:0:0:
385,291,13011,1,2,1:2:0:0:
235,252,13169,1,2,0:2:0:0:
217,180,13327,1,2,1:2:0:0:
315,226,13485,2,0,L|301:325,1,92.8200005665283,2|0,0:2|1:2,0:0:0:0:
315,226,13800,1,0,0:2:0:0:
170,356,13958,1,6,1:2:0:0:
109,200,14116,1,0,3:2:0:0:
105,215,14195,1,0,3:2:0:0:
101,230,14274,1,2,1:2:0:0:
191,196,14590,5,0,1:2:0:0:
111,125,14748,1,0,0:2:0:0:
26,201,14905,1,0,1:2:0:0:
106,272,15063,1,0,0:2:0:0:
109,200,15221,1,0,1:2:0:0:
282,292,15379,5,2,0:2:0:0:
299,213,15537,1,2,1:2:0:0:
470,251,15695,1,2,0:2:0:0:
446,176,15853,1,2,1:2:0:0:
382,251,16011,1,2,0:2:0:0:
265,94,16169,1,0,1:2:0:0:
214,215,16327,1,0,1:2:0:0:
402,103,16485,5,6,1:2:0:0:
300,258,16642,1,0,3:2:0:0:
302,273,16721,1,0,3:2:0:0:
305,289,16800,1,2,1:2:0:0:
357,181,17116,5,0,1:2:0:0:
262,164,17274,1,0,0:2:0:0:
179,259,17432,1,0,1:2:0:0:
92,291,17590,1,0,0:2:0:0:
112,211,17748,1,0,1:2:0:0:
236,344,17906,5,2,0:2:0:0:
315,309,18064,1,2,1:2:0:0:
264,181,18221,1,2,0:2:0:0:
343,216,18379,1,2,1:2:0:0:
372,88,18537,1,2,0:2:0:0:
422,157,18695,1,0,1:2:0:0:
251,87,18853,1,0,0:2:0:0:
102,171,19011,5,6,1:2:0:0:
336,166,19169,1,0,3:2:0:0:
338,181,19248,1,0,3:2:0:0:
341,197,19327,1,2,1:2:0:0:
252,135,19642,5,0,1:2:0:0:
341,285,19800,1,0,0:2:0:0:
509,208,19958,1,0,1:2:0:0:
420,58,20116,1,0,0:2:0:0:
378,175,20274,6,0,P|263:163|195:151,1,185.640001133057,6|0,1:2|0:2,0:2:0:0:
242,235,20748,2,0,P|150:250|58:259,1,185.640001133057,0|0,1:2|0:2,0:2:0:0:
11,331,21221,1,0,1:2:0:0:
333,26,21537,5,14,1:2:0:0:
129,140,21695,1,0,3:2:0:0:
125,117,21774,1,0,3:2:0:0:
122,97,21853,2,0,L|298:134,1,152.880001866211,10|0,1:2|0:0,0:2:0:0:
254,104,22169,1,10,1:2:0:0:
208,222,22327,1,0,0:2:0:0:
256,364,22485,1,10,1:2:0:0:
282,295,22642,2,0,L|229:307,1,50.9600006220703,0|0,0:2|0:0,0:0:0:0:
346,338,22800,1,10,1:2:0:0:
366,230,22958,5,2,0:2:0:0:
311,139,23116,1,10,1:2:0:0:
346,50,23274,1,2,0:2:0:0:
203,124,23432,1,10,1:2:0:0:
189,31,23590,1,2,0:2:0:0:
260,67,23748,1,10,1:2:0:0:
134,87,23906,1,0,0:2:0:0:
223,254,24064,5,14,1:2:0:0:
373,125,24221,1,0,3:2:0:0:
377,102,24300,1,0,3:2:0:0:
380,82,24379,2,0,L|204:119,1,152.880001866211,10|0,1:2|0:0,0:2:0:0:
248,89,24695,1,10,1:2:0:0:
243,77,24853,1,0,0:2:0:0:
131,157,25011,1,10,1:2:0:0:
136,145,25169,1,0,0:2:0:0:
243,258,25327,1,10,1:2:0:0:
175,222,25485,5,2,0:2:0:0:
289,195,25642,1,10,1:2:0:0:
311,297,25800,1,2,0:2:0:0:
197,324,25957,1,10,1:2:0:0:
369,222,26116,1,2,0:2:0:0:
209,124,26274,2,0,L|201:175,1,50.9600006220703,10|0,1:2|0:0,0:0:0:0:
357,49,26432,2,0,L|365:100,1,50.9600006220703,0|0,1:2|0:0,0:0:0:0:
166,6,26590,5,14,1:2:0:0:
285,179,26748,1,0,3:2:0:0:
289,202,26827,1,0,3:2:0:0:
292,222,26906,2,0,L|116:185,1,152.880001866211,10|0,1:2|0:0,0:2:0:0:
160,215,27222,1,10,1:2:0:0:
321,315,27379,1,0,0:2:0:0:
246,340,27537,1,10,1:2:0:0:
380,131,27695,1,0,0:2:0:0:
305,106,27853,1,10,1:2:0:0:
424,241,28011,5,2,0:2:0:0:
447,56,28169,1,10,1:2:0:0:
265,30,28327,1,2,0:2:0:0:
242,215,28485,1,10,1:2:0:0:
380,131,28642,1,2,0:2:0:0:
205,290,28800,2,0,L|86:266,1,101.920001244141,10|0,1:2|0:2,0:0:0:0:
455,333,29116,6,0,L|355:353,1,101.920001244141,14|0,1:2|3:2,0:0:0:0:
397,269,29353,1,0,3:2:0:0:
320,285,29432,2,0,L|144:251,1,152.880001866211,10|0,1:2|0:0,0:2:0:0:
46,229,29748,6,0,B|37:177|37:177|83:126,1,101.920001244141,10|0,1:2|0:2,0:0:0:0:
378,28,30064,2,0,B|414:68|414:68|399:114,1,101.920001244141,10|0,1:2|0:2,0:0:0:0:
208,150,30379,6,0,P|222:102|218:162,1,203.840002488281,14|0,1:2|0:2,0:2:0:0:
183,269,30853,2,0,P|226:244|181:284,1,203.840002488281,8|0,1:2|0:2,0:2:0:0:
112,350,31327,2,0,P|86:279|127:189,1,152.880001866211,8|0,1:2|0:2,0:2:0:0:
119,326,31642,5,2,1:2:0:0:
