osu file format v14

[General]
AudioFilename: audio.mp3
AudioLeadIn: 0
PreviewTime:21142
Countdown: 0
SampleSet: Soft
StackLeniency: 0.7
Mode: 0
LetterboxInBreaks: 0
WidescreenStoryboard: 1

[Editor]
DistanceSpacing: 1
BeatDivisor: 4
GridSize: 16
TimelineZoom: 1.6

[Metadata]
Title:PADORU / PADORU
TitleUnicode:PADORU / PADORU
Artist:Turbo
ArtistUnicode:Turbo
Creator:Sotarks
Version:Collab Normal
Source:Fate/EXTRA
Tags:TurboAutism eurobeats nero claudius christmas xmas remix edit Hashire sori yo Kaze no you ni Tsukimihara wo armin a_r_m_i_n agatsu akitoshi corinn -laura- kowari fieryrage ggf gottagof4st stack kyuukai yaleufeu lasse milan- nao tomori naotoshi nevo realazy reform kujinn shardex shunao shogunmoon smokelind toybot doormat kiyoshi guarden nymphe fatfan kolek haruto haruto_aizawa japanese anime electronic video game jingle bells
BeatmapID:2245770
BeatmapSetID:1073074

[Difficulty]
HPDrainRate:3
CircleSize:3
OverallDifficulty:4
ApproachRate:5
SliderMultiplier:1.02
SliderTickRate:1

[Events]
//Background and Video events
0,0,"bg.jpg",0,0
//Break Periods
//Storyboard Layer 0 (Background)
//Storyboard Layer 1 (Fail)
//Storyboard Layer 2 (Pass)
//Storyboard Layer 3 (Foreground)
//Storyboard Layer 4 (Overlay)
//Storyboard Sound Samples

[TimingPoints]
64,315.789473684211,4,2,22,62,1,0
1327,-121.951219512195,4,2,22,72,0,0
1485,-121.951219512195,4,2,22,32,0,0
1642,-121.951219512195,4,2,22,72,0,0
1800,-121.951219512195,4,2,22,32,0,0
1958,-121.951219512195,4,2,22,72,0,0
2116,-121.951219512195,4,2,22,32,0,0
2274,-121.951219512195,4,2,22,72,0,0
2432,-121.951219512195,4,2,22,32,0,0
2590,-121.951219512195,4,2,22,72,0,0
3458,-121.951219512195,4,2,22,5,0,0
3537,-121.951219512195,4,2,22,72,0,0
3774,-121.951219512195,4,2,22,5,0,0
3853,-121.951219512195,4,2,22,72,0,0
4011,-121.951219512195,4,2,22,32,0,0
4169,-121.951219512195,4,2,22,72,0,0
4327,-121.951219512195,4,2,22,32,0,0
4485,-121.951219512195,4,2,22,72,0,0
4643,-121.951219512195,4,2,22,32,0,0
4800,-121.951219512195,4,2,22,72,0,0
4958,-121.951219512195,4,2,22,32,0,0
5116,-121.951219512195,4,2,22,72,0,0
5669,-121.951219512195,4,2,22,5,0,0
5748,-121.951219512195,4,2,22,72,0,0
5985,-121.951219512195,4,2,22,5,0,0
6064,-121.951219512195,4,2,22,72,0,0
6300,-121.951219512195,4,2,22,5,0,0
6379,-121.951219512195,4,2,22,72,0,0
6537,-121.951219512195,4,2,22,32,0,0
6695,-121.951219512195,4,2,22,72,0,0
6853,-121.951219512195,4,2,22,32,0,0
7011,-121.951219512195,4,2,22,72,0,0
7169,-121.951219512195,4,2,22,32,0,0
7326,-121.951219512195,4,2,22,72,0,0
7484,-121.951219512195,4,2,22,32,0,0
7642,-121.951219512195,4,2,22,72,0,0
8511,-121.951219512195,4,2,22,5,0,0
8590,-121.951219512195,4,2,22,72,0,0
8827,-121.951219512195,4,2,22,5,0,0
8906,-121.951219512195,4,2,22,72,0,0
9064,-121.951219512195,4,2,22,32,0,0
9222,-121.951219512195,4,2,22,72,0,0
9380,-121.951219512195,4,2,22,32,0,0
9538,-121.951219512195,4,2,22,72,0,0
9696,-121.951219512195,4,2,22,32,0,0
9853,-121.951219512195,4,2,22,72,0,0
10011,-121.951219512195,4,2,22,32,0,0
10169,-121.951219512195,4,2,22,72,0,0
11353,-121.951219512195,4,2,22,5,0,0
11432,-98.0392156862744,4,2,22,82,0,0
21537,-89.2857142857143,4,2,22,92,0,1
30379,-89.2857142857143,4,2,22,92,0,0
30458,-89.2857142857143,4,2,22,82,0,0
31564,-89.2857142857143,4,2,22,5,0,0
31642,-89.2857142857143,4,2,22,82,0,0

[Colours]
Combo1 : 199,215,222
Combo2 : 139,152,201
Combo3 : 92,109,175

[HitObjects]
70,353,1011,5,8,0:2:0:0:
118,284,1327,2,0,P|165:290|209:309,1,83.6400012762451,6|2,1:2|0:2,0:2:0:0:
267,255,1958,2,0,P|249:206|241:160,1,83.6400012762451,2|2,0:2|0:2,0:2:0:0:
280,100,2590,1,2,0:2:0:0:
38,32,3537,5,2,1:2:0:0:
102,85,3853,2,0,P|86:123|68:181,1,83.6400012762451,6|2,1:2|0:2,0:2:0:0:
18,226,4485,2,0,P|34:264|52:322,1,83.6400012762451,2|2,0:2|0:2,0:2:0:0:
74,383,5116,1,2,0:2:0:0:
179,253,5748,6,0,P|212:233|264:238,1,83.6400012762451,2|2,1:2|0:2,0:2:0:0:
323,283,6379,2,0,P|371:301|406:290,1,83.6400012762451,6|2,1:2|0:2,0:2:0:0:
459,233,7011,2,0,P|446:166|442:139,1,83.6400012762451,2|2,0:2|0:2,0:2:0:0:
426,68,7642,2,0,P|450:62|514:90,2,83.6400012762451,2|0|0,0:2|0:0|0:0,0:2:0:0:
359,118,8590,1,2,1:2:0:0:
286,75,8906,6,0,B|246:68|261:44|192:38,1,83.6400012762451,6|2,1:2|0:2,0:2:0:0:
169,42,9379,1,0,0:2:0:0:
169,42,9537,1,2,0:2:0:0:
117,108,9853,1,2,0:2:0:0:
163,177,10169,2,0,P|209:168|262:162,1,83.6400012762451,2|2,3:2|3:2,0:0:0:0:
306,221,10800,2,0,P|297:246|294:269,2,41.8200006381226,2|0|6,3:2|3:2|0:2,0:0:0:0:
368,137,11432,6,0,P|350:46|349:19,1,104.04000063501,6|2,1:2|1:2,0:0:0:0:
249,67,12064,2,0,P|200:53|182:51,1,52.0200003175049,0|0,1:2|0:2,0:0:0:0:
149,69,12379,1,0,1:2:0:0:
212,151,12695,1,0,1:2:0:0:
212,151,12853,2,0,P|201:200|199:217,2,52.0200003175049,2|2|2,0:2|1:2|0:2,0:0:0:0:
246,112,13327,1,2,1:2:0:0:
246,112,13485,2,0,P|301:144|353:132,1,104.04000063501,2|0,0:2|0:2,0:0:0:0:
374,100,13958,6,0,P|385:186|388:214,1,104.04000063501,6|2,1:2|1:2,0:0:0:0:
385,307,14590,2,0,P|344:286|329:285,1,52.0200003175049,0|0,1:2|0:2,0:0:0:0:
288,300,14906,1,0,1:2:0:0:
201,242,15221,1,0,1:2:0:0:
201,242,15379,2,0,P|211:195|211:170,2,52.0200003175049,2|2|2,0:2|1:2|0:2,0:0:0:0:
180,290,15853,1,2,1:2:0:0:
180,290,16011,2,0,P|117:263|77:274,1,104.04000063501,2|0,0:2|1:2,0:0:0:0:
39,296,16485,6,0,P|36:232|26:178,1,104.04000063501,6|2,1:2|1:2,0:0:0:0:
20,88,17116,2,0,P|56:94|91:102,1,52.0200003175049,0|0,1:2|0:2,0:0:0:0:
116,122,17432,1,0,1:2:0:0:
202,64,17748,1,0,1:2:0:0:
202,64,17906,2,0,P|197:30|195:0,2,52.0200003175049,2|2|2,0:2|1:2|0:2,0:0:0:0:
228,108,18379,1,2,1:2:0:0:
228,108,18537,2,0,P|306:66|334:78,1,104.04000063501,2|0,0:2|0:2,0:0:0:0:
352,103,19011,6,0,P|364:172|357:216,1,104.04000063501,6|2,1:2|1:2,0:0:0:0:
280,272,19642,2,0,P|247:261|220:257,1,52.0200003175049,0|0,1:2|0:2,0:0:0:0:
188,289,19958,2,0,P|155:300|128:304,1,52.0200003175049,0|0,1:2|0:2,0:0:0:0:
89,284,20274,2,0,P|67:240|127:161,2,156.060000952515,6|0|0,1:2|1:2|1:2,0:2:0:0:
177,356,21537,5,14,1:2:0:0:
177,356,21695,2,0,L|251:369,1,57.1200006972656,0|10,3:2|1:2,0:0:0:0:
335,313,22169,2,0,P|338:280|330:243,1,57.1200006972656,10|0,1:2|0:2,0:0:0:0:
291,219,22485,2,0,P|287:186|296:149,1,57.1200006972656,10|0,1:2|0:2,0:0:0:0:
336,127,22800,6,0,L|457:141,1,114.240001394531,10|10,1:2|1:2,0:0:0:0:
505,154,23274,1,2,0:2:0:0:
505,154,23432,2,0,L|514:83,1,57.1200006972656,10|2,1:2|0:2,0:0:0:0:
500,40,23748,1,10,1:2:0:0:
390,8,24064,5,14,1:2:0:0:
390,8,24221,2,0,L|317:18,1,57.1200006972656,0|10,3:2|1:2,0:0:0:0:
256,100,24695,2,0,P|223:118|197:118,1,57.1200006972656,10|0,1:2|0:2,0:0:0:0:
154,89,25011,2,0,P|112:73|87:75,1,57.1200006972656,10|0,1:2|0:2,0:0:0:0:
47,96,25327,6,0,L|57:218,1,114.240001394531,10|10,1:2|1:2,0:0:0:0:
85,259,25800,2,0,L|75:328,1,57.1200006972656,2|10,0:2|1:2,0:0:0:0:
179,366,26274,1,10,1:2:0:0:
179,366,26432,1,0,1:2:0:0:
179,366,26590,6,0,L|247:357,1,57.1200006972656,14|0,1:2|3:2,0:0:0:0:
292,349,26906,1,10,1:2:0:0:
375,271,27221,2,0,P|376:236|365:210,1,57.1200006972656,10|0,1:2|0:2,0:0:0:0:
319,185,27537,2,0,L|251:191,1,57.1200006972656,10|0,1:2|0:2,0:0:0:0:
204,195,27853,6,0,P|178:162|196:90,1,114.240001394531,10|10,1:2|1:2,0:0:0:0:
239,63,28327,1,2,0:2:0:0:
239,63,28485,2,0,L|304:69,1,57.1200006972656,10|2,1:2|0:2,0:0:0:0:
352,75,28800,1,10,1:2:0:0:
466,80,29116,6,0,P|475:112|463:146,1,57.1200006972656,14|0,1:2|3:2,0:0:0:0:
452,189,29432,1,10,1:2:0:0:
394,286,29748,2,0,L|334:278,1,57.1200006972656,10|0,1:2|0:2,0:0:0:0:
283,259,30064,2,0,L|226:266,1,57.1200006972656,10|0,1:2|0:2,0:0:0:0:
170,279,30379,5,14,1:2:0:0:
170,279,30537,2,0,P|143:239|153:169,2,114.240001394531,0|8|0,0:0|1:2|0:2,0:0:0:0:
214,315,31327,1,8,1:2:0:0:
122,383,31642,1,2,1:2:0:0:
