osu file format v14

[General]
AudioFilename: audio.mp3
AudioLeadIn: 0
PreviewTime: 11116
Countdown: 0
SampleSet: Normal
StackLeniency: 0.7
Mode: 1
LetterboxInBreaks: 0
WidescreenStoryboard: 1

[Editor]
Bookmarks: 1327,11432
DistanceSpacing: 0.2
BeatDivisor: 4
GridSize: 16
TimelineZoom: 1.7

[Metadata]
Title:PADORU / PADORU
TitleUnicode:PADORU / PADORU
Artist:Turbo
ArtistUnicode:Turbo
Creator:R-18
Version:Drift
Source:Fate/EXTRA
Tags:TurboAutism eurobeats nero claudius christmas xmas remix edit Hashire sori yo Kaze no you ni Tsukimihara wo japanese anime electronic video game jingle bells Sanjenin Nagi
BeatmapID:2410716
BeatmapSetID:1112924

[Difficulty]
HPDrainRate:7
CircleSize:4
OverallDifficulty:5.5
ApproachRate:9
SliderMultiplier:1.4
SliderTickRate:1

[Events]
//Background and Video events
0,0,"bg2.jpg",0,40
//Break Periods
//Storyboard Layer 0 (Background)
//Storyboard Layer 1 (Fail)
//Storyboard Layer 2 (Pass)
//Storyboard Layer 3 (Foreground)
//Storyboard Layer 4 (Overlay)
//Storyboard Sound Samples

[TimingPoints]
1327,315.789473684211,4,1,0,80,1,0
11432,-100,4,1,0,90,0,0
21537,-100,4,1,0,90,0,1
30379,-100,4,1,0,90,0,0
31641,-100,4,1,0,60,0,0

[HitObjects]
256,192,1327,5,4,0:0:0:0:
186,208,1642,1,0,0:0:0:0:
219,214,1958,1,8,0:0:0:0:
219,214,2274,1,8,0:0:0:0:
219,214,2590,1,0,0:0:0:0:
275,108,3537,1,8,0:0:0:0:
256,190,3853,1,4,0:0:0:0:
179,201,4169,1,8,0:0:0:0:
252,185,4484,1,0,0:0:0:0:
252,185,4800,1,0,0:0:0:0:
252,185,5116,1,8,0:0:0:0:
239,167,5748,1,8,0:0:0:0:
239,167,6379,1,4,0:0:0:0:
269,231,6695,1,0,0:0:0:0:
211,201,7011,1,8,0:0:0:0:
326,311,7327,1,8,0:0:0:0:
229,128,7642,1,0,0:0:0:0:
319,205,8590,1,8,0:0:0:0:
255,190,8905,1,4,0:0:0:0:
216,248,9221,1,0,0:0:0:0:
216,248,9537,1,8,0:0:0:0:
183,184,9853,1,0,0:0:0:0:
281,196,10169,1,8,0:0:0:0:
256,188,11116,1,0,0:0:0:0:
256,188,11432,1,12,0:0:0:0:
183,215,11590,1,8,0:0:0:0:
183,215,11669,1,8,0:0:0:0:
256,188,11748,1,8,0:0:0:0:
183,215,11905,1,0,0:0:0:0:
183,215,12063,1,8,0:0:0:0:
246,160,12221,1,0,0:0:0:0:
246,160,12379,1,8,0:0:0:0:
161,116,12537,1,8,0:0:0:0:
246,160,12695,1,0,0:0:0:0:
211,256,12853,1,8,0:0:0:0:
211,256,12932,1,8,0:0:0:0:
211,256,13011,1,0,0:0:0:0:
186,205,13169,1,8,0:0:0:0:
211,256,13327,1,0,0:0:0:0:
211,256,13484,1,8,0:0:0:0:
281,221,13958,1,0,0:0:0:0:
195,187,14116,1,0,0:0:0:0:
195,187,14195,1,0,0:0:0:0:
326,222,14274,1,8,0:0:0:0:
151,215,14432,1,0,0:0:0:0:
151,215,14590,1,8,0:0:0:0:
317,222,14748,1,0,0:0:0:0:
341,223,14905,1,0,0:0:0:0:
292,121,15063,1,8,0:0:0:0:
341,223,15221,1,8,0:0:0:0:
214,248,15379,1,0,0:0:0:0:
214,248,15458,1,0,0:0:0:0:
193,204,15537,1,0,0:0:0:0:
214,248,15695,1,8,0:0:0:0:
328,242,15853,1,0,0:0:0:0:
123,230,16011,1,8,0:0:0:0:
312,200,16484,1,8,0:0:0:0:
135,172,16642,1,0,0:0:0:0:
135,172,16721,1,0,0:0:0:0:
206,195,16800,1,8,0:0:0:0:
209,244,16958,1,8,0:0:0:0:
206,195,17116,1,0,0:0:0:0:
206,195,17274,1,0,0:0:0:0:
206,195,17432,1,8,0:0:0:0:
206,195,17748,1,0,0:0:0:0:
226,262,17905,1,8,0:0:0:0:
226,262,17984,1,8,0:0:0:0:
292,215,18063,1,8,0:0:0:0:
292,215,18221,1,0,0:0:0:0:
206,195,18379,1,8,0:0:0:0:
289,116,18458,1,8,0:0:0:0:
289,116,18537,1,0,0:0:0:0:
145,225,18695,1,8,0:0:0:0:
194,114,18853,1,8,0:0:0:0:
206,195,19011,1,0,0:0:0:0:
256,230,19169,1,8,0:0:0:0:
256,230,19248,1,8,0:0:0:0:
255,192,19327,1,8,0:0:0:0:
168,225,19484,1,0,0:0:0:0:
168,225,19642,1,8,0:0:0:0:
187,226,19800,1,8,0:0:0:0:
255,192,19958,1,0,0:0:0:0:
187,226,20116,1,0,0:0:0:0:
255,192,20274,1,8,0:0:0:0:
106,185,20748,1,0,0:0:0:0:
198,158,21063,1,0,0:0:0:0:
198,158,21221,1,8,0:0:0:0:
256,192,21537,1,12,0:0:0:0:
315,257,21695,1,8,0:0:0:0:
315,257,21774,1,8,0:0:0:0:
255,192,21853,1,8,0:0:0:0:
191,237,22011,1,0,0:0:0:0:
246,160,22169,1,0,0:0:0:0:
256,192,22327,1,0,0:0:0:0:
246,160,22484,1,8,0:0:0:0:
246,160,22800,1,0,0:0:0:0:
216,217,22958,1,8,0:0:0:0:
216,217,23037,1,8,0:0:0:0:
137,201,23116,1,8,0:0:0:0:
137,201,23274,1,8,0:0:0:0:
137,201,23432,1,0,0:0:0:0:
238,258,23590,1,0,0:0:0:0:
281,221,23748,1,8,0:0:0:0:
281,221,24063,1,0,0:0:0:0:
160,195,24221,1,0,0:0:0:0:
160,195,24300,1,0,0:0:0:0:
281,221,24379,1,8,0:0:0:0:
185,209,24537,1,8,0:0:0:0:
341,223,24695,1,0,0:0:0:0:
236,120,24853,1,0,0:0:0:0:
310,137,25011,1,8,0:0:0:0:
341,223,25327,1,8,0:0:0:0:
231,213,25484,1,8,0:0:0:0:
231,213,25563,1,8,0:0:0:0:
176,220,25642,1,0,0:0:0:0:
176,220,25800,1,8,0:0:0:0:
176,220,25958,1,0,0:0:0:0:
253,130,26116,1,0,0:0:0:0:
260,125,26274,1,8,0:0:0:0:
312,200,26590,1,8,0:0:0:0:
229,232,26748,1,8,0:0:0:0:
229,232,26827,1,8,0:0:0:0:
211,187,26905,1,8,0:0:0:0:
229,232,27063,1,0,0:0:0:0:
229,232,27221,1,8,0:0:0:0:
258,139,27379,1,0,0:0:0:0:
206,195,27537,1,8,0:0:0:0:
206,195,27853,1,0,0:0:0:0:
169,212,28011,1,0,0:0:0:0:
169,212,28090,1,0,0:0:0:0:
280,246,28169,1,8,0:0:0:0:
280,246,28327,1,8,0:0:0:0:
280,246,28484,1,0,0:0:0:0:
148,218,28642,1,0,0:0:0:0:
148,218,28800,1,8,0:0:0:0:
206,195,29116,1,8,0:0:0:0:
320,257,29274,1,0,0:0:0:0:
320,257,29353,1,0,0:0:0:0:
246,194,29432,1,8,0:0:0:0:
244,248,29590,1,0,0:0:0:0:
244,248,29748,1,8,0:0:0:0:
212,166,29905,1,0,0:0:0:0:
313,216,30063,1,0,0:0:0:0:
255,192,30379,1,0,0:0:0:0:
218,112,30695,1,8,0:0:0:0:
255,192,30853,1,0,0:0:0:0:
218,112,31169,1,8,0:0:0:0:
255,192,31327,1,0,0:0:0:0:
257,191,31642,1,8,0:0:0:0:
