osu file format v14

[General]
AudioFilename: audio.mp3
AudioLeadIn: 0
PreviewTime: 932
Countdown: 0
SampleSet: Soft
StackLeniency: 0.8
Mode: 0
LetterboxInBreaks: 0
WidescreenStoryboard: 1

[Editor]
DistanceSpacing: 0.5
BeatDivisor: 4
GridSize: 16
TimelineZoom: 3.15

[Metadata]
Title:PADORU / PADORU
TitleUnicode:PADORU / PADORU
Artist:Turbo
ArtistUnicode:Turbo
Creator:DeRandom Otaku
Version:iljaaz's Expert
Source:Fate/EXTRA
Tags:TurboAutism eurobeats nero claudius ren kowari -_frontier_- anzeigeistraus iljaaz rolniczy fuju smokelind deppyforce xenon- xehn affirmation neoskylove dorsalplum -_light_- xen rolni contagious Serizawa Haruki Jack J_a_c_k electronic japanese jingle bells 丹下桜 Sakura Tange Saber
BeatmapID:2223134
BeatmapSetID:1061287

[Difficulty]
HPDrainRate:6
CircleSize:4.2
OverallDifficulty:8.2
ApproachRate:9
SliderMultiplier:1.74
SliderTickRate:1

[Events]
//Background and Video events
0,0,"bg.jpg",0,0
//Break Periods
//Storyboard Layer 0 (Background)
//Storyboard Layer 1 (Fail)
//Storyboard Layer 2 (Pass)
//Storyboard Layer 3 (Foreground)
//Storyboard Layer 4 (Overlay)
//Storyboard Sound Samples

[TimingPoints]
64,315.789473684211,4,2,0,60,1,0
64,-100,4,2,0,60,0,0
1011,-96.1538461538461,4,2,1,45,0,0
1327,-80.6451612903226,4,2,1,60,0,0
1958,-135.135135135135,4,2,1,60,0,0
2590,-227.272727272727,4,2,1,60,0,0
3537,-96.1538461538461,4,2,1,60,0,0
3853,-80.6451612903226,4,2,1,60,0,0
4485,-135.135135135135,4,2,1,60,0,0
5116,-227.272727272727,4,2,1,60,0,0
5748,-96.1538461538461,4,2,1,60,0,0
6379,-80.6451612903226,4,2,1,60,0,0
7011,-135.135135135135,4,2,1,60,0,0
8590,-96.1538461538461,4,2,1,65,0,0
8906,-80.6451612903226,4,2,1,65,0,0
9537,-135.135135135135,4,2,1,65,0,0
10169,-227.272727272727,4,2,1,65,0,0
10800,-135.135135135135,4,2,1,65,0,0
11116,-227.272727272727,4,2,1,65,0,0
11432,-69.4444444444444,4,2,1,80,0,0
11748,-87.719298245614,4,2,1,80,0,0
13958,-69.4444444444444,4,2,1,80,0,0
14274,-87.719298245614,4,2,1,80,0,0
16485,-69.4444444444444,4,2,1,80,0,0
16800,-87.719298245614,4,2,1,80,0,0
19011,-69.4444444444444,4,2,1,80,0,0
19327,-87.719298245614,4,2,1,80,0,0
20274,-87.719298245614,4,2,1,70,0,0
21537,-69.4444444444444,4,2,1,90,0,0
21853,-87.719298245614,4,2,1,90,0,0
24064,-69.4444444444444,4,2,1,90,0,0
24695,-87.719298245614,4,2,1,90,0,0
26590,-69.4444444444444,4,2,1,90,0,0
26906,-87.719298245614,4,2,1,90,0,0
29116,-69.4444444444444,4,2,1,90,0,0
29432,-87.719298245614,4,2,1,90,0,0
30379,-87.719298245614,4,2,1,75,0,0
31327,-87.719298245614,4,2,1,70,0,0
31642,-227.272727272727,4,2,1,60,0,0
31958,-227.272727272727,4,2,1,5,0,0

[Colours]
Combo1 : 72,164,255
Combo2 : 128,128,192

[HitObjects]
483,85,1011,6,0,P|479:124|474:80,1,135.719999171631,8|0,0:2|0:0,0:0:0:0:
469,104,1327,2,0,B|415:111|365:136|365:136|295:113|341:33,1,215.759991440186,6|2,1:2|0:2,0:0:0:0:
331,51,1958,2,0,P|372:103|342:173,1,128.760003143555,2|2,0:2|0:2,0:0:0:0:
357,159,2590,2,0,B|259:145|290:245|173:223,1,191.400005841065,2|0,0:2|0:0,0:0:0:0:
11,77,3537,6,0,P|57:80|94:1,1,135.719999171631,2|0,1:2|0:0,0:0:0:0:
101,18,3853,6,0,B|27:59|76:119|84:111|125:170|51:226,1,215.759991440186,6|2,1:2|0:2,0:0:0:0:
71,209,4485,2,0,B|98:224|98:224|127:284|127:284|162:302,1,128.760003143555,2|2,0:2|0:2,0:0:0:0:
154,298,5116,2,0,B|193:288|193:288|211:269|211:269|264:255,1,114.840003504639,2|0,0:2|0:0,0:0:0:0:
423,358,5748,6,0,B|413:341|413:341|298:320|298:320|279:312|247:239|331:207,1,271.439998343262,0|0,1:2|0:0,0:0:0:0:
506,43,6379,6,0,B|520:115|520:115|380:141,1,215.759991440186,6|2,1:2|0:2,0:0:0:0:
380,141,7011,2,0,B|309:156|309:156|323:224,1,128.760003143555,2|2,0:2|0:2,0:0:0:0:
320,211,7642,2,0,P|354:167|315:92,2,128.760003143555,2|0|0,0:2|0:0|0:0,0:0:0:0:
167,380,8590,6,0,P|127:321|38:340,1,135.719999171631,2|0,1:2|0:0,0:0:0:0:
67,318,8906,6,0,B|114:299|164:295|164:295|142:241|142:165,1,215.759991440186,6|2,1:2|0:2,0:0:0:0:
62,109,9537,2,0,P|10:152|33:217,1,128.760003143555,2|2,0:2|0:2,0:0:0:0:
191,85,10169,2,0,P|181:46|172:0,1,76.5600023364259,2|0,0:2|0:0,0:0:0:0:
173,10,10642,1,0,0:0:0:0:
20,127,10800,2,0,P|51:135|95:155,1,64.3800015717774
228,283,11116,6,0,P|229:310|234:348,1,57.4200017523194,2|0,0:2|0:0,0:0:0:0:
237,339,11432,6,0,P|300:316|283:234,1,125.280003058594,6|0,1:2|3:0,0:0:0:0:
379,237,11669,1,0,3:0:0:0:
419,304,11748,2,0,B|377:309|345:320|345:320|303:306|306:252,1,148.76999818396,2|0,1:2|0:0,0:0:0:0:
250,205,12064,5,2,1:2:0:0:
409,94,12221,1,0,0:0:0:0:
462,164,12379,5,2,1:2:0:0:
266,56,12537,1,0,0:0:0:0:
359,0,12695,6,0,P|395:37|457:27,1,99.1799987893067,2|2,1:2|0:2,0:0:0:0:
319,170,13011,2,0,P|283:133|221:143,1,99.1799987893067,2|2,1:2|0:2,0:0:0:0:
87,0,13327,2,0,B|98:20|98:20|81:82|81:82|96:105,1,99.1799987893067,2|2,1:2|0:2,0:0:0:0:
11,256,13642,6,0,B|49:215|102:235|102:235|116:262|150:283,1,148.76999818396,2|0,1:2|0:0,0:0:0:0:
121,348,13958,6,0,B|190:354|176:311|267:318,1,125.280003058594,2|0,1:2|3:0,0:0:0:0:
309,283,14195,1,0,3:0:0:0:
351,351,14274,2,0,P|299:374|240:302,1,148.76999818396,2|0,1:2|0:0,0:0:0:0:
210,240,14590,6,0,P|237:199|220:142,1,99.1799987893067,2|0,1:2|0:0,0:0:0:0:
363,29,14906,1,2,1:2:0:0:
493,197,15064,1,0,0:0:0:0:
459,101,15221,6,0,B|429:141|429:141|383:158,1,99.1799987893067,2|2,1:2|0:2,0:0:0:0:
349,222,15537,5,2,1:2:0:0:
227,152,15695,1,2,0:2:0:0:
182,79,15853,5,2,1:2:0:0:
39,124,16011,1,2,0:2:0:0:
35,14,16169,6,0,P|58:26|83:52,1,49.5899993946533,2|0,1:2|0:0,0:0:0:0:
135,190,16327,2,0,P|126:213|112:233,1,49.5899993946533,0|0,1:0|0:0,0:0:0:0:
0,384,16485,6,0,P|42:346|116:363,1,125.280003058594,2|0,1:2|3:0,0:0:0:0:
165,303,16721,1,0,3:0:0:0:
212,355,16800,2,0,B|250:363|285:377|285:377|321:352|308:295,1,148.76999818396,2|0,1:2|0:0,0:0:0:0:
372,268,17116,6,0,P|353:250|311:238,1,49.5899993946533,2|0,1:2|0:0,0:0:0:0:
260,260,17274,1,0,0:0:0:0:
233,86,17432,6,0,P|226:111|237:153,1,49.5899993946533,2|0,1:2|0:0,0:0:0:0:
282,186,17590,1,0,0:0:0:0:
512,41,17748,6,0,B|471:27|471:27|463:15|463:15|411:-5,1,99.1799987893067,2|2,1:2|0:2,0:0:0:0:
424,0,18064,1,2,1:2:0:0:
359,126,18221,6,0,L|415:107,1,49.5899993946533,2|0,0:2|0:0,0:0:0:0:
405,110,18379,1,2,1:2:0:0:
318,0,18537,6,0,L|295:50,1,49.5899993946533,2|0,0:2|0:0,0:0:0:0:
297,45,18695,1,2,1:2:0:0:
417,193,18853,1,0,0:0:0:0:
208,376,19011,6,0,P|165:326|203:259,1,125.280003058594,2|0,1:2|3:0,0:0:0:0:
258,264,19248,1,0,3:0:0:0:
319,317,19327,2,0,B|243:320|259:263|167:275,1,148.76999818396,2|0,1:2|0:0,0:0:0:0:
154,204,19642,5,2,1:2:0:0:
1,320,19800,1,0,0:0:0:0:
131,341,19958,5,2,1:2:0:0:
22,170,20116,2,0,L|36:108,1,49.5899993946533
94,70,20274,6,0,P|144:78|172:142,2,99.1799987893067,2|2|2,1:2|0:2|0:2,0:0:0:0:
228,168,20748,2,0,P|292:158|321:25,1,198.359997578613,2|2,1:2|0:2,0:0:0:0:
269,0,21221,2,0,P|236:36|258:88,1,99.1799987893067,2|0,1:2|0:0,0:0:0:0:
376,315,21537,6,0,B|342:289|342:289|358:256|381:201,1,125.280003058594,6|0,1:2|3:0,0:0:0:0:
431,160,21774,1,0,3:0:0:0:
508,172,21853,2,0,B|466:152|439:200|445:196|417:247|345:199,1,148.76999818396,2|0,1:2|0:0,0:0:0:0:
309,265,22169,6,0,P|259:269|219:314,1,99.1799987893067,2|0,1:2|0:0,0:0:0:0:
291,343,22485,1,2,1:2:0:0:
233,199,22642,1,0,0:0:0:0:
10,325,22800,5,0,1:2:0:0:
92,376,22958,5,2,0:2:0:0:
32,234,23116,1,2,1:2:0:0:
90,174,23274,5,2,0:2:0:0:
125,68,23432,1,2,1:2:0:0:
65,11,23590,5,2,0:2:0:0:
177,142,23748,2,0,B|207:135|207:135|249:72|249:72|300:59,1,148.76999818396,2|0,1:2|0:0,0:0:0:0:
446,226,24064,6,0,P|381:206|376:152,1,125.280003058594,2|0,1:2|3:0,0:0:0:0:
365,82,24300,1,0,3:0:0:0:
433,42,24379,2,0,B|442:89|456:133|456:133|426:181|365:152,1,187.920004587891,2|0,1:2|0:0,0:0:0:0:
305,133,24695,6,0,L|284:186,1,49.5899993946533,2|0,1:2|0:0,0:0:0:0:
286,179,24853,1,0,0:0:0:0:
397,336,25011,6,0,L|381:286,1,49.5899993946533,2|0,1:2|0:0,0:0:0:0:
381,288,25169,1,0,0:0:0:0:
187,348,25327,5,0,1:2:0:0:
119,295,25485,5,2,0:2:0:0:
231,269,25642,1,2,1:2:0:0:
276,379,25800,5,2,0:2:0:0:
159,222,25958,1,2,1:2:0:0:
305,133,26116,5,2,0:2:0:0:
187,348,26274,5,2,1:2:0:0:
187,348,26432,1,0,1:0:0:0:
42,105,26590,6,0,P|89:150|158:120,1,125.280003058594,2|0,1:2|3:0,0:0:0:0:
209,93,26827,1,0,3:0:0:0:
184,20,26906,2,0,B|128:57|128:57|138:98|147:172,1,148.76999818396,2|0,1:2|0:0,0:0:0:0:
210,170,27221,5,2,1:2:0:0:
346,230,27379,1,0,0:0:0:0:
322,86,27537,6,0,L|301:142,1,49.5899993946533,2|0,1:2|0:0,0:0:0:0:
250,266,27695,1,0,0:0:0:0:
489,350,27853,6,0,B|479:316|479:316|482:301|482:301|461:227,1,99.1799987893067,0|2,1:2|0:2,0:0:0:0:
431,102,28169,5,2,1:2:0:0:
402,348,28327,1,2,0:2:0:0:
313,317,28485,5,2,1:2:0:0:
486,174,28642,1,2,0:2:0:0:
338,384,28800,5,2,1:2:0:0:
210,169,28958,1,0,0:0:0:0:
12,380,29116,6,0,B|42:317|-10:326|32:247,1,125.280003058594,2|0,1:2|3:0,0:0:0:0:
83,202,29353,1,0,3:0:0:0:
147,229,29432,2,0,P|82:279|14:245,1,148.76999818396,2|0,1:2|0:0,0:0:0:0:
2,184,29748,5,2,1:2:0:0:
176,45,29906,1,0,0:0:0:0:
250,246,30064,5,2,1:2:0:0:
71,73,30221,1,0,0:0:0:0:
279,25,30379,6,0,P|251:70|245:121,2,99.1799987893067,2|2|2,1:2|0:2|0:2,0:0:0:0:
469,242,30853,6,0,P|398:255|299:167,1,198.359997578613,2|2,1:2|0:2,0:0:0:0:
475,31,31327,6,0,P|488:58|488:105,1,49.5899993946533,2|0,1:2|0:0,0:0:0:0:
443,139,31485,6,0,P|429:166|400:181,1,49.5899993946533
333,94,31642,6,0,P|368:73|413:77,1,76.5600023364259,0|0,1:0|0:0,0:0:0:0:
