osu file format v14

[General]
AudioFilename: audio.mp3
AudioLeadIn: 0
PreviewTime: 932
Countdown: 0
SampleSet: Soft
StackLeniency: 0.5
Mode: 0
LetterboxInBreaks: 0
WidescreenStoryboard: 1

[Editor]
Bookmarks: 1011,11432,21537,31958
DistanceSpacing: 0.2
BeatDivisor: 4
GridSize: 32
TimelineZoom: 3.15

[Metadata]
Title:PADORU / PADORU
TitleUnicode:PADORU / PADORU
Artist:Turbo
ArtistUnicode:Turbo
Creator:DeRandom Otaku
Version:Xenon's Hi-Speed Expert
Source:Fate/EXTRA
Tags:TurboAutism eurobeats nero claudius ren kowari -_frontier_- anzeigeistraus iljaaz rolniczy fuju smokelind deppyforce xenon- xehn affirmation neoskylove dorsalplum -_light_- xen rolni contagious Serizawa Haruki Jack J_a_c_k electronic japanese jingle bells 丹下桜 Sakura Tange Saber
BeatmapID:2223735
BeatmapSetID:1061287

[Difficulty]
HPDrainRate:5.5
CircleSize:4.4
OverallDifficulty:8.8
ApproachRate:9.5
SliderMultiplier:2
SliderTickRate:1

[Events]
//Background and Video events
0,0,"bg.jpg",0,0
//Break Periods
//Storyboard Layer 0 (Background)
//Storyboard Layer 1 (Fail)
//Storyboard Layer 2 (Pass)
//Storyboard Layer 3 (Foreground)
//Storyboard Layer 4 (Overlay)
//Storyboard Sound Samples

[TimingPoints]
64,315.789473684211,4,2,0,60,1,0
64,-100,4,2,0,60,0,0
1011,-250,4,2,1,45,0,0
1327,-50,4,2,1,60,0,0
1642,-125,4,2,1,60,0,0
1958,-153.846153846154,4,2,1,60,0,0
2274,-200,4,2,1,60,0,0
2590,-250,4,2,1,60,0,0
3853,-48.780487804878,4,2,1,60,0,0
4169,-125,4,2,1,60,0,0
4485,-153.846153846154,4,2,1,60,0,0
4800,-200,4,2,1,60,0,0
5116,-250,4,2,1,60,0,0
5748,-90.9090909090909,4,2,1,60,0,0
6064,-250,4,2,1,60,0,0
6379,-47.6190476190476,4,2,1,60,0,0
6695,-125,4,2,1,60,0,0
7011,-153.846153846154,4,2,1,60,0,0
7327,-200,4,2,1,60,0,0
7642,-166.666666666667,4,2,1,60,0,0
7958,-200,4,2,1,60,0,0
8274,-238.095238095238,4,2,1,60,0,0
8590,-250,4,2,1,65,0,0
8906,-45.4545454545455,4,2,1,65,0,0
11116,-30.3030303030303,4,2,1,65,0,0
11432,-43.4782608695652,4,2,1,80,0,0
11748,-62.5,4,2,1,80,0,0
13011,-50,4,2,1,80,0,0
13169,-100,4,2,1,80,0,0
13327,-58.8235294117647,4,2,1,80,0,0
13485,-125,4,2,1,80,0,0
13800,-100,4,2,1,80,0,0
13958,-43.4782608695652,4,2,1,80,0,0
14274,-62.5,4,2,1,80,0,0
15537,-50,4,2,1,80,0,0
15695,-100,4,2,1,80,0,0
15853,-58.8235294117647,4,2,1,80,0,0
16011,-125,4,2,1,80,0,0
16327,-100,4,2,1,80,0,0
16485,-40.8163265306122,4,2,1,80,0,0
16800,-62.5,4,2,1,80,0,0
17748,-56.4971751412429,4,2,1,80,0,0
18064,-50,4,2,1,80,0,0
18221,-100,4,2,1,80,0,0
18379,-62.5,4,2,1,80,0,0
18537,-114.285714285714,4,2,1,80,0,0
18695,-74.0740740740741,4,2,1,80,0,0
18853,-133.333333333333,4,2,1,80,0,0
19011,-35.7142857142857,4,2,1,80,0,0
19327,-62.5,4,2,1,80,0,0
19642,-83.3333333333333,4,2,1,80,0,0
19958,-56.4971751412429,4,2,1,80,0,0
20274,-69.4444444444444,4,2,1,70,0,0
20748,-58.8235294117647,4,2,1,70,0,0
21221,-76.9230769230769,4,2,1,70,0,0
21537,-37.037037037037,4,2,1,90,0,1
21853,-55.5555555555556,4,2,1,90,0,1
22169,-76.9230769230769,4,2,1,90,0,1
22327,-100,4,2,1,90,0,1
22485,-76.9230769230769,4,2,1,90,0,1
22642,-100,4,2,1,90,0,1
22800,-55.5555555555556,4,2,1,90,0,1
23116,-47.6190476190476,4,2,1,90,0,1
23274,-76.9230769230769,4,2,1,90,0,1
23432,-58.8235294117647,4,2,1,90,0,1
23590,-90.9090909090909,4,2,1,90,0,1
24064,-33.3333333333333,4,2,1,90,0,1
24379,-55.5555555555556,4,2,1,90,0,1
24695,-76.9230769230769,4,2,1,90,0,1
24853,-100,4,2,1,90,0,1
25011,-76.9230769230769,4,2,1,90,0,1
25169,-100,4,2,1,90,0,1
25327,-55.5555555555556,4,2,1,90,0,1
25642,-47.6190476190476,4,2,1,90,0,1
25800,-76.9230769230769,4,2,1,90,0,1
25958,-52.6315789473684,4,2,1,90,0,1
26116,-90.9090909090909,4,2,1,90,0,1
26590,-33.3333333333333,4,2,1,90,0,1
26906,-55.5555555555556,4,2,1,90,0,1
27221,-76.9230769230769,4,2,1,90,0,1
27379,-100,4,2,1,90,0,1
27537,-76.9230769230769,4,2,1,90,0,1
27695,-100,4,2,1,90,0,1
27853,-57.1428571428571,4,2,1,90,0,1
28169,-44.4444444444445,4,2,1,90,0,1
28327,-76.9230769230769,4,2,1,90,0,1
28485,-50,4,2,1,90,0,1
28642,-90.9090909090909,4,2,1,90,0,1
29116,-45.4545454545455,4,2,1,90,0,1
29432,-55.5555555555556,4,2,1,90,0,1
29748,-43.4782608695652,4,2,1,90,0,1
29906,-62.5,4,2,1,90,0,1
30064,-58.8235294117647,4,2,1,90,0,1
30221,-86.9565217391304,4,2,1,90,0,1
30379,-69.4444444444444,4,2,1,75,0,1
30853,-55.5555555555556,4,2,1,75,0,1
31327,-71.4285714285714,4,2,1,70,0,1
31642,-142.857142857143,4,2,1,60,0,0
31958,-142.857142857143,4,2,1,5,0,0

[Colours]
Combo1 : 72,164,255
Combo2 : 128,128,192

[HitObjects]
212,86,1011,6,0,L|204:145,1,60,8|0,0:2|0:0,0:0:0:0:
176,21,1327,6,0,L|214:338,1,300,6|0,1:2|0:0,0:0:0:0:
287,378,1642,6,0,P|286:338|301:301,1,80,2|0,0:2|0:0,0:0:0:0:
405,370,1958,2,0,P|386:343|378:311,1,64.9999970245363,2|0,0:2|0:0,0:0:0:0:
488,305,2274,2,0,P|465:294|448:276,1,50,2|0,0:2|0:0,0:0:0:0:
287,378,2590,6,0,P|286:338|301:301,1,80,2|0,0:2|0:0,0:0:0:0:
41,298,3537,6,0,L|49:239,1,60,2|0,1:2|0:0,0:0:0:0:
77,363,3853,6,0,B|58:213|58:213|62:208|62:208|44:59,1,307.500004692078,6|0,1:2|0:0,0:0:0:0:
120,1,4169,6,0,P|119:41|134:78,1,80,2|0,0:2|0:0,0:0:0:0:
238,9,4485,2,0,P|219:36|211:68,1,64.9999970245363,2|0,0:2|0:0,0:0:0:0:
321,74,4800,2,0,P|298:85|281:103,1,50,2|0,0:2|0:0,0:0:0:0:
120,1,5116,6,0,P|119:41|134:78,1,80,2|0,0:2|0:0,0:0:0:0:
376,206,5748,6,0,P|320:161|296:228,1,165.000005035401,0|0,1:2|0:0,0:0:0:0:
244,286,6064,2,0,P|265:306|294:306,1,60,2|0,0:2|0:0,0:0:0:0:
236,374,6379,6,0,B|219:237|219:237|212:219|212:219|214:199|214:199|197:63,1,314.999990386963,6|0,1:2|0:0,0:0:0:0:
253,10,6695,6,0,P|291:1|324:22,1,80,2|0,0:2|0:0,0:0:0:0:
401,7,7011,2,0,P|425:26|433:60,1,64.9999970245363,2|0,0:2|0:0,0:0:0:0:
497,100,7327,2,0,P|497:123|483:147,1,50,2|0,0:2|0:0,0:0:0:0:
359,194,7642,6,0,L|351:253,1,59.9999981689454,2|0,0:2|0:0,0:0:0:0:
435,209,7958,2,0,L|428:258,1,50
509,223,8274,2,0,L|502:266,1,41.9999987182618
280,220,8590,6,0,P|250:219|229:239,1,60,2|0,1:2|0:0,0:0:0:0:
338,267,8906,6,0,B|218:252|218:252|197:254|197:254|157:239|157:239|141:242|141:242|13:227,1,330.000010070801,6|0,1:2|0:0,0:0:0:0:
163,102,9221,5,2,0:2:0:0:
190,171,9379,1,0,0:0:0:0:
171,93,9537,5,2,0:2:0:0:
217,35,9695,1,0,0:0:0:0:
159,90,9853,5,2,0:2:0:0:
85,79,10011,1,0,0:0:0:0:
107,316,10169,5,2,0:2:0:0:
136,242,10327,1,0,0:0:0:0:
213,222,10485,1,0,0:0:0:0:
275,272,10642,1,0,0:0:0:0:
101,310,10800,5,0,0:0:0:0:
130,236,10958,1,0,0:0:0:0:
277,375,11116,6,0,P|265:350|271:378,6,82.5000007867813,2|0|0|0|0|0|0,0:2|0:0|0:0|0:0|0:0|0:0|0:0,0:0:0:0:
176,332,11432,6,0,B|292:363|264:241|383:273,1,230.000004386902,6|0,1:2|3:0,0:0:0:0:
505,372,11669,1,0,3:0:0:0:
510,362,11748,2,0,P|469:319|445:402,1,160,2|0,1:2|0:0,0:0:0:0:
213,253,12064,5,2,1:2:0:0:
207,244,12221,1,0,0:0:0:0:
346,375,12379,5,2,1:2:0:0:
340,384,12537,1,0,0:0:0:0:
163,314,12695,6,0,P|180:204|192:75,1,240,2|0,1:2|0:0,0:0:0:0:
265,139,13011,6,0,P|304:110|350:126,1,100,2|0,1:2|0:0,0:0:0:0:
430,215,13169,2,0,L|420:294,1,50,2|0,0:2|0:0,0:0:0:0:
282,214,13327,6,0,P|320:227|354:204,1,85.0000016212464,2|0,1:2|0:0,0:0:0:0:
505,234,13485,2,0,L|497:297,1,40,2|0,0:2|0:0,0:0:0:0:
350,302,13642,6,0,L|355:349,1,40,2|0,1:2|0:0,0:0:0:0:
361,346,13800,2,0,L|354:295,1,50
127,179,13958,6,0,P|235:190|274:293,1,230.000004386902,2|0,1:2|3:0,0:0:0:0:
423,243,14195,1,0,3:0:0:0:
431,235,14274,2,0,P|411:179|355:245,1,160,2|0,1:2|0:0,0:0:0:0:
512,263,14590,5,2,1:2:0:0:
506,254,14748,1,0,0:0:0:0:
303,130,14906,5,2,1:2:0:0:
297,139,15064,1,0,0:0:0:0:
456,196,15221,6,0,B|472:141|408:103|408:103|404:97|404:97|402:104|402:104|349:156|378:205,1,240,2|0,1:2|0:0,0:0:0:0:
512,253,15537,6,0,P|483:293|484:342,1,100,2|0,1:2|0:0,0:0:0:0:
373,378,15695,2,0,L|422:384,1,50,2|0,0:2|0:0,0:0:0:0:
309,241,15853,6,0,P|302:282|320:319,1,85.0000016212464,2|0,1:2|0:0,0:0:0:0:
418,378,16011,2,0,L|378:373,1,40,2|0,0:2|0:0,0:0:0:0:
185,307,16169,6,0,L|232:302,1,40,2|0,1:2|0:0,0:0:0:0:
229,296,16327,2,0,L|178:303,1,50,0|0,1:0|0:0,0:0:0:0:
74,304,16485,6,0,B|58:335|73:389|167:395|190:306|135:234,1,245.000002336502,2|0,1:2|3:0,0:0:0:0:
293,252,16721,1,0,3:0:0:0:
301,244,16800,2,0,P|286:186|224:246,1,160,2|0,1:2|0:0,0:0:0:0:
14,44,17116,5,2,1:2:0:0:
20,35,17274,1,0,0:0:0:0:
152,154,17432,5,2,1:2:0:0:
158,163,17590,1,0,0:0:0:0:
276,0,17748,6,0,B|216:23|223:74|225:97|225:97|244:244,1,265.500008608818,2|0,1:2|0:0,0:0:0:0:
155,335,18064,6,0,P|150:285|164:238,1,100,2|0,1:2|0:0,0:0:0:0:
304,117,18221,2,0,L|310:67,1,50,2|0,0:2|0:0,0:0:0:0:
288,304,18379,6,0,P|258:278|243:239,1,80,2|0,1:2|0:0,0:0:0:0:
309,121,18537,2,0,L|315:71,1,43.7500004172325,2|0,0:2|0:0,0:0:0:0:
370,222,18695,6,0,P|336:218|309:198,1,67.5000002574921,2|0,1:2|0:0,0:0:0:0:
314,125,18853,2,0,L|320:75,1,37.5000014305115
164,236,19011,6,0,B|167:198|196:177|196:177|87:137|104:252|-3:214,1,279.999991455078,2|0,1:2|3:0,0:0:0:0:
71,79,19248,1,0,3:0:0:0:
68,68,19327,2,0,P|109:25|133:108,1,160,2|0,1:2|0:0,0:0:0:0:
352,191,19642,6,0,L|339:87,1,59.9999981689454,2|0,1:2|0:0,0:0:0:0:
277,201,19800,2,0,L|269:141,1,59.9999981689454
503,21,19958,6,0,B|498:55|498:55|499:64|499:64|496:73|496:73|492:107,1,88.5000028696061,2|0,1:2|0:0,0:0:0:0:
415,99,20116,2,0,B|419:64|419:64|418:55|418:55|421:46|421:46|425:12,1,88.5000028696061
136,5,20274,6,0,B|119:63|119:63|191:110|191:110|249:47|249:47|218:-4,1,288.00000703125,2|2,1:2|0:2,0:0:0:0:
353,170,20748,2,0,P|300:120|271:186,1,170.000003242493,2|0,1:2|0:0,0:0:0:0:
132,186,21064,6,0,P|173:186|200:217,1,85.0000016212464,2|0,0:2|0:0,0:0:0:0:
188,297,21221,2,0,B|88:320|115:216|13:240,1,194.999991073609,2|0,1:2|0:0,0:0:0:0:
83,126,21537,6,0,B|53:50|96:0|96:0|137:10|137:10|142:15|142:15|176:24|176:24|152:44|145:75,1,270.000001029968,6|0,1:2|3:0,0:0:0:0:
237,153,21774,1,0,3:0:0:0:
229,143,21853,2,0,P|249:70|304:121,1,179.999994506836,2|0,1:2|0:0,0:0:0:0:
269,377,22169,6,0,L|204:369,1,64.9999970245363,2|0,1:2|0:0,0:0:0:0:
262,372,22327,2,0,L|210:365,1,50
370,160,22485,6,0,L|434:152,1,64.9999970245363,2|0,1:2|0:0,0:0:0:0:
377,155,22642,2,0,L|428:148,1,50
237,290,22800,6,0,B|204:235|263:176|263:176|266:169|266:169|270:175|270:175|342:218|324:279,1,269.999991760254,0|0,1:2|0:0,0:0:0:0:
465,223,23116,6,0,P|418:243|402:294,1,104.999996795654,2|0,1:2|0:0,0:0:0:0:
185,148,23274,2,0,P|182:115|162:87,1,64.9999970245363,2|0,0:2|0:0,0:0:0:0:
381,170,23432,6,0,L|398:27,1,85.0000016212464,2|0,1:2|0:0,0:0:0:0:
111,169,23590,2,0,P|95:146|93:119,1,55.0000016784668,2|0,0:2|0:0,0:0:0:0:
310,75,23748,6,0,P|325:52|327:25,1,55.0000016784668,2|0,1:2|0:0,0:0:0:0:
254,0,23906,2,0,P|238:22|236:49,1,55.0000016784668
200,280,24064,6,0,B|160:265|148:236|156:198|156:198|97:181|62:208|58:250|58:250|18:284|-32:256,1,300.000011444092,2|0,1:2|3:0,0:0:0:0:
175,384,24300,1,0,3:0:0:0:
167,374,24379,2,0,P|187:301|242:352,1,179.999994506836,2|0,1:2|0:0,0:0:0:0:
167,122,24695,6,0,L|159:57,1,64.9999970245363,2|0,1:2|0:0,0:0:0:0:
162,115,24853,2,0,L|155:63,1,50
315,218,25011,6,0,L|307:282,1,64.9999970245363,2|0,1:2|0:0,0:0:0:0:
310,225,25169,2,0,L|303:276,1,50
481,100,25327,6,0,B|457:160|407:155|382:151|382:151|233:132,1,269.999991760254,0|0,1:2|0:0,0:0:0:0:
77,200,25642,6,0,B|128:193|128:193|130:194|130:194|182:188,1,104.999996795654,2|0,1:2|0:0,0:0:0:0:
416,55,25800,2,0,P|384:53|358:72,1,64.9999970245363,2|0,0:2|0:0,0:0:0:0:
246,305,25958,6,0,P|245:254|257:210,1,94.9999974632264,2|0,1:2|0:0,0:0:0:0:
142,66,26116,2,0,P|158:89|160:116,1,55.0000016784668,2|0,0:2|0:0,0:0:0:0:
89,349,26274,6,0,P|112:364|139:366,1,55.0000016784668,2|0,1:2|0:0,0:0:0:0:
164,293,26432,2,0,P|142:277|115:275,1,55.0000016784668,0|0,1:0|0:0,0:0:0:0:
0,164,26590,6,0,B|-16:117|-16:117|43:75|131:108|148:167|148:167|105:198,1,300.000011444092,2|0,1:2|3:0,0:0:0:0:
233,258,26827,1,0,3:0:0:0:
225,247,26906,2,0,P|251:176|301:231,1,179.999994506836,2|0,1:2|0:0,0:0:0:0:
215,47,27221,6,0,L|207:112,1,64.9999970245363,2|0,1:2|0:0,0:0:0:0:
210,54,27379,2,0,L|203:106,1,50
45,290,27537,6,0,L|37:226,1,64.9999970245363,2|0,1:2|0:0,0:0:0:0:
40,283,27695,2,0,L|33:232,1,50
253,176,27853,6,0,B|386:206|350:67|486:99,1,262.500002503395,0|0,1:2|0:0,0:0:0:0:
407,217,28169,6,0,P|461:219|500:181,1,112.500004291535,2|0,1:2|0:0,0:0:0:0:
320,0,28327,2,0,L|331:95,1,64.9999970245363,2|0,0:2|0:0,0:0:0:0:
207,241,28485,6,0,P|179:279|132:273,1,100,2|0,1:2|0:0,0:0:0:0:
252,69,28642,2,0,L|245:14,1,55.0000016784668,2|0,0:2|0:0,0:0:0:0:
260,315,28800,6,0,P|283:330|310:332,1,55.0000016784668,2|0,1:2|0:0,0:0:0:0:
335,259,28958,2,0,P|313:243|286:241,1,55.0000016784668
82,355,29116,6,0,B|135:348|135:348|137:349|137:349|191:343,1,110.000003356934,2|0,1:2|0:0,0:0:0:0:
106,104,29274,1,0,3:0:0:0:
115,175,29353,1,0,3:0:0:0:
125,245,29432,6,0,P|180:194|200:267,1,179.999994506836,2|0,1:2|0:0,0:0:0:0:
355,118,29748,6,0,P|311:113|273:180,1,115.000002193451,2|0,1:2|0:0,0:0:0:0:
57,285,29906,2,0,P|56:324|81:354,1,80
315,320,30064,6,0,P|293:283|289:241,1,85.0000016212464,2|0,1:2|0:0,0:0:0:0:
200,119,30221,2,0,P|208:92|200:64,1,57.5000010967255
443,337,30379,6,0,B|302:354|302:354|297:351|297:351|158:367,1,288.00000703125,2|2,1:2|0:2,0:0:0:0:
36,163,30853,2,0,P|92:109|123:180,1,179.999994506836,2|0,1:2|0:0,0:0:0:0:
278,134,31169,6,0,P|234:134|205:166,1,89.9999972534181,2|0,0:2|0:0,0:0:0:0:
43,309,31327,2,0,B|150:333|121:221|231:247,1,209.999993591309,2|0,1:2|0:0,0:0:0:0:
286,357,31642,6,0,P|270:311|295:352,1,139.999995727539,0|0,1:0|0:0,0:0:0:0:
