osu file format v14

[General]
AudioFilename: audio.mp3
AudioLeadIn: 0
PreviewTime: 932
Countdown: 0
SampleSet: Soft
StackLeniency: 0.5
Mode: 0
LetterboxInBreaks: 0
WidescreenStoryboard: 1

[Editor]
DistanceSpacing: 1
BeatDivisor: 4
GridSize: 16
TimelineZoom: 3.15

[Metadata]
Title:PADORU / PADORU
TitleUnicode:PADORU / PADORU
Artist:Turbo
ArtistUnicode:Turbo
Creator:DeRandom Otaku
Version:Normal
Source:Fate/EXTRA
Tags:TurboAutism eurobeats nero claudius ren kowari -_frontier_- anzeigeistraus iljaaz rolniczy fuju smokelind deppyforce xenon- xehn affirmation neoskylove dorsalplum -_light_- xen rolni contagious Serizawa Haruki Jack J_a_c_k electronic japanese jingle bells 丹下桜 Sakura Tange Saber
BeatmapID:2222443
BeatmapSetID:1061287

[Difficulty]
HPDrainRate:3
CircleSize:3
OverallDifficulty:4.6
ApproachRate:5
SliderMultiplier:0.999999999999999
SliderTickRate:1

[Events]
//Background and Video events
0,0,"bg.jpg",0,0
//Break Periods
//Storyboard Layer 0 (Background)
//Storyboard Layer 1 (Fail)
//Storyboard Layer 2 (Pass)
//Storyboard Layer 3 (Foreground)
//Storyboard Layer 4 (Overlay)
//Storyboard Sound Samples

[TimingPoints]
64,315.789473684211,4,2,0,60,1,0
64,-100,4,2,0,60,0,0
1011,-100,4,2,1,45,0,0
1327,-100,4,2,1,60,0,0
3537,-100,4,2,1,60,0,0
3853,-100,4,2,1,60,0,0
5748,-100,4,2,1,60,0,0
6379,-100,4,2,1,60,0,0
8590,-100,4,2,1,65,0,0
8906,-100,4,2,1,65,0,0
11116,-100,4,2,1,65,0,0
11432,-100,4,2,1,80,0,0
20274,-100,4,2,1,70,0,0
21537,-100,4,2,1,90,0,0
30379,-100,4,2,1,75,0,0
31327,-100,4,2,1,70,0,0
31642,-100,4,2,1,60,0,0
31958,-100,4,2,1,5,0,0

[Colours]
Combo1 : 72,164,255
Combo2 : 128,128,192

[HitObjects]
400,55,1011,5,8,0:2:0:0:
305,21,1327,2,0,L|192:27,1,99.9999999999999,6|2,1:2|0:2,0:0:0:0:
105,28,1958,2,0,L|110:127,1,99.9999999999999,2|2,0:2|0:2,0:0:0:0:
50,208,2590,2,0,P|121:164|205:231,1,200,2|0,0:2|0:0,0:0:0:0:
205,326,3537,1,2,1:2:0:0:
293,278,3853,6,0,L|414:284,1,99.9999999999999,6|2,1:2|0:2,0:0:0:0:
402,183,4485,2,0,L|302:178,1,99.9999999999999,2|2,0:2|0:2,0:0:0:0:
210,218,5116,2,0,B|167:130|167:130|216:31,1,200,2|0,0:2|1:2,0:0:0:0:
299,88,6064,1,2,0:2:0:0:
387,42,6379,6,0,L|503:52,1,99.9999999999999,6|2,1:2|0:2,0:0:0:0:
487,150,7011,2,0,L|387:141,1,99.9999999999999,2|2,0:2|0:2,0:0:0:0:
299,88,7642,2,0,B|194:56|213:126|96:92,1,200,2|0,0:2|0:0,0:0:0:0:
13,49,8590,1,2,1:2:0:0:
30,147,8906,6,0,L|36:260,1,99.9999999999999,6|2,1:2|0:2,0:0:0:0:
126,287,9537,2,0,L|131:187,1,99.9999999999999,2|2,0:2|0:2,0:0:0:0:
115,88,10169,2,0,P|202:42|300:88,1,200,2|0,0:2|0:0,0:0:0:0:
357,151,11116,2,0,L|353:203,1,50,2|0,0:2|0:0,0:0:0:0:
347,250,11432,6,0,L|467:246,1,99.9999999999999,6|2,1:2|1:2,0:0:0:0:
475,342,12064,2,0,L|375:345,1,99.9999999999999,2|2,1:2|1:2,0:0:0:0:
278,317,12695,2,0,L|228:318,1,50,2|2,1:2|0:2,0:0:0:0:
184,343,13011,2,0,L|134:344,1,50,2|2,1:2|0:2,0:0:0:0:
83,344,13327,1,2,1:2:0:0:
16,269,13642,1,2,1:2:0:0:
86,197,13958,6,0,P|105:143|100:92,1,99.9999999999999,2|2,1:2|1:2,0:0:0:0:
72,5,14590,2,0,L|181:10,1,99.9999999999999,2|2,1:2|1:2,0:0:0:0:
242,80,15221,2,0,L|291:77,1,50,2|2,1:2|0:2,0:0:0:0:
337,98,15537,2,0,L|386:95,1,50,2|2,1:2|0:2,0:0:0:0:
437,95,15853,1,2,1:2:0:0:
506,167,16169,2,0,P|501:196|500:221,1,50,2|0,1:2|1:0,0:0:0:0:
506,266,16485,6,0,L|401:269,1,99.9999999999999,2|2,1:2|1:2,0:0:0:0:
341,345,17116,2,0,L|236:348,1,99.9999999999999,2|2,1:2|1:2,0:0:0:0:
153,298,17748,2,0,P|146:263|146:241,1,50,2|2,1:2|0:2,0:0:0:0:
167,203,18064,2,0,P|173:168|174:146,1,50,2|2,1:2|0:2,0:0:0:0:
168,103,18379,1,2,1:2:0:0:
127,11,18695,1,2,1:2:0:0:
53,79,19011,6,0,L|62:186,1,99.9999999999999,2|2,1:2|1:2,0:0:0:0:
26,272,19642,1,2,1:2:0:0:
77,357,19958,1,2,1:2:0:0:
160,301,20274,2,0,P|226:279|277:289,1,99.9999999999999,2|2,1:2|0:2,0:0:0:0:
300,303,20748,2,0,P|366:325|417:315,1,99.9999999999999,2|2,1:2|0:2,0:0:0:0:
443,309,21221,1,2,1:2:0:0:
497,225,21537,6,0,L|490:122,1,99.9999999999999,6|2,1:2|1:2,0:0:0:0:
481,25,22169,2,0,P|435:12|381:17,1,99.9999999999999,2|2,1:2|1:2,0:0:0:0:
304,77,22800,2,0,L|237:70,1,50,0|2,1:2|0:2,0:0:0:0:
215,40,23116,2,0,L|148:47,1,50,2|2,1:2|0:2,0:0:0:0:
118,62,23432,2,0,L|51:55,1,50,2|2,1:2|0:2,0:0:0:0:
18,53,23748,1,2,1:2:0:0:
48,148,24064,6,0,L|58:248,1,99.9999999999999,2|2,1:2|1:2,0:0:0:0:
43,346,24695,2,0,P|91:360|147:348,1,99.9999999999999,2|2,1:2|1:2,0:0:0:0:
186,262,25327,2,0,P|230:251|257:253,1,50,0|2,1:2|0:2,0:0:0:0:
281,266,25642,2,0,P|325:277|352:275,1,50,2|2,1:2|0:2,0:0:0:0:
374,255,25958,2,0,P|418:244|445:246,1,50,2|2,1:2|0:2,0:0:0:0:
472,250,26274,1,2,1:2:0:0:
500,152,26590,6,0,L|489:41,1,99.9999999999999,2|2,1:2|1:2,0:0:0:0:
398,12,27221,2,0,L|388:111,1,99.9999999999999,2|2,1:2|1:2,0:0:0:0:
305,167,27853,2,0,L|246:161,1,50,0|2,1:2|0:2,0:0:0:0:
205,171,28169,2,0,L|146:165,1,50,2|2,1:2|0:2,0:0:0:0:
105,175,28485,2,0,L|46:169,1,50,2|2,1:2|0:2,0:0:0:0:
5,162,28800,1,2,1:2:0:0:
55,75,29116,6,0,P|101:51|171:45,1,99.9999999999999,2|2,1:2|1:2,0:0:0:0:
240,82,29748,1,2,1:2:0:0:
313,13,30064,1,2,1:2:0:0:
387,78,30379,2,0,L|380:196,1,99.9999999999999,2|2,1:2|0:2,0:0:0:0:
400,224,30853,2,0,L|393:342,1,99.9999999999999,2|2,1:2|0:2,0:0:0:0:
391,374,31327,1,2,1:2:0:0:
299,334,31642,6,0,L|190:344,1,99.9999999999999,0|0,1:0|0:0,0:0:0:0:
