osu file format v14

[General]
AudioFilename: audio.mp3
AudioLeadIn: 0
PreviewTime: 932
Countdown: 0
SampleSet: Soft
StackLeniency: 0.5
Mode: 0
LetterboxInBreaks: 0
WidescreenStoryboard: 1

[Editor]
DistanceSpacing: 1.4
BeatDivisor: 4
GridSize: 16
TimelineZoom: 3.15

[Metadata]
Title:PADORU / PADORU
TitleUnicode:PADORU / PADORU
Artist:Turbo
ArtistUnicode:Turbo
Creator:DeRandom Otaku
Version:Kowari's Hard
Source:Fate/EXTRA
Tags:TurboAutism eurobeats nero claudius ren kowari -_frontier_- anzeigeistraus iljaaz rolniczy fuju smokelind deppyforce xenon- xehn affirmation neoskylove dorsalplum -_light_- xen rolni contagious Serizawa Haruki Jack J_a_c_k electronic japanese jingle bells 丹下桜 Sakura Tange Saber
BeatmapID:2223734
BeatmapSetID:1061287

[Difficulty]
HPDrainRate:4
CircleSize:3.8
OverallDifficulty:6.5
ApproachRate:8
SliderMultiplier:1.3
SliderTickRate:1

[Events]
//Background and Video events
0,0,"bg.jpg",0,0
//Break Periods
//Storyboard Layer 0 (Background)
//Storyboard Layer 1 (Fail)
//Storyboard Layer 2 (Pass)
//Storyboard Layer 3 (Foreground)
//Storyboard Layer 4 (Overlay)
//Storyboard Sound Samples

[TimingPoints]
64,315.789473684211,4,2,0,60,1,0
64,-100,4,2,0,60,0,0
1011,-100,4,2,1,45,0,0
1327,-125,4,2,1,60,0,0
8590,-125,4,2,1,65,0,0
11432,-100,4,2,1,80,0,0
20274,-111.111111111111,4,2,1,70,0,0
21537,-100,4,2,1,90,0,0
30379,-100,4,2,1,75,0,0
31327,-100,4,2,1,70,0,0
31642,-100,4,2,1,60,0,0
31958,-100,4,2,0,5,0,0

[Colours]
Combo1 : 72,164,255
Combo2 : 128,128,192

[HitObjects]
37,340,1011,5,8,0:2:0:0:
37,340,1327,2,0,L|150:352,1,104,6|2,1:2|0:2,0:0:0:0:
194,215,1958,2,0,L|81:203,1,104,2|2,0:2|0:2,0:0:0:0:
18,76,2590,1,2,0:2:0:0:
451,26,3537,5,2,1:2:0:0:
451,26,3853,2,0,L|341:14,1,104,6|2,1:2|0:2,0:0:0:0:
276,142,4485,2,0,L|386:154,1,104,2|2,0:2|0:2,0:0:0:0:
458,275,5116,1,2,0:2:0:0:
173,337,5748,6,0,P|157:288|187:230,1,104,0|2,1:2|0:2,0:0:0:0:
244,112,6379,6,0,B|200:88|200:88|138:105,1,104,6|2,1:2|0:2,0:0:0:0:
79,231,7011,2,0,B|123:255|123:255|185:238,1,104,2|2,0:2|0:2,0:0:0:0:
317,209,7642,2,0,B|314:254|314:254|325:273|325:273|322:325,2,104,2|0|0,0:2|0:0|0:0,0:0:0:0:
373,74,8590,5,2,1:2:0:0:
373,74,8906,2,0,L|302:59,1,52,6|0,1:2|0:0,0:0:0:0:
256,95,9221,2,0,L|185:80,1,52,2|0,0:2|0:0,0:0:0:0:
131,87,9537,2,0,B|117:112|117:112|126:138,1,52,2|0,0:2|0:0,0:0:0:0:
175,187,9853,2,0,B|182:212|182:212|168:234,1,52,2|0,0:2|0:0,0:0:0:0:
110,278,10169,6,0,L|50:267,2,52,2|0|0,0:2|0:0|0:0,0:0:0:0:
166,323,10642,1,0,0:0:0:0:
223,367,10800,2,0,L|283:356,2,52,0|0|2,0:0|0:0|0:2,0:0:0:0:
332,220,11432,6,0,B|378:226|378:226|391:236|391:236|435:241,1,97.5,6|0,1:2|3:0,0:0:0:0:
464,214,11748,2,0,L|476:141,1,65,2|0,1:2|0:0,0:0:0:0:
420,75,12064,1,2,1:2:0:0:
333,103,12221,1,0,0:0:0:0:
265,41,12379,2,0,P|226:21|182:23,1,65,2|0,1:2|0:0,0:0:0:0:
196,110,12695,6,0,P|148:119|101:193,1,130,2|2,1:2|1:2,0:0:0:0:
146,261,13169,1,2,0:2:0:0:
77,320,13327,2,0,L|2:313,1,65,2|2,1:2|0:2,0:0:0:0:
150,375,13642,2,0,L|214:368,1,65,2|0,1:2|0:0,0:0:0:0:
264,292,13958,6,0,B|252:224|252:224|271:196,1,97.5,2|0,1:2|3:0,0:0:0:0:
301,169,14274,2,0,P|308:134|292:104,1,65,2|0,1:2|0:0,0:0:0:0:
217,61,14590,1,2,1:2:0:0:
136,104,14748,1,0,0:0:0:0:
50,73,14906,2,0,L|56:4,1,65,2|0,1:2|0:0,0:0:0:0:
0,164,15221,6,0,L|22:304,1,130,2|2,1:2|1:2,0:0:0:0:
94,346,15695,1,2,0:2:0:0:
152,275,15853,2,0,P|186:260|223:268,1,65,2|2,1:2|0:2,0:0:0:0:
282,323,16169,2,0,P|314:325|342:311,1,65,2|0,1:2|1:0,0:0:0:0:
356,220,16485,6,0,L|338:113,1,97.5,2|0,1:2|3:0,0:0:0:0:
332,78,16800,2,0,B|361:57|361:57|395:64,1,65,2|0,1:2|0:0,0:0:0:0:
473,99,17116,2,0,L|463:182,1,65,2|0,1:2|0:0,0:0:0:0:
427,246,17432,1,2,1:2:0:0:
475,323,17590,1,0,0:0:0:0:
401,376,17748,6,0,B|332:375|359:333|274:339,1,130,2|2,1:2|1:2,0:0:0:0:
207,284,18221,1,2,0:2:0:0:
262,211,18379,2,0,P|276:172|269:146,1,65,2|2,1:2|0:2,0:0:0:0:
179,141,18695,2,0,P|165:180|172:206,1,65,2|0,1:2|0:0,0:0:0:0:
234,66,19011,6,0,L|122:45,1,97.5,2|0,1:2|3:0,0:0:0:0:
92,40,19327,2,0,P|67:66|66:98,1,65,2|0,1:2|0:0,0:0:0:0:
101,176,19642,1,2,1:2:0:0:
46,248,19800,1,0,0:0:0:0:
103,318,19958,2,0,B|114:347|114:347|101:380,1,65,2|0,1:2|0:0,0:0:0:0:
183,258,20274,5,2,1:2:0:0:
183,258,20432,2,0,L|324:277,2,116.999996429443,2|2|2,0:2|1:2|0:2,0:0:0:0:
138,189,21221,2,0,P|137:141|181:108,1,87.7499973220826,2|0,1:2|0:0,0:0:0:0:
206,99,21537,6,0,L|280:121,1,65,6|0,1:2|3:0,0:0:0:0:
310,136,21774,1,0,3:0:0:0:
310,136,21853,2,0,L|388:128,1,65,2|0,1:2|0:0,0:0:0:0:
443,189,22169,1,2,1:2:0:0:
403,271,22327,1,0,0:0:0:0:
447,350,22485,2,0,P|486:360|518:352,1,65,2|0,1:2|0:0,0:0:0:0:
403,271,22800,6,0,L|309:282,1,65,0|2,1:2|0:2,0:0:0:0:
270,339,23116,2,0,L|205:331,1,65,2|2,1:2|0:2,0:0:0:0:
136,270,23432,1,2,1:2:0:0:
136,270,23590,1,2,0:2:0:0:
192,198,23748,2,0,B|215:152|215:152|193:107,1,97.5,2|0,1:2|0:0,0:0:0:0:
164,76,24064,2,0,P|133:94|87:96,1,65,2|0,1:2|3:0,0:0:0:0:
67,73,24300,1,0,3:0:0:0:
67,73,24379,2,0,P|36:55|-11:62,1,65,2|0,1:2|0:0,0:0:0:0:
3,146,24695,5,2,1:2:0:0:
67,209,24853,1,0,0:0:0:0:
55,299,25011,2,0,L|-19:290,1,65,2|0,1:2|0:0,0:0:0:0:
102,378,25327,6,0,P|140:351|149:328,1,65,0|2,1:2|0:2,0:0:0:0:
234,361,25642,2,0,P|241:315|231:292,1,65,2|2,1:2|0:2,0:0:0:0:
171,234,25958,1,2,1:2:0:0:
171,234,26116,1,2,0:2:0:0:
215,154,26274,1,2,1:2:0:0:
169,75,26432,1,0,1:0:0:0:
230,7,26590,6,0,B|265:-1|265:-1|310:18,1,65,2|0,1:2|3:0,0:0:0:0:
324,42,26827,1,0,3:0:0:0:
324,42,26906,2,0,B|359:50|359:50|404:31,1,65,2|0,1:2|0:0,0:0:0:0:
473,13,27221,1,2,1:2:0:0:
455,102,27379,1,0,0:0:0:0:
437,191,27537,2,0,L|423:269,1,65,2|0,1:2|0:0,0:0:0:0:
400,343,27853,6,0,P|358:307|324:299,1,65,0|2,1:2|0:2,0:0:0:0:
264,270,28169,1,2,1:2:0:0:
193,327,28327,1,2,0:2:0:0:
151,242,28485,2,0,L|168:166,1,65,2|2,1:2|0:2,0:0:0:0:
81,142,28800,2,0,L|64:218,1,65,2|0,1:2|0:0,0:0:0:0:
145,66,29116,6,0,P|193:52|219:61,1,65,2|0,1:2|3:0,0:0:0:0:
245,78,29353,1,0,3:0:0:0:
245,78,29432,2,0,L|261:159,1,65,2|0,1:2|0:0,0:0:0:0:
214,221,29748,1,2,1:2:0:0:
272,290,29906,1,0,0:0:0:0:
362,277,30064,2,0,L|443:265,1,65,2|0,1:2|0:0,0:0:0:0:
479,193,30379,6,0,B|468:139|468:139|474:119|474:119|461:56,1,130,2|2,1:2|0:2,0:0:0:0:
371,56,30853,2,0,B|382:110|382:110|376:130|376:130|389:193,1,130,2|2,1:2|0:2,0:0:0:0:
302,219,31327,2,0,P|265:192|298:115,1,130,2|0,1:2|1:0,0:0:0:0:
