osu file format v14

[General]
AudioFilename: audio.mp3
AudioLeadIn: 0
PreviewTime: 932
Countdown: 0
SampleSet: Soft
StackLeniency: 0.5
Mode: 0
LetterboxInBreaks: 0
WidescreenStoryboard: 1

[Editor]
DistanceSpacing: 0.4
BeatDivisor: 4
GridSize: 16
TimelineZoom: 3.15

[Metadata]
Title:PADORU / PADORU
TitleUnicode:PADORU / PADORU
Artist:Turbo
ArtistUnicode:Turbo
Creator:DeRandom Otaku
Version:Dorsalplum's Extra
Source:Fate/EXTRA
Tags:TurboAutism eurobeats nero claudius ren kowari -_frontier_- anzeigeistraus iljaaz rolniczy fuju smokelind deppyforce xenon- xehn affirmation neoskylove dorsalplum -_light_- xen rolni contagious Serizawa Haruki Jack J_a_c_k electronic japanese jingle bells 丹下桜 Sakura Tange Saber
BeatmapID:2226486
BeatmapSetID:1061287

[Difficulty]
HPDrainRate:6
CircleSize:4
OverallDifficulty:8.7
ApproachRate:9.3
SliderMultiplier:1.8
SliderTickRate:1

[Events]
//Background and Video events
0,0,"bg.jpg",0,0
//Break Periods
//Storyboard Layer 0 (Background)
//Storyboard Layer 1 (Fail)
//Storyboard Layer 2 (Pass)
//Storyboard Layer 3 (Foreground)
//Storyboard Layer 4 (Overlay)
//Storyboard Sound Samples

[TimingPoints]
64,315.789473684211,4,2,0,60,1,0
64,-100,4,2,0,60,0,0
1011,-100,4,2,1,45,0,0
1327,-166.666666666667,4,2,1,60,0,0
2590,-333.333333333334,4,2,1,60,0,0
3537,-100,4,2,1,60,0,0
3853,-166.666666666667,4,2,1,60,0,0
5748,-100,4,2,1,60,0,0
6379,-142.857142857143,4,2,1,60,0,0
8590,-100,4,2,1,65,0,0
8906,-100,4,2,1,65,0,0
11116,-76.9230769230769,4,2,1,65,0,0
11432,-90.9090909090909,4,2,1,80,0,0
20274,-111.111111111111,4,2,1,70,0,0
21537,-83.3333333333333,4,2,1,90,0,0
30379,-111.111111111111,4,2,1,75,0,0
31327,-76.9230769230769,4,2,1,70,0,0
31642,-250,4,2,1,60,0,0
31958,-250,4,2,1,5,0,0

[Colours]
Combo1 : 72,164,255
Combo2 : 128,128,192

[HitObjects]
378,154,1011,5,8,0:2:0:0:
378,154,1327,2,0,P|417:139|493:175,1,107.999996704102,6|2,1:2|0:2,0:0:0:0:
309,89,1958,2,0,P|276:62|269:-21,1,107.999996704102,2|2,0:2|0:2,0:0:0:0:
283,195,2590,6,0,P|270:246|229:279,1,107.999996704102,2|0,0:2|0:0,0:0:0:0:
74,196,3537,1,2,1:2:0:0:
74,196,3853,6,0,B|53:145|53:145|78:71,1,107.999996704102,6|2,1:2|0:2,0:0:0:0:
208,95,4485,2,0,B|229:146|229:146|204:219,1,107.999996704102,2|2,0:2|0:2,0:0:0:0:
146,344,5116,1,2,0:2:0:0:
146,344,5748,1,0,1:2:0:0:
146,344,6379,6,0,B|177:306|177:306|276:304,1,125.999996154785,6|2,1:2|0:2,0:0:0:0:
109,191,7011,2,0,B|126:236|126:236|83:300,1,125.999996154785,2|2,0:2|0:2,0:0:0:0:
258,234,7642,2,0,B|209:226|209:226|165:139,2,125.999996154785,2|0|0,0:2|0:0|0:0,0:0:0:0:
346,183,8590,1,2,1:2:0:0:
346,183,8906,6,0,P|356:228|333:282,1,90,6|0,1:2|0:0,0:0:0:0:
272,126,9221,2,0,P|305:94|364:87,1,90,2|0,0:2|0:0,0:0:0:0:
258,234,9537,2,0,P|214:220|178:173,1,90,2|0,0:2|0:0,0:0:0:0:
343,268,9853,2,0,P|318:306|263:328,1,90,2|0,0:2|0:0,0:0:0:0:
347,85,10169,6,0,B|411:90|411:90|448:129|448:129|518:135,1,180,2|0,0:2|0:0,0:0:0:0:
214,79,10642,2,0,B|150:84|150:84|113:123|113:123|51:128,1,180
272,196,11116,2,0,B|325:285|234:276|287:376,1,175.499991966248,2|0,0:2|0:0,0:0:0:0:
250,382,11432,6,0,L|149:385,1,99.0000030212403,6|0,1:2|3:0,0:0:0:0:
96,326,11669,1,0,3:0:0:0:
96,326,11748,2,0,P|82:277|110:193,1,99.0000030212403,2|0,1:2|0:0,0:0:0:0:
198,61,12064,1,2,1:2:0:0:
186,260,12221,1,0,0:0:0:0:
103,55,12379,2,0,P|145:45|210:71,1,99.0000030212403,2|0,1:2|0:0,0:0:0:0:
351,161,12695,6,0,L|361:274,1,99.0000030212403,2|2,1:2|0:2,0:0:0:0:
300,66,13011,1,2,1:2:0:0:
253,296,13169,1,2,0:2:0:0:
402,70,13327,1,2,1:2:0:0:
447,285,13485,1,2,0:2:0:0:
292,56,13642,1,2,1:2:0:0:
247,313,13800,1,0,0:0:0:0:
431,58,13958,6,0,L|438:174,1,99.0000030212403,2|0,1:2|3:0,0:0:0:0:
396,205,14195,1,0,3:0:0:0:
396,205,14274,2,0,P|345:205|301:180,1,99.0000030212403,2|0,1:2|0:0,0:0:0:0:
212,19,14590,1,2,1:2:0:0:
157,234,14748,1,0,0:0:0:0:
32,61,14906,2,0,L|45:175,1,99.0000030212403,2|0,1:2|0:0,0:0:0:0:
123,311,15221,6,0,P|160:320|221:284,1,99.0000030212403,2|2,1:2|0:2,0:0:0:0:
259,115,15537,1,2,1:2:0:0:
244,371,15695,1,2,0:2:0:0:
402,101,15853,1,2,1:2:0:0:
356,341,16011,1,2,0:2:0:0:
217,41,16169,1,2,1:2:0:0:
305,264,16327,1,0,1:0:0:0:
440,32,16485,6,0,P|394:25|334:69,1,99.0000030212403,2|0,1:2|3:0,0:0:0:0:
351,159,16721,1,0,3:0:0:0:
351,159,16800,2,0,P|406:174|477:146,1,99.0000030212403,2|0,1:2|0:0,0:0:0:0:
217,41,17116,1,2,1:2:0:0:
305,264,17274,1,0,0:0:0:0:
123,167,17432,2,0,L|236:159,1,99.0000030212403,2|0,1:2|0:0,0:0:0:0:
403,260,17748,6,0,L|266:265,1,99.0000030212403,2|2,1:2|0:2,0:0:0:0:
5,331,18064,1,2,1:2:0:0:
306,355,18221,1,2,0:2:0:0:
23,224,18379,1,2,1:2:0:0:
306,265,18537,1,2,0:2:0:0:
93,384,18695,1,2,1:2:0:0:
164,108,18853,1,0,0:0:0:0:
306,355,19011,6,0,L|425:364,1,99.0000030212403,2|0,1:2|3:0,0:0:0:0:
469,314,19248,1,0,3:0:0:0:
469,314,19327,2,0,P|466:267|415:217,1,99.0000030212403,2|0,1:2|0:0,0:0:0:0:
258,168,19642,1,2,1:2:0:0:
306,355,19800,1,0,0:0:0:0:
484,229,19958,2,0,P|455:226|392:237,1,49.5000015106202,2|0,1:2|0:0,0:0:0:0:
258,168,20116,2,0,P|277:166|317:150,1,49.5000015106202
452,32,20274,6,0,B|423:105|420:144|437:165|457:169|472:149|467:135|451:124,1,161.999995056153,2|2,1:2|0:2,0:0:0:0:
114,155,20748,6,0,B|143:82|146:43|129:22|109:18|94:38|99:52|115:63,1,161.999995056153,2|2,1:2|0:2,0:0:0:0:
275,189,21221,6,0,B|258:251|312:251|277:327,1,121.499996292114,2|0,1:2|0:0,0:0:0:0:
310,352,21537,6,0,P|367:333|441:363,1,107.999996704102,6|0,1:2|3:0,0:0:0:0:
485,269,21774,1,0,3:0:0:0:
485,269,21853,2,0,P|436:282|374:256,1,107.999996704102,2|0,1:2|0:0,0:0:0:0:
337,69,22169,1,2,1:2:0:0:
284,306,22327,1,0,0:0:0:0:
205,50,22485,2,0,P|212:103|200:185,1,107.999996704102,2|0,1:2|0:0,0:0:0:0:
57,305,22800,5,0,1:2:0:0:
122,49,22958,1,2,0:2:0:0:
158,356,23116,1,2,1:2:0:0:
44,110,23274,1,2,0:2:0:0:
23,384,23432,1,2,1:2:0:0:
218,237,23590,1,2,0:2:0:0:
1,236,23748,2,0,P|59:220|126:247,1,107.999996704102,2|0,1:2|0:0,0:0:0:0:
273,324,24064,6,0,P|328:334|399:309,1,107.999996704102,2|0,1:2|3:0,0:0:0:0:
322,232,24300,1,0,3:0:0:0:
322,232,24379,2,0,P|294:260|273:338,1,107.999996704102,2|0,1:2|0:0,0:0:0:0:
453,271,24695,1,2,1:2:0:0:
218,237,24853,1,0,0:0:0:0:
366,68,25011,2,0,P|389:122|392:185,1,107.999996704102,2|0,1:2|0:0,0:0:0:0:
101,365,25327,5,0,1:2:0:0:
258,117,25485,1,2,0:2:0:0:
42,189,25642,1,2,1:2:0:0:
315,291,25800,1,2,0:2:0:0:
92,372,25958,1,2,1:2:0:0:
267,106,26116,1,2,0:2:0:0:
24,182,26274,2,0,L|156:192,1,107.999996704102,2|0,1:2|1:0,0:0:0:0:
315,291,26590,6,0,P|263:305|211:296,1,107.999996704102,2|0,1:2|3:0,0:0:0:0:
103,264,26827,1,0,3:0:0:0:
103,264,26906,2,0,L|91:371,1,107.999996704102,2|0,1:2|0:0,0:0:0:0:
298,206,27221,1,2,1:2:0:0:
168,378,27379,1,0,0:0:0:0:
195,111,27537,2,0,L|207:250,1,107.999996704102,2|0,1:2|0:0,0:0:0:0:
405,42,27853,5,0,1:2:0:0:
406,339,28011,1,2,0:2:0:0:
296,41,28169,1,2,1:2:0:0:
299,357,28327,1,2,0:2:0:0:
137,35,28485,1,2,1:2:0:0:
216,363,28642,1,2,0:2:0:0:
296,41,28800,2,0,P|236:55|191:96,1,107.999996704102,2|0,1:2|0:0,0:0:0:0:
180,288,29116,6,0,P|162:228|175:168,1,107.999996704102,2|0,1:2|3:0,0:0:0:0:
104,137,29353,1,0,3:0:0:0:
104,137,29432,2,0,P|55:159|-1:164,1,107.999996704102,2|0,1:2|0:0,0:0:0:0:
180,288,29748,2,0,L|300:292,1,107.999996704102,2|0,1:2|0:0,0:0:0:0:
484,172,30064,2,0,L|364:176,1,107.999996704102,2|0,1:2|0:0,0:0:0:0:
359,326,30379,6,0,B|369:284|359:266|359:266|382:237|382:237|365:205|382:147,1,161.999995056153,2|2,1:2|0:2,0:0:0:0:
215,47,30853,2,0,B|225:89|215:107|215:107|238:136|238:136|221:168|238:226,1,161.999995056153,2|2,1:2|0:2,0:0:0:0:
447,53,31327,6,0,P|372:14|301:59,1,175.499991966248,2|0,1:2|0:0,0:0:0:0:
374,102,31642,6,0,L|374:173,1,72,0|0,1:0|0:0,0:0:0:0:
