osu file format v14

[General]
AudioFilename: audio.mp3
AudioLeadIn: 0
PreviewTime: 932
Countdown: 0
SampleSet: Soft
StackLeniency: 0.5
Mode: 0
LetterboxInBreaks: 0
WidescreenStoryboard: 1

[Editor]
DistanceSpacing: 0.2
BeatDivisor: 4
GridSize: 16
TimelineZoom: 1.850001

[Metadata]
Title:PADORU / PADORU
TitleUnicode:PADORU / PADORU
Artist:Turbo
ArtistUnicode:Turbo
Creator:DeRandom Otaku
Version:Anzei's Another
Source:Fate/EXTRA
Tags:TurboAutism eurobeats nero claudius ren kowari -_frontier_- anzeigeistraus iljaaz rolniczy fuju smokelind deppyforce xenon- xehn affirmation neoskylove dorsalplum -_light_- xen rolni contagious Serizawa Haruki Jack J_a_c_k electronic japanese jingle bells 丹下桜 Sakura Tange Saber
BeatmapID:2223144
BeatmapSetID:1061287

[Difficulty]
HPDrainRate:5.4
CircleSize:4
OverallDifficulty:8
ApproachRate:9
SliderMultiplier:1.69
SliderTickRate:1

[Events]
//Background and Video events
0,0,"bg.jpg",0,0
//Break Periods
//Storyboard Layer 0 (Background)
//Storyboard Layer 1 (Fail)
//Storyboard Layer 2 (Pass)
//Storyboard Layer 3 (Foreground)
//Storyboard Layer 4 (Overlay)
//Storyboard Sound Samples

[TimingPoints]
64,315.789473684211,4,2,0,60,1,0
64,-100,4,2,0,60,0,0
1011,-100,4,2,0,45,0,0
1327,-142.857142857143,4,2,1,60,0,0
3537,-86.9565217391306,4,2,1,60,0,0
3853,-142.857142857143,4,2,1,60,0,0
5748,-153.846153846154,4,2,1,60,0,0
6379,-142.857142857143,4,2,1,60,0,0
8590,-86.9565217391304,4,2,1,65,0,0
8906,-111.111111111111,4,2,1,65,0,0
10169,-200,4,2,1,65,0,0
11116,-74.0740740740741,4,2,1,65,0,0
11432,-86.9565217391304,4,2,1,80,0,0
20274,-105.263157894737,4,2,1,70,0,0
21537,-86.9565217391304,4,2,1,90,0,0
30379,-105.263157894737,4,2,1,75,0,0
31327,-105.263157894737,4,2,1,70,0,0
31642,-250,4,2,1,60,0,0
31958,-250,4,2,0,5,0,0

[Colours]
Combo1 : 72,164,255
Combo2 : 128,128,192

[HitObjects]
79,32,1327,6,0,B|94:70|87:94|87:94|115:109|130:139,1,118.299996389771,6|2,1:2|0:2,0:0:0:0:
327,167,1958,2,0,B|285:161|268:143|268:143|241:159|211:159,1,118.299996389771,2|2,0:2|0:2,0:0:0:0:
81,313,2590,2,0,B|106:280|130:274|130:274|130:243|149:214,1,118.299996389771,2|0,0:2|0:0,0:0:0:0:
226,305,3537,6,0,P|277:284|333:353,1,145.762502780199,2|0,1:2|0:0,0:0:0:0:
317,373,3853,2,0,B|292:318|292:318|304:243,1,118.299996389771,6|2,1:2|0:2,0:0:0:0:
464,128,4485,2,0,B|428:177|428:177|349:205,1,118.299996389771,2|2,0:2|0:2,0:0:0:0:
182,127,5116,2,0,B|242:132|242:132|305:187,1,118.299996389771,2|0,0:2|0:0,0:0:0:0:
381,280,5748,5,0,1:2:0:0:
381,280,6064,1,2,0:2:0:0:
321,336,6379,2,0,B|295:363|295:363|198:363,1,118.299996389771,6|2,1:2|0:2,0:0:0:0:
315,226,7011,2,0,B|341:199|341:199|428:201,1,118.299996389771,2|2,0:2|0:2,0:0:0:0:
198,253,7642,2,0,B|223:226|223:226|222:125,2,118.299996389771,2|0|0,0:2|0:0|0:0,0:0:0:0:
434,53,8590,2,0,B|376:51|376:51|345:74|345:74|278:71,1,145.762502780199,2|0,1:2|0:0,0:0:0:0:
219,58,8906,6,0,P|258:39|318:46,1,76.0499976791383,6|0,1:2|0:0,0:0:0:0:
120,218,9221,2,0,P|82:220|45:202,1,76.0499976791383,2|0,0:2|0:0,0:0:0:0:
260,221,9537,2,0,L|275:146,1,76.0499976791383,2|0,0:2|0:0,0:0:0:0:
83,61,9853,2,0,L|97:140,1,76.0499976791383,2|0,0:2|0:0,0:0:0:0:
208,276,10169,6,0,P|253:276|289:295,1,84.5,2|0,0:2|0:0,0:0:0:0:
374,376,10642,1,0,0:0:0:0:
230,360,10800,1,0,0:0:0:0:
230,360,10879,1,0,0:0:0:0:
230,360,10958,1,0,0:0:0:0:
391,106,11116,6,0,B|414:192|414:192|390:283,1,171.112500652742,2|0,0:2|0:0,0:0:0:0:
387,294,11432,5,6,1:2:0:0:
203,147,11590,1,0,3:0:0:0:
203,147,11669,1,0,3:0:0:0:
203,147,11748,2,0,L|308:123,1,97.1750018534661,2|0,1:2|0:0,0:0:0:0:
486,83,12064,1,2,1:2:0:0:
323,37,12221,1,0,0:0:0:0:
496,277,12379,2,0,L|491:159,1,97.1750018534661,2|0,1:2|0:0,0:0:0:0:
481,1,12695,5,2,1:2:0:0:
394,104,12853,1,2,0:2:0:0:
486,83,13011,1,2,1:2:0:0:
323,37,13169,1,2,0:2:0:0:
365,199,13327,1,2,1:2:0:0:
394,104,13485,1,2,0:2:0:0:
187,190,13642,2,0,B|226:227|226:227|282:243,1,97.1750018534661,2|0,1:2|0:0,0:0:0:0:
223,30,13958,5,2,1:2:0:0:
142,103,14116,1,0,3:0:0:0:
142,103,14195,1,0,3:0:0:0:
142,103,14274,2,0,B|106:133|106:133|85:207,1,97.1750018534661,2|0,1:2|0:0,0:0:0:0:
94,291,14590,1,2,1:2:0:0:
187,190,14748,1,0,0:0:0:0:
23,245,14906,2,0,B|6:293|6:293|20:338,1,97.1750018534661,2|0,1:2|0:0,0:0:0:0:
140,371,15221,5,2,1:2:0:0:
94,291,15379,1,2,0:2:0:0:
243,371,15537,1,2,1:2:0:0:
193,291,15695,1,2,0:2:0:0:
346,370,15853,1,2,1:2:0:0:
140,371,16011,1,2,0:2:0:0:
294,286,16169,2,0,B|349:271|349:271|414:293,1,97.1750018534661,2|0,1:2|1:0,0:0:0:0:
480,377,16485,5,2,1:2:0:0:
482,244,16642,1,0,3:0:0:0:
482,244,16721,1,0,3:0:0:0:
482,244,16800,2,0,B|492:192|492:192|477:115,1,97.1750018534661,2|0,1:2|0:0,0:0:0:0:
419,47,17116,1,2,1:2:0:0:
382,189,17274,1,0,0:0:0:0:
311,68,17432,2,0,B|265:59|265:59|188:84,1,97.1750018534661,2|0,1:2|0:0,0:0:0:0:
95,159,17748,5,2,1:2:0:0:
272,161,17906,1,2,0:2:0:0:
104,28,18064,1,2,1:2:0:0:
186,208,18221,1,2,0:2:0:0:
277,27,18379,1,2,1:2:0:0:
95,159,18537,1,2,0:2:0:0:
271,258,18695,2,0,L|272:152,1,97.1750018534661,2|0,1:2|0:0,0:0:0:0:
277,27,19011,5,2,1:2:0:0:
410,144,19169,1,0,3:0:0:0:
410,144,19248,1,0,3:0:0:0:
410,144,19327,2,0,L|409:270,1,97.1750018534661,2|0,1:2|0:0,0:0:0:0:
348,366,19642,1,2,1:2:0:0:
271,165,19800,1,0,0:0:0:0:
193,361,19958,2,0,L|82:354,1,97.1750018534661,2|0,1:2|0:0,0:0:0:0:
190,169,20274,6,0,L|273:164,1,80.2749978564263,2|2,1:2|0:2,0:0:0:0:
74,276,20590,2,0,P|85:257|91:212,1,40.1374989282131,2|0,0:2|0:0,0:0:0:0:
103,142,20748,2,0,B|127:229|127:229|192:278,1,160.549995712853,2|2,1:2|0:2,0:0:0:0:
362,273,21221,2,0,L|255:273,1,80.2749978564263,2|0,1:2|0:0,0:0:0:0:
461,162,21537,5,6,1:2:0:0:
476,352,21695,1,0,3:0:0:0:
476,352,21774,1,0,3:0:0:0:
476,352,21853,2,0,L|466:233,1,97.1750018534661,2|0,1:2|0:0,0:0:0:0:
401,90,22169,1,2,1:2:0:0:
362,273,22327,1,0,0:0:0:0:
298,74,22485,2,0,B|251:56|251:56|190:76,1,97.1750018534661,2|0,1:2|0:0,0:0:0:0:
101,125,22800,5,0,1:2:0:0:
250,156,22958,1,2,0:2:0:0:
126,39,23116,1,2,1:2:0:0:
72,218,23274,1,2,0:2:0:0:
163,197,23432,1,2,1:2:0:0:
14,145,23590,1,2,0:2:0:0:
149,287,23748,2,0,B|199:289|199:289|258:257,1,97.1750018534661,2|0,1:2|0:0,0:0:0:0:
331,123,24064,5,2,1:2:0:0:
415,271,24221,1,0,3:0:0:0:
415,271,24300,1,0,3:0:0:0:
415,271,24379,2,0,B|429:323|429:323|411:379,1,97.1750018534661,2|0,1:2|0:0,0:0:0:0:
491,212,24695,1,2,1:2:0:0:
331,320,24853,1,0,0:0:0:0:
415,168,25011,2,0,B|423:125|423:125|410:74,1,97.1750018534661,2|0,1:2|0:0,0:0:0:0:
237,121,25327,5,0,1:2:0:0:
331,122,25485,1,2,0:2:0:0:
193,33,25642,1,2,1:2:0:0:
182,207,25800,1,2,0:2:0:0:
331,122,25958,1,2,1:2:0:0:
193,33,26116,1,2,0:2:0:0:
280,312,26274,2,0,B|296:264|296:264|290:194,1,97.1750018534661,2|0,1:2|1:0,0:0:0:0:
172,379,26590,5,2,1:2:0:0:
61,207,26748,1,0,3:0:0:0:
61,207,26827,1,0,3:0:0:0:
61,207,26906,2,0,B|57:253|57:253|73:301,1,97.1750018534661,2|0,1:2|0:0,0:0:0:0:
172,379,27221,1,2,1:2:0:0:
182,207,27379,1,0,0:0:0:0:
349,375,27537,2,0,B|404:371|404:371|448:322,1,97.1750018534661,2|0,1:2|0:0,0:0:0:0:
409,139,27853,5,0,1:2:0:0:
363,279,28011,1,2,0:2:0:0:
332,86,28169,1,2,1:2:0:0:
504,245,28327,1,2,0:2:0:0:
321,172,28485,1,2,1:2:0:0:
512,65,28642,1,2,0:2:0:0:
259,23,28800,2,0,B|139:27,1,97.1750018534661,2|0,1:2|0:0,0:0:0:0:
10,137,29116,5,2,1:2:0:0:
208,244,29274,1,0,3:0:0:0:
208,244,29353,1,0,3:0:0:0:
208,244,29432,2,0,B|226:197|226:197|203:140,1,97.1750018534661,2|0,1:2|0:0,0:0:0:0:
0,262,29748,1,2,1:2:0:0:
140,341,29906,1,0,0:0:0:0:
140,341,29985,1,0,0:0:0:0:
140,341,30064,2,0,B|187:359|187:359|262:349,1,97.1750018534661,2|0,1:2|0:0,0:0:0:0:
394,311,30379,6,0,L|293:299,1,80.2749978564263,2|2,1:2|0:2,0:0:0:0:
458,255,30695,2,0,P|446:244|436:223,1,40.1374989282131,2|0,0:2|0:0,0:0:0:0:
404,153,30853,2,0,P|441:168|481:166,1,80.2749978564263,2|0,1:2|0:0,0:0:0:0:
292,88,31169,1,2,0:2:0:0:
403,32,31327,2,0,P|440:17|480:19,1,80.2749978564263,2|0,1:2|0:0,0:0:0:0:
292,88,31642,1,0,1:0:0:0:
