osu file format v14

[General]
AudioFilename: audio.mp3
AudioLeadIn: 0
PreviewTime: 21142
Countdown: 0
SampleSet: Normal
StackLeniency: 0.2
Mode: 1
LetterboxInBreaks: 0
WidescreenStoryboard: 1

[Editor]
DistanceSpacing: 1.9
BeatDivisor: 4
GridSize: 32
TimelineZoom: 1

[Metadata]
Title:PADORU / PADORU
TitleUnicode:PADORU / PADORU
Artist:Turbo
ArtistUnicode:Turbo
Creator:D0UG_YT
Version:Muzukashii
Source:Fate/EXTRA
Tags:Christmas XMAS Remix Edit turboautism eurobeat Hashire sori yo Kaze no you ni Tsukimihara wo japanese anime electronic video game jingle bells Saber
BeatmapID:2536492
BeatmapSetID:1185368

[Difficulty]
HPDrainRate:8
CircleSize:2
OverallDifficulty:5
ApproachRate:0
SliderMultiplier:1.4
SliderTickRate:1

[Events]
//Background and Video events
0,0,"bg.jpg",0,0
//Break Periods
//Storyboard Layer 0 (Background)
//Storyboard Layer 1 (Fail)
//Storyboard Layer 2 (Pass)
//Storyboard Layer 3 (Foreground)
//Storyboard Layer 4 (Overlay)
//Storyboard Sound Samples

[TimingPoints]
64,315.789473684211,4,1,0,60,1,0
11432,-100,4,1,0,70,0,0
21537,-100,4,1,0,70,0,1
30379,-100,4,1,0,70,0,0

[HitObjects]
256,192,1011,5,0,0:0:0:0:
256,192,1327,1,12,0:0:0:0:
256,192,1958,1,0,0:0:0:0:
256,192,2274,1,8,0:0:0:0:
256,192,2590,1,0,0:0:0:0:
256,192,3537,1,0,0:0:0:0:
256,192,3853,1,12,0:0:0:0:
256,192,4485,1,8,0:0:0:0:
256,192,4800,1,8,0:0:0:0:
256,192,5116,1,0,0:0:0:0:
256,192,5748,5,0,0:0:0:0:
256,192,6379,1,12,0:0:0:0:
256,192,7011,1,0,0:0:0:0:
256,192,7327,1,0,0:0:0:0:
256,192,7642,1,8,0:0:0:0:
256,192,8590,1,0,0:0:0:0:
256,192,8906,1,12,0:0:0:0:
256,192,9537,1,8,0:0:0:0:
256,192,9853,1,8,0:0:0:0:
256,192,10169,1,0,0:0:0:0:
256,192,11116,1,12,0:0:0:0:
256,192,11432,1,4,0:0:0:0:
256,192,11590,1,8,0:0:0:0:
256,192,11669,1,8,0:0:0:0:
256,192,11748,1,8,0:0:0:0:
256,192,12064,1,0,0:0:0:0:
256,192,12379,1,8,0:0:0:0:
256,192,12695,1,8,0:0:0:0:
256,192,12853,1,0,0:0:0:0:
256,192,13011,1,0,0:0:0:0:
256,192,13169,1,8,0:0:0:0:
256,192,13327,1,8,0:0:0:0:
256,192,13485,1,0,0:0:0:0:
256,192,13642,1,8,0:0:0:0:
256,192,13958,1,12,0:0:0:0:
256,192,14116,1,0,0:0:0:0:
256,192,14195,1,0,0:0:0:0:
256,192,14274,1,0,0:0:0:0:
256,192,14590,1,8,0:0:0:0:
256,192,14906,1,0,0:0:0:0:
256,192,15221,1,0,0:0:0:0:
256,192,15379,1,8,0:0:0:0:
256,192,15537,1,8,0:0:0:0:
256,192,15695,1,0,0:0:0:0:
256,192,15853,1,0,0:0:0:0:
256,192,16011,1,8,0:0:0:0:
256,192,16485,1,4,0:0:0:0:
256,192,16642,1,8,0:0:0:0:
256,192,16721,1,8,0:0:0:0:
256,192,16800,1,8,0:0:0:0:
256,192,17116,1,8,0:0:0:0:
256,192,17432,1,0,0:0:0:0:
256,192,17748,1,0,0:0:0:0:
256,192,17906,1,8,0:0:0:0:
256,192,18064,1,0,0:0:0:0:
256,192,18221,1,0,0:0:0:0:
256,192,18379,1,8,0:0:0:0:
256,192,18537,1,0,0:0:0:0:
256,192,18695,1,8,0:0:0:0:
256,192,19011,1,12,0:0:0:0:
256,192,19169,1,0,0:0:0:0:
256,192,19248,1,0,0:0:0:0:
256,192,19327,1,0,0:0:0:0:
256,192,19642,1,8,0:0:0:0:
256,192,19800,1,0,0:0:0:0:
256,192,19958,1,8,0:0:0:0:
256,192,20274,1,0,0:0:0:0:
256,192,20748,1,8,0:0:0:0:
256,192,21064,1,8,0:0:0:0:
256,192,21221,1,0,0:0:0:0:
256,192,21537,1,12,0:0:0:0:
256,192,21695,1,0,0:0:0:0:
256,192,21774,1,0,0:0:0:0:
256,192,21853,1,0,0:0:0:0:
256,192,22169,1,0,0:0:0:0:
256,192,22327,1,8,0:0:0:0:
256,192,22485,1,0,0:0:0:0:
256,192,22800,1,8,0:0:0:0:
256,192,22958,1,0,0:0:0:0:
256,192,23037,1,0,0:0:0:0:
256,192,23116,1,0,0:0:0:0:
256,192,23274,1,8,0:0:0:0:
256,192,23432,1,0,0:0:0:0:
256,192,23590,1,8,0:0:0:0:
256,192,23748,1,0,0:0:0:0:
256,192,24064,1,12,0:0:0:0:
256,192,24221,1,0,0:0:0:0:
256,192,24300,1,0,0:0:0:0:
256,192,24379,1,0,0:0:0:0:
256,192,24695,1,8,0:0:0:0:
256,192,24853,1,0,0:0:0:0:
256,192,25011,1,8,0:0:0:0:
256,192,25327,1,8,0:0:0:0:
256,192,25485,1,0,0:0:0:0:
256,192,25564,1,0,0:0:0:0:
256,192,25642,1,0,0:0:0:0:
256,192,25800,1,8,0:0:0:0:
256,192,25958,1,0,0:0:0:0:
256,192,26116,1,8,0:0:0:0:
256,192,26590,1,12,0:0:0:0:
256,192,26748,1,0,0:0:0:0:
256,192,26827,1,0,0:0:0:0:
256,192,26906,1,0,0:0:0:0:
256,192,27221,1,0,0:0:0:0:
256,192,27379,1,8,0:0:0:0:
256,192,27537,1,0,0:0:0:0:
256,192,27853,1,8,0:0:0:0:
256,192,28011,1,0,0:0:0:0:
256,192,28090,1,0,0:0:0:0:
256,192,28169,1,0,0:0:0:0:
256,192,28327,1,8,0:0:0:0:
256,192,28485,1,0,0:0:0:0:
256,192,28642,1,8,0:0:0:0:
256,192,28800,1,0,0:0:0:0:
256,192,28958,1,8,0:0:0:0:
256,192,29116,1,12,0:0:0:0:
256,192,29274,1,0,0:0:0:0:
256,192,29353,1,0,0:0:0:0:
256,192,29432,1,0,0:0:0:0:
256,192,29590,1,8,0:0:0:0:
256,192,29748,1,0,0:0:0:0:
256,192,30064,1,8,0:0:0:0:
256,192,30379,1,12,0:0:0:0:
256,192,30853,1,0,0:0:0:0:
256,192,31169,1,8,0:0:0:0:
256,192,31248,1,8,0:0:0:0:
256,192,31327,1,8,0:0:0:0:
256,192,31642,1,12,0:0:0:0:
