osu file format v14

[General]
AudioFilename: audio.mp3
AudioLeadIn: 0
PreviewTime: 116144
Countdown: 0
SampleSet: Normal
StackLeniency: 0.7
Mode: 0
LetterboxInBreaks: 0
WidescreenStoryboard: 0

[Editor]
Bookmarks: 113358,114751,126361,136423,154999
DistanceSpacing: 1
BeatDivisor: 4
GridSize: 4
TimelineZoom: 2.3

[Metadata]
Title:Ravers Fantasy (speed remix)
TitleUnicode:Ravers Fantasy (speed remix)
Artist:Tune Up
ArtistUnicode:Tune Up
Creator:Louis Cyphre
Version:Easy
Source:
Tags:-Nya- Nightcore
BeatmapID:1164047
BeatmapSetID:547927

[Difficulty]
HPDrainRate:3
CircleSize:3.5
OverallDifficulty:3
ApproachRate:3
SliderMultiplier:0.85
SliderTickRate:1

[Events]
//Background and Video events
0,0,"anime-anime-girls-headphones-music-original-characters.png",0,0
//Break Periods
2,47459,50772
//Storyboard Layer 0 (Background)
//Storyboard Layer 1 (Fail)
//Storyboard Layer 2 (Pass)
//Storyboard Layer 3 (Foreground)
//Storyboard Sound Samples

[TimingPoints]
1439,309.597523219814,4,1,1,50,1,0
23730,-100,4,1,1,65,0,0
24968,-100,4,1,1,75,0,0
27445,-100,4,1,1,75,0,1
47240,-100,4,1,1,75,0,0
47259,-100,4,1,1,75,0,1
47278,-100,4,1,1,75,0,0
52212,-100,4,1,1,65,0,0
85649,-100,4,1,1,5,0,0
86887,-100,4,1,1,50,0,1
86965,-100,4,1,1,50,0,0
104225,-100,4,1,1,65,0,0
116609,-100,4,1,1,75,0,1
136404,-100,4,1,1,75,0,0
136423,-100,4,1,1,75,0,1
156218,-100,4,1,1,75,0,0
156237,-100,4,1,1,75,0,1
156257,-100,4,1,1,75,0,0

[Colours]
Combo1 : 7,128,216
Combo2 : 128,4,115
Combo3 : 168,0,0
Combo4 : 236,167,4
Combo5 : 114,210,6

[HitObjects]
176,96,6392,6,0,L|196:184,1,85,4|0,0:0|0:0,0:0:0:0:
268,220,7011,2,0,L|292:316,1,85
220,352,7630,2,0,B|152:332|152:256|152:256|80:236|84:152,1,255,2|0,0:0|0:0,0:0:0:0:
132,92,8869,6,0,B|216:80|216:80|316:100,1,170,2|0,0:0|0:0,0:0:0:0:
376,132,9798,1,0,0:0:0:0:
384,216,10107,2,0,B|344:252|284:236|284:236|192:240|176:332,1,255,2|0,0:0|0:0,0:0:0:0:
256,356,11346,5,2,0:0:0:0:
340,364,11655,2,0,P|380:352|416:312,2,85
340,280,12584,2,0,B|328:216|328:216|344:180|344:180|328:108,1,170,2|0,0:0|0:0,0:0:0:0:
304,36,13513,1,0,0:0:0:0:
220,52,13822,6,0,B|192:100|200:140|224:184|224:184|156:292,1,255,2|0,0:0|0:0,0:0:0:0:
80,312,15061,2,0,P|52:252|68:180,2,127.5,2|0|0,0:0|0:0|0:0,0:0:0:0:
148,364,16299,5,2,0:0:0:0:
232,360,16609,2,0,L|332:332,2,85
196,284,17538,2,0,P|220:248|348:260,1,170,2|0,0:0|0:0,0:0:0:0:
396,308,18466,1,0,0:0:0:0:
468,264,18776,6,0,B|476:224|476:224|472:164,1,85,2|0,0:0|0:0,0:0:0:0:
440,104,19395,2,0,P|384:84|348:84,1,85
276,108,20014,2,0,B|208:116|172:48|172:48|164:124|88:152,1,255,2|0,0:0|0:0,0:0:0:0:
40,204,21253,5,2,0:0:0:0:
56,288,21562,2,0,P|92:312|144:312,2,85
120,232,22491,2,0,B|164:224|204:264|204:264|280:232,1,170,2|0,0:0|0:0,0:0:0:0:
352,204,23420,1,0,0:0:0:0:
396,132,23730,6,0,B|352:88|276:88|276:88|240:52|240:52|176:72|152:56,1,255,2|0,0:0|0:0,0:0:0:0:
104,120,24968,2,0,P|88:156|116:240,2,127.5,4|0|4,0:0|0:0|0:0,0:0:0:0:
172,172,26206,6,0,B|236:196|248:264|248:264|304:256|304:256|312:312|352:328,1,255,4|2,0:0|0:0,0:0:0:0:
420,340,27445,6,0,P|444:288|440:248,1,85,4|8,0:1|0:0,0:0:0:0:
424,180,28064,2,0,P|400:128|404:88,1,85,2|8,0:0|0:0,0:0:0:0:
440,24,28683,2,0,P|364:4|272:56,1,170,2|2,0:0|0:0,0:0:0:0:
268,124,29612,1,8,0:0:0:0:
288,208,29921,6,0,B|216:212|188:148|188:148|112:148|68:204,1,255,2|8,0:0|0:0,0:0:0:0:
64,284,31160,2,0,P|144:316|228:308,1,170,2|2,0:0|0:0,0:0:0:0:
308,292,32089,1,8,0:0:0:0:
376,240,32398,6,0,L|432:164,1,85,2|8,0:0|0:0,0:0:0:0:
360,116,33017,2,0,L|309:184,1,85,2|8,0:0|0:0,0:0:0:0:
236,228,33637,2,0,B|196:204|200:156|200:156|152:124|168:72,1,170,2|2,0:0|0:0,0:0:0:0:
224,24,34565,1,8,0:0:0:0:
308,20,34875,6,0,B|356:68|356:68|380:140,2,127.5,2|0|8,0:0|0:0|0:0,0:0:0:0:
264,92,36113,2,0,L|296:228,2,127.5,2|0|8,0:0|0:0|0:0,0:0:0:0:
184,60,37352,6,0,P|128:56|92:32,1,85,4|8,0:0|0:0,0:0:0:0:
36,92,37971,2,0,L|20:192,1,85,2|8,0:0|0:0,0:0:0:0:
32,260,38590,2,0,B|136:321|136:321|200:333,1,170,2|2,0:0|0:0,0:0:0:0:
268,336,39519,1,8,0:0:0:0:
352,320,39829,6,0,B|388:244|388:244|344:172|344:172|392:92,1,255,2|8,0:0|0:0,0:0:0:0:
312,60,41067,2,0,P|268:100|240:216,1,170,2|2,0:0|0:0,0:0:0:0:
236,288,41996,1,8,0:0:0:0:
200,364,42305,6,0,B|124:328|124:328|72:260,1,170,2|2,0:0|0:0,0:0:0:0:
80,176,43234,1,8,0:0:0:0:
132,108,43544,2,0,B|202:141|202:141|222:101|274:89,1,170,2|0,0:0|0:0,0:0:0:0:
360,100,44473,1,8,0:0:0:0:
440,128,44782,6,0,P|465:185|448:245,2,127.5,2|0|8,0:0|0:0|0:0,0:0:0:0:
384,192,46021,1,2,0:0:0:0:
304,220,46330,1,8,0:0:0:0:
228,260,46640,2,0,P|216:324|224:356,2,85,2|10|4,0:0|0:0|0:0,0:0:0:0:
256,36,52212,6,0,B|236:64|172:60|172:60|128:92|128:92|136:152|92:200,1,255,4|0,2:0|0:0,0:0:0:0:
132,272,53451,2,0,B|196:272|248:312|248:312|312:284|392:316,1,255,2|0,0:0|0:0,0:0:0:0:
440,252,54689,6,0,L|472:152,1,85,2|2,0:0|0:0,0:0:0:0:
396,124,55308,2,0,L|370:204,1,85
288,224,55928,2,0,B|260:172|276:104|276:104|260:56|164:52,1,255,2|0,0:0|0:0,0:0:0:0:
88,92,57166,6,0,B|92:148|144:164|144:164|120:224|120:224|156:260|156:316,1,255,2|0,0:0|0:0,0:0:0:0:
228,352,58404,2,0,B|276:356|312:320|312:320|360:324|360:324|360:268|440:244,1,255,2|0,0:0|0:0,0:0:0:0:
452,164,59643,6,0,P|448:124|412:72,2,85,2|2|0,0:0|0:0|0:0,0:0:0:0:
368,148,60572,1,0,0:0:0:0:
284,136,60881,2,0,B|272:96|292:56|292:56|208:8,1,170,2|0,0:0|0:0,0:0:0:0:
132,28,61810,1,0,0:0:0:0:
84,100,62120,6,0,B|80:140|80:140|88:200,1,85,4|2,2:0|0:0,0:0:0:0:
152,240,62739,2,0,B|156:280|156:280|148:340,1,85
236,336,63358,2,0,L|248:244,2,85,2|2|0,0:0|0:0|0:0,0:0:0:0:
320,356,64287,1,0,0:0:0:0:
392,312,64596,6,0,B|400:268|372:224|372:224|400:184|376:144,1,170,2|0,0:0|0:0,0:0:0:0:
336,76,65525,1,0,0:0:0:0:
252,96,65835,2,0,L|168:140,1,85,2|2,0:0|0:0,0:0:0:0:
220,208,66454,2,0,L|295:168,1,85
380,152,67073,6,0,P|388:236|324:304,1,170,2|0,0:0|0:0,0:0:0:0:
252,312,68002,1,0,0:0:0:0:
168,292,68312,2,0,B|148:232|148:232|172:196|172:196|152:132,1,170,2|0,0:0|0:0,0:0:0:0:
124,56,69240,1,0,0:0:0:0:
208,44,69550,6,0,B|236:56|304:44|304:44|328:88|328:88|392:72|428:128,1,255,2|0,0:0|0:0,0:0:0:0:
460,200,70788,2,0,P|440:240|312:244,1,170,2|8,0:0|0:0,0:0:0:0:
256,212,71717,1,8,0:0:0:0:
188,160,72027,6,0,B|144:164|144:164|96:188,1,85,4|8,2:0|0:0,0:0:0:0:
92,268,72646,2,0,B|96:312|96:312|120:360,1,85,2|8,0:0|0:0,0:0:0:0:
200,336,73265,2,0,P|275:301|351:334,1,170,2|2,0:0|0:0,0:0:0:0:
432,360,74194,1,8,0:0:0:0:
472,284,74504,6,0,L|516:196,2,85,2|8|2,0:0|0:0|0:0,0:0:0:0:
392,260,75432,1,8,0:0:0:0:
320,212,75742,2,0,B|253:197|225:153|225:153|145:145|97:197,1,255,2|8,0:0|0:0,0:0:0:0:
20,164,76980,6,0,P|8:123|8:80,1,85,2|8,0:0|0:0,0:0:0:0:
76,28,77599,2,0,P|118:28|159:39,1,85,2|8,0:0|0:0,0:0:0:0:
240,64,78219,2,0,B|268:71|320:40|320:40|360:63|408:56,1,170,2|2,0:0|0:0,0:0:0:0:
488,52,79147,1,8,0:0:0:0:
496,136,79457,6,0,L|506:220,1,85,2|8,0:0|0:0,0:0:0:0:
436,268,80076,2,0,L|446:352,1,85,2|0,0:0|0:0,0:0:0:0:
360,364,80695,2,0,P|321:347|290:318,1,85,2|0,0:0|0:0,0:0:0:0:
272,236,81315,2,0,P|234:216|192:212,1,85,2|0,0:0|0:0,0:0:0:0:
108,232,81934,5,4,0:1:0:0:
256,192,82089,12,0,85649,0:0:0:0:
216,112,86887,5,4,0:0:0:0:
300,116,87197,2,0,B|340:120|368:72|368:72|384:120|432:132,1,170
480,196,88126,2,0,P|492:260|444:320,2,127.5,4|0|0,0:0|0:0|0:0,0:0:0:0:
408,240,89364,5,4,0:0:0:0:
332,280,89674,2,0,L|240:316,1,85
172,340,90293,1,0,0:0:0:0:
96,304,90603,2,0,B|72:248|72:248|68:168,2,127.5,4|0|0,0:0|0:0|0:0,0:0:0:0:
168,260,91841,5,4,0:0:0:0:
240,216,92151,2,0,B|252:184|232:124|232:124|244:80|288:64,1,170
364,72,93079,2,0,P|380:108|376:212,2,127.5,4|0|0,0:0|0:0|0:0,0:0:0:0:
279,67,94318,6,0,B|235:63|203:31|203:31|123:55|123:55|127:99|95:147,1,255,4|0,0:0|0:0,0:0:0:0:
116,220,95556,2,0,P|148:280|212:296,2,127.5,4|4|0,0:0|0:0|0:0,0:0:0:0:
200,212,96795,5,2,0:0:0:0:
268,160,97104,1,0,0:0:0:0:
340,116,97414,2,0,P|368:152|376:200,1,85
376,276,98033,2,0,B|320:340|320:340|228:372,1,170,2|0,0:0|0:0,0:0:0:0:
156,360,98962,1,0,0:0:0:0:
116,284,99271,6,0,P|116:232|128:184,1,85,2|0,0:0|0:0,0:0:0:0:
196,156,99891,2,0,P|196:104|184:56,1,85
260,28,100510,2,0,P|280:108|268:212,1,170,2|0,0:0|0:0,0:0:0:0:
228,268,101438,1,0,0:0:0:0:
300,316,101748,6,0,P|344:324|396:312,1,85,2|0,0:0|0:0,0:0:0:0:
428,244,102367,2,0,L|448:148,1,85
456,76,102986,2,0,B|384:80|364:148|364:148|324:80|252:76,1,255,2|0,0:0|0:0,0:0:0:0:
180,60,104225,5,2,0:0:0:0:
256,192,104380,12,4,106702,0:0:0:0:
188,64,107940,6,0,L|156:164,1,85,2|2,0:0|0:0,0:0:0:0:
224,204,108559,2,0,L|192:304,1,85,2|2,0:0|0:0,0:0:0:0:
268,332,109178,2,0,B|340:312|336:236|336:236|396:196|376:128,1,255,2|2,0:0|0:0,0:0:0:0:
316,68,110417,6,0,P|272:60|232:76,1,85,2|2,0:0|0:0,0:0:0:0:
192,148,111036,2,0,P|148:156|108:140,1,85,2|2,0:0|0:0,0:0:0:0:
32,172,111655,2,0,B|36:212|68:240|68:240|56:292|56:292|96:336|96:336|172:352,1,255,2|0,0:0|0:0,0:0:0:0:
244,352,112894,5,0,0:0:0:0:
340,212,113513,1,2,0:0:0:0:
244,72,114132,2,0,P|176:80|152:88,1,85,2|2,0:0|0:0,0:0:0:0:
172,168,114751,2,0,P|240:160|264:152,1,85,2|2,0:0|0:0,0:0:0:0:
340,144,115370,6,0,B|368:188|348:244|348:244|376:272|424:276,1,170,2|2,0:0|0:0,0:0:0:0:
256,356,116609,6,0,P|220:348|176:304,1,85,4|8,0:0|0:0,0:0:0:0:
184,232,117228,2,0,P|152:204|111:193,1,85,2|8,0:0|0:0,0:0:0:0:
36,152,117847,2,0,B|40:104|76:84|76:84|88:36|140:24,1,170,2|2,0:0|0:0,0:0:0:0:
220,24,118776,1,8,0:0:0:0:
292,72,119086,6,0,B|344:76|380:36|380:36|444:96,1,170,2|2,0:0|0:0,0:0:0:0:
480,156,120014,1,8,0:0:0:0:
476,240,120324,2,0,P|428:272|388:280,1,85,2|8,0:0|0:0,0:0:0:0:
316,284,120943,2,0,L|260:196,1,85,2|8,0:0|0:0,0:0:0:0:
248,128,121562,6,0,B|200:144|184:184|184:184|140:192|108:148,1,170,2|2,0:0|0:0,0:0:0:0:
72,80,122491,1,8,0:0:0:0:
140,32,122801,2,0,B|200:28|200:28|244:52|244:52|316:36,1,170,2|2,0:0|0:0,0:0:0:0:
384,20,123730,1,8,0:0:0:0:
448,76,124039,6,0,P|476:140|448:208,2,127.5,2|0|8,0:0|0:0|0:0,0:0:0:0:
392,140,125278,2,0,P|348:144|268:104,2,127.5,2|0|2,0:0|0:0|0:0,0:0:0:0:
372,56,126516,6,0,L|300:8,1,85,4|8,0:0|0:0,0:0:0:0:
216,12,127135,2,0,L|145:59,1,85,2|8,0:0|0:0,0:0:0:0:
96,128,127754,2,0,B|96:172|128:192|128:192|116:248|116:248|176:244|232:312,1,255,2|8,0:0|0:0,0:0:0:0:
300,332,128993,6,0,P|348:296|360:256,1,85,2|8,0:0|0:0,0:0:0:0:
364,188,129612,2,0,P|384:151|421:130,1,85,2|8,0:0|0:0,0:0:0:0:
404,48,130231,2,0,P|344:68|280:168,1,170,2|2,0:0|0:0,0:0:0:0:
260,232,131160,1,8,0:0:0:0:
216,304,131469,6,0,B|136:280|136:280|96:192,1,170,2|2,0:0|0:0,0:0:0:0:
96,116,132398,1,8,0:0:0:0:
164,68,132708,2,0,P|208:52|284:136,1,170,2|2,0:0|0:0,0:0:0:0:
284,216,133637,1,8,0:0:0:0:
368,200,133946,6,0,L|488:152,2,127.5,2|0|8,0:0|0:0|0:0,0:0:0:0:
340,280,135185,2,0,P|380:320|416:336,2,85,2|8|2,0:0|0:0|0:0,0:0:0:0:
292,212,136113,1,8,0:0:0:0:
292,128,136423,6,0,B|244:112|212:132|212:132|168:108|168:108|144:168|68:176,1,255,4|8,0:0|0:0,0:0:0:0:
40,252,137661,2,0,B|52:312|104:328|104:328|160:292|160:292|188:316|252:316,1,255,2|8,0:0|0:0,0:0:0:0:
320,292,138900,6,0,P|352:232|352:168,2,127.5,2|0|8,0:0|0:0|0:0,0:0:0:0:
256,236,140138,2,0,L|184:124,2,127.5,2|0|8,0:0|0:0|0:0,0:0:0:0:
244,320,141377,6,0,P|212:348|164:360,1,85,2|8,0:0|0:0,0:0:0:0:
100,316,141996,2,0,P|72:284|60:236,1,85,2|8,0:0|0:0,0:0:0:0:
80,160,142615,2,0,B|92:112|132:100|132:100|140:52|192:32,1,170,2|2,0:0|0:0,0:0:0:0:
268,20,143544,1,8,0:0:0:0:
352,36,143853,6,0,B|380:92|380:92|384:160,2,127.5,2|0|8,0:0|0:0|0:0,0:0:0:0:
296,100,145092,2,0,L|300:200,1,85,2|8,0:0|0:0,0:0:0:0:
240,244,145711,2,0,L|244:344,1,85,2|8,0:0|0:0,0:0:0:0:
324,352,146330,6,0,B|376:348|388:308|388:308|448:296|448:296|416:232|480:184,1,255,2|8,0:0|0:0,0:0:0:0:
468,112,147569,2,0,B|432:84|376:88|376:88|344:44|344:44|292:68|224:48,1,255,2|8,0:0|0:0,0:0:0:0:
168,92,148807,6,0,P|156:136|168:176,2,85,2|8|2,0:0|0:0|0:0,0:0:0:0:
240,136,149736,1,8,0:0:0:0:
300,196,150045,2,0,L|372:256,2,85,2|8|2,0:0|0:0|0:0,0:0:0:0:
320,112,150974,1,8,0:0:0:0:
264,48,151284,6,0,B|216:24|216:24|168:64|168:64|108:32,1,170,2|2,0:0|0:0,0:0:0:0:
36,24,152212,1,8,0:0:0:0:
28,108,152522,2,0,P|32:156|52:196,1,85,2|8,0:0|0:0,0:0:0:0:
128,212,153141,2,0,P|144:250|147:293,1,85,2|8,0:0|0:0,0:0:0:0:
228,320,153760,6,0,B|252:292|248:248|248:248|316:248|316:248|312:184|384:164,1,255,2|8,0:0|0:0,0:0:0:0:
420,96,154999,2,0,P|400:36|336:12,2,127.5,2|0|8,0:0|0:0|0:0,0:0:0:0:
336,96,156237,5,4,0:0:0:0:
