osu file format v14

[General]
AudioFilename: audio.mp3
AudioLeadIn: 0
PreviewTime: 100735
Countdown: 0
SampleSet: Soft
StackLeniency: 0.8
Mode: 0
LetterboxInBreaks: 0
WidescreenStoryboard: 1

[Editor]
Bookmarks: 13448,26500,39552,52605,72183
DistanceSpacing: 1.1
BeatDivisor: 4
GridSize: 8
TimelineZoom: 3.399999

[Metadata]
Title:Wo Yao Jin Ke La
TitleUnicode:我要金坷垃
Artist:Tu Tu Wan
ArtistUnicode:荼荼丸
Creator:AJT
Version:Apollo's HaRD!!!
Source:おジャ魔女どれみ
Tags:i need jinkela acfun bilibili chinese novelty magical ojamajo doremi おジャ魔女カーニバル!! carnival!! maho-dou MAHO堂 anime apollo apo11o mrowswares pata-mon aranel down Jin Ke La San Ren Zu Dan Qu Dui Chang MTV 金坷垃三人组单曲对唱《我要金坷垃》MTV
BeatmapID:3535150
BeatmapSetID:1726857

[Difficulty]
HPDrainRate:5
CircleSize:4
OverallDifficulty:5
ApproachRate:6.5
SliderMultiplier:1.4
SliderTickRate:0.5

[Events]
//Background and Video events
Video,-432,"Jinkela.avi"
0,0,"firstpersontodmaistrethesquarerootof1048wins2millionpounds.png",0,0
//Break Periods
//Storyboard Layer 0 (Background)
//Storyboard Layer 1 (Fail)
//Storyboard Layer 2 (Pass)
//Storyboard Layer 3 (Foreground)
//Storyboard Layer 4 (Overlay)
//Storyboard Sound Samples

[TimingPoints]
6922,407.885791978246,4,2,0,85,1,8
13448,-100,4,2,0,100,0,8
26500,-100,4,2,0,85,0,8
72183,-100,4,2,0,100,0,8
99919,-100,4,2,0,85,0,8

[Colours]
Combo1 : 255,192,0
Combo2 : 0,147,0
Combo3 : 255,53,53

[HitObjects]
256,192,9165,12,2,11816,3:1:0:0:
495,217,13448,6,0,P|397:207|304:201,1,175,4|0,1:0|3:2,0:0:0:0:
248,228,14161,2,0,P|246:263|233:344,1,105,2|0,0:0|3:0,0:0:0:0:
170,374,14671,1,8,1:0:0:0:
102,354,14875,1,2,0:0:0:0:
84,286,15079,1,0,1:0:0:0:
108,220,15283,1,2,0:0:0:0:
172,193,15487,1,8,1:0:0:0:
265,117,15793,2,0,P|341:110|379:106,1,105,2|2,0:0|0:0,0:0:0:0:
461,319,16711,6,0,P|408:339|286:375,1,175,0|0,1:0|3:0,0:0:0:0:
240,318,17425,2,0,P|235:268|218:194,1,105,2|0,0:0|3:0,0:0:0:0:
160,184,17934,1,8,1:0:0:0:
98,149,18138,1,2,0:0:0:0:
77,81,18342,1,4,1:0:0:0:
212,117,18750,1,12,1:0:0:0:
332,45,19158,2,0,P|387:36|465:31,2,105,0|0|0,1:0|1:0|3:0,0:0:0:0:
257,20,19974,6,0,P|195:15|74:7,1,175,4|0,1:0|3:0,0:0:0:0:
34,68,20688,2,0,P|72:79|157:109,1,105,2|0,0:0|3:0,0:0:0:0:
179,159,21198,1,8,1:0:0:0:
249,161,21401,1,2,0:0:0:0:
297,109,21605,1,0,1:0:0:0:
339,52,21809,1,2,0:0:0:0:
409,63,22013,1,8,1:0:0:0:
457,160,22319,2,0,P|461:211|468:293,1,105,2|2,0:0|0:0,0:0:0:0:
248,383,23237,6,0,P|317:363|432:338,1,175,0|0,1:0|3:0,0:0:0:0:
411,264,23951,2,0,P|345:251|291:240,1,105,2|0,0:0|3:0,0:0:0:0:
244,279,24461,1,8,1:0:0:0:
188,324,24665,1,0,1:0:0:0:
125,354,24868,2,0,P|71:338|72:261,1,140,8|2,1:0|1:0,0:0:0:0:
167,39,26500,5,4,1:0:0:0:
334,75,26908,1,8,1:0:0:0:
218,193,27316,1,0,1:0:0:0:
218,193,27520,1,2,0:1:0:0:
25,136,28132,6,0,B|30:74|-22:71|0:0,2,140,0|8|0,1:0|1:0|1:0,0:0:0:0:
75,191,29151,2,0,P|81:227|88:265,2,70,2|8|2,0:1|1:0|0:0,0:0:0:0:
125,139,29763,2,0,P|186:121|486:275,1,420,0|8,1:0|1:0,0:0:0:0:
495,130,31395,5,2,1:0:0:0:
408,18,31803,1,8,1:0:0:0:
341,43,32006,1,2,0:1:0:0:
355,184,32414,1,2,0:1:0:0:
223,366,33026,5,0,1:0:0:0:
385,339,33434,1,8,1:0:0:0:
271,225,33842,1,0,1:0:0:0:
271,225,34046,1,2,0:1:0:0:
374,40,34658,6,0,P|426:25|511:45,2,140,0|8|0,1:0|1:0|1:0,0:0:0:0:
320,91,35677,2,0,P|322:137|325:176,2,70,2|8|2,0:1|1:0|0:0,0:0:0:0:
271,33,36289,2,0,P|206:17|61:266,1,420,0|8,1:0|1:0,0:0:0:0:
181,349,37921,5,2,1:0:0:0:
336,304,38329,1,8,1:0:0:0:
337,232,38533,1,2,0:1:0:0:
181,201,38941,1,8,1:0:0:0:
184,129,39144,1,8,1:0:0:0:
184,58,39348,1,0,1:0:0:0:
252,23,39552,6,0,P|328:24|405:26,1,140,4|8,1:0|1:0,0:0:0:0:
512,114,40368,2,0,P|442:112|372:111,1,140,0|8,1:0|1:0,0:0:0:0:
238,183,41184,2,0,P|307:183|377:185,1,140,0|8,1:0|1:0,0:0:0:0:
440,384,42204,1,2,0:0:0:0:
370,382,42408,1,8,1:0:0:0:
300,378,42612,1,0,3:0:0:0:
222,384,42815,6,0,P|152:382|82:381,1,140,0|8,1:0|1:0,0:0:0:0:
256,286,43631,2,0,P|325:286|395:288,1,140,0|8,1:0|1:0,0:0:0:0:
229,169,44447,2,0,P|159:167|89:166,1,140,0|8,1:0|1:0,0:0:0:0:
327,38,45467,1,2,0:0:0:0:
398,39,45671,1,8,1:0:0:0:
471,41,45875,1,2,0:0:0:0:
496,113,46079,6,0,P|508:153|506:187,1,70,0|2,1:0|0:0,0:0:0:0:
498,255,46486,2,0,P|463:278|430:287,1,70,8|2,1:0|0:0,0:0:0:0:
363,271,46894,2,0,P|329:245|316:146,1,140,0|8,1:0|1:0,0:0:0:0:
370,107,47506,2,0,P|411:107|481:180,1,140,2|2,0:0|0:0,0:0:0:0:
503,246,48118,2,0,P|468:269|435:278,1,70,8|2,1:0|0:0,0:0:0:0:
368,260,48526,2,0,P|334:234|316:206,1,70,0|2,1:0|0:0,0:0:0:0:
316,136,48934,2,0,P|329:96|351:70,1,70,8|2,1:0|0:0,0:0:0:0:
416,42,49342,6,0,P|439:123|496:342,1,280,0|0,1:0|1:0,0:0:0:0:
383,372,50565,1,8,1:0:0:0:
319,335,50769,2,0,P|249:310|163:276,1,140,0|0,1:0|1:0,0:0:0:0:
108,265,51381,1,8,1:0:0:0:
160,208,51585,2,0,P|230:183|316:149,1,140,0|0,1:0|1:0,0:0:0:0:
335,97,52197,1,8,1:0:0:0:
305,29,52401,1,0,1:0:0:0:
237,7,52605,6,0,B|100:-19|166:96|29:63,1,210,4|2,1:0|0:0,0:0:0:0:
3,7,53420,1,0,1:0:0:0:
15,151,53828,1,8,1:0:0:0:
70,201,54032,1,2,0:0:0:0:
141,186,54236,2,0,P|193:169|274:203,1,140,2|10,1:1|1:2,0:0:0:0:
423,140,55052,1,2,1:2:0:0:
461,210,55256,1,8,0:0:0:0:
419,270,55460,1,8,1:0:0:0:
346,252,55664,1,2,0:0:0:0:
300,313,55868,6,0,P|224:307|79:317,1,210,0|2,1:0|0:0,0:0:0:0:
29,359,56684,1,0,1:0:0:0:
26,219,57091,1,8,1:0:0:0:
82,169,57295,1,2,0:0:0:0:
153,159,57499,2,0,P|212:152|313:144,1,140,2|2,1:0|1:2,0:0:0:0:
204,24,58315,1,0,1:0:0:0:
132,10,58519,1,8,1:0:0:0:
71,53,58723,1,8,1:0:0:0:
57,127,58927,1,0,1:0:0:0:
89,195,59131,6,0,P|155:232|259:167,1,210,4|0,1:0|0:0,0:0:0:0:
274,92,59947,1,0,1:0:0:0:
405,200,60355,1,8,1:0:0:0:
473,178,60558,1,2,0:0:0:0:
482,109,60762,2,0,P|463:50|375:24,1,140,2|8,1:0|1:0,0:0:0:0:
322,158,61578,1,0,1:0:0:0:
319,232,61782,1,2,1:1:0:0:
374,288,61986,1,0,1:0:0:0:
410,355,62190,1,2,1:1:0:0:
338,381,62394,6,0,P|275:377|125:359,1,210,4|0,1:0|0:0,0:0:0:0:
56,344,63210,1,0,1:0:0:0:
178,257,63618,1,8,1:0:0:0:
246,224,63822,1,2,0:0:0:0:
309,268,64026,2,0,P|382:269|472:278,1,140,2|8,1:0|1:0,0:0:0:0:
409,141,64841,1,2,1:0:0:0:
339,117,65045,1,8,1:0:0:0:
266,128,65249,1,8,1:0:0:0:
199,158,65453,1,0,1:0:0:0:
128,137,65657,6,0,P|77:108|124:35,1,140,0|8,1:0|1:0,0:0:0:0:
172,73,66269,1,0,1:0:0:0:
244,55,66473,2,0,P|279:46|328:31,1,70,0|0,1:0|1:0,0:0:0:0:
311,36,67289,6,0,P|341:89|373:189,1,140,0|8,1:0|1:0,0:0:0:0:
431,210,67900,1,2,3:2:0:0:
385,271,68104,2,0,P|396:310|412:334,1,70,0|8,1:0|1:0,0:0:0:0:
491,335,68512,1,8,1:0:0:0:
509,260,68716,1,0,1:0:0:0:
463,199,68920,6,0,P|441:155|401:39,2,140,6|8|0,1:0|1:0|1:0,0:0:0:0:
463,199,70552,6,0,P|376:183|328:174,2,105,2|2|2,1:0|1:0|1:0,0:0:0:0:
463,199,71367,1,2,1:0:0:0:
156,36,72183,5,4,1:0:0:0:
81,15,72387,1,2,0:0:0:0:
98,91,72591,2,0,P|89:130|78:170,1,70,8|0,1:0|1:0,0:0:0:0:
100,245,72999,5,0,1:0:0:0:
175,266,73203,1,2,0:0:0:0:
158,190,73407,2,0,P|167:151|178:111,1,70,8|0,1:0|1:0,0:0:0:0:
252,146,73815,5,0,1:0:0:0:
327,125,74019,2,0,P|378:117|425:111,1,70,2|8,0:0|1:0,0:0:0:0:
310,201,74427,2,0,P|319:240|330:280,1,70,2|0,0:0|1:0,0:0:0:0:
199,360,75038,5,8,1:0:0:0:
131,329,75242,1,2,0:0:0:0:
61,360,75446,2,0,P|32:306|22:204,1,140,0|8,1:0|1:0,0:0:0:0:
56,163,76058,1,2,0:0:0:0:
21,95,76262,1,0,1:0:0:0:
72,37,76466,1,2,0:0:0:0:
139,77,76670,1,8,1:0:0:0:
209,50,76874,1,2,0:0:0:0:
276,88,77078,5,2,1:0:0:0:
263,293,77486,1,2,1:0:0:0:
426,179,77894,1,2,1:0:0:0:
226,183,78302,1,8,1:0:0:0:
152,366,78709,5,0,1:0:0:0:
79,379,78913,1,2,0:0:0:0:
103,308,79117,2,0,P|102:271|104:238,1,70,8|0,1:0|1:0,0:0:0:0:
182,257,79525,5,0,1:0:0:0:
255,270,79729,1,2,0:0:0:0:
231,199,79933,2,0,P|232:162|230:129,1,70,8|0,1:0|1:0,0:0:0:0:
158,163,80341,5,0,1:0:0:0:
85,176,80545,2,0,P|36:189|-1:203,1,70,0|8,3:0|1:0,0:0:0:0:
109,105,80953,2,0,P|108:68|110:35,1,70,2|0,0:0|1:0,0:0:0:0:
265,57,81565,5,8,1:0:0:0:
332,81,81769,1,2,0:0:0:0:
398,48,81972,1,0,1:0:0:0:
271,156,82380,1,8,1:0:0:0:
238,225,82584,1,2,0:0:0:0:
244,301,82788,2,0,P|277:325|326:339,1,70,0|2,1:0|3:2,0:0:0:0:
368,294,83196,1,8,1:0:0:0:
439,292,83400,1,0,1:0:0:0:
511,294,83604,6,0,P|528:254|499:151,1,140,6|6,1:0|1:0,0:0:0:0:
447,117,84216,1,0,1:0:0:0:
386,163,84420,1,6,1:0:0:0:
298,38,84828,2,0,P|253:17|234:10,1,70,2|0,1:3|1:0,0:0:0:0:
166,58,85236,5,4,1:0:0:0:
104,91,85440,1,2,0:0:0:0:
76,154,85643,1,8,1:0:0:0:
73,223,85847,1,0,1:0:0:0:
104,285,86051,1,0,1:0:0:0:
165,318,86255,1,2,0:0:0:0:
233,332,86459,1,8,1:0:0:0:
303,332,86663,1,0,1:0:0:0:
369,311,86867,1,0,1:0:0:0:
413,256,87071,1,2,0:0:0:0:
424,186,87275,1,8,1:0:0:0:
407,117,87479,1,2,0:0:0:0:
361,63,87683,1,0,1:0:0:0:
238,156,88091,6,0,P|233:201|238:234,1,70,8|2,1:0|3:2,0:0:0:0:
277,291,88499,1,0,1:0:0:0:
401,194,88907,1,8,1:0:0:0:
473,219,89110,1,2,0:0:0:0:
481,295,89314,1,0,1:0:0:0:
434,356,89518,2,0,P|372:356|281:357,1,140,2|2,0:0|0:0,0:0:0:0:
218,359,90130,5,2,1:0:0:0:
239,156,90538,1,2,1:0:0:0:
92,271,90946,1,2,1:0:0:0:
112,77,91354,1,8,1:0:0:0:
281,25,91762,5,4,1:0:0:0:
348,43,91966,1,2,0:0:0:0:
399,90,92170,1,8,1:0:0:0:
431,152,92374,1,0,1:0:0:0:
434,221,92578,1,0,1:0:0:0:
413,287,92781,1,2,0:0:0:0:
358,330,92985,1,8,1:0:0:0:
288,339,93189,1,0,1:0:0:0:
233,295,93393,1,0,1:0:0:0:
217,226,93597,1,2,0:0:0:0:
225,156,93801,1,8,1:0:0:0:
273,105,94005,1,2,0:0:0:0:
339,83,94209,1,0,1:0:0:0:
432,187,94617,6,0,P|456:228|473:253,1,70,8|2,1:0|0:0,0:0:0:0:
509,304,95025,1,0,1:0:0:0:
369,310,95433,2,0,P|337:308|286:303,1,70,8|2,1:0|0:0,0:0:0:0:
222,314,95841,1,0,1:0:0:0:
158,284,96045,1,0,1:0:0:0:
89,298,96248,2,0,P|58:337|45:364,1,70,8|0,1:0|1:0,0:0:0:0:
9,280,96656,5,6,1:0:0:0:
13,210,96860,1,2,1:0:0:0:
17,140,97064,1,2,1:0:0:0:
22,70,97268,1,2,1:0:0:0:
27,0,97472,1,2,1:0:0:0:
167,58,97880,5,2,1:0:0:0:
162,128,98084,1,2,1:0:0:0:
157,198,98288,1,2,1:0:0:0:
153,268,98492,1,2,1:0:0:0:
149,338,98696,1,2,1:0:0:0:
281,382,99104,5,14,1:0:0:0:
287,305,99308,1,14,1:0:0:0:
291,228,99512,1,14,1:0:0:0:
296,151,99716,1,14,1:0:0:0:
302,74,99920,1,14,1:0:0:0:
