osu file format v14

[General]
AudioFilename: audio.ogg
AudioLeadIn: 0
PreviewTime: 51044
Countdown: 0
SampleSet: Soft
StackLeniency: 0.4
Mode: 0
LetterboxInBreaks: 0
WidescreenStoryboard: 1

[Editor]
DistanceSpacing: 1.4
BeatDivisor: 4
GridSize: 4
TimelineZoom: 1.9

[Metadata]
Title:NAME (TV Size)
TitleUnicode:NAME (TV Size)
Artist:Tsuzuri
ArtistUnicode:綴
Creator:browiec
Version:Hard
Source:好きな子がめがねを忘れた
Tags:suki na ko ga megane wo wasureta the girl i like forgot her glasses sukimega gohands square enix flying dog glovision shouchiku manga deco*27 deco27 jpop j-pop pop japanese anime opening op 堀江晶太 horie shota shouta kemu
BeatmapID:4250558
BeatmapSetID:2037341

[Difficulty]
HPDrainRate:4
CircleSize:3.6
OverallDifficulty:6.4
ApproachRate:8
SliderMultiplier:1.4
SliderTickRate:1

[Events]
//Background and Video events
Video,-170,"op.mp4"
0,0,"motto.jpg",0,0
//Break Periods
2,30342,39884
//Storyboard Layer 0 (Background)
//Storyboard Layer 1 (Fail)
//Storyboard Layer 2 (Pass)
//Storyboard Layer 3 (Foreground)
//Storyboard Layer 4 (Overlay)
//Storyboard Sound Samples

[TimingPoints]
1290,327.868852459016,4,2,1,50,1,0
1290,-133.333333333333,4,2,1,50,0,0
5224,-111.111111111111,4,2,1,60,0,0
6535,-100,4,2,1,70,0,0
11781,-111.111111111111,4,2,1,60,0,0
30142,-153.846153846154,4,2,1,50,0,0
40634,-125,4,2,1,50,0,0
45880,-153.846153846154,4,2,1,45,0,0
50470,-153.846153846154,4,2,1,50,0,0
51126,-95.2380952380952,4,2,1,75,0,0
79978,-100,4,2,1,70,0,0
85224,-200,4,2,1,50,0,0
85306,-200,4,2,1,40,0,0

[Colours]
Combo1 : 219,137,77
Combo2 : 241,194,188
Combo3 : 169,238,250
Combo4 : 236,232,159

[HitObjects]
324,48,1290,6,0,B|352:112|315:174|315:174|294:140,2,157.500006008148,2|2|2,0:2|0:2|0:2,0:2:0:0:
271,294,2765,2,0,P|219:282|168:273,1,105.000004005432,2|0,0:2|0:2,0:2:0:0:
99,233,3257,1,2,0:2:0:0:
99,233,3421,2,0,P|89:181|78:130,1,105.000004005432,2|0,0:2|0:2,0:2:0:0:
72,46,3912,6,0,B|127:39|127:39|171:57|171:57|198:51|224:50,2,157.500006008148,2|2|2,0:2|0:2|0:2,0:2:0:0:
10,216,5224,5,8,0:2:0:0:
10,216,5306,1,8,0:2:0:0:
10,216,5388,2,0,P|41:220|72:224,1,62.9999980773926,2|0,3:2|3:2,0:0:0:0:
143,293,5716,1,8,0:2:0:0:
143,293,5798,1,8,0:2:0:0:
143,293,5880,2,0,P|174:288|205:284,1,62.9999980773926,2|2,3:2|3:2,0:0:0:0:
278,334,6208,6,0,P|327:331|372:350,1,94.499997116089,8|0,0:2|0:2,0:2:0:0:
411,370,6535,6,0,B|394:331|396:298|396:298|423:274|432:236,1,140,6|8,3:2|0:2,0:2:0:0:
499,171,7027,2,0,P|491:136|484:102,1,70,2|0,3:2|0:2,0:2:0:0:
416,31,7355,1,0,3:2:0:0:
330,78,7519,6,0,P|269:44|199:56,1,140,10|0,0:2|3:2,0:2:0:0:
153,140,8011,2,0,P|160:174|167:208,1,70,2|8,3:2|0:2,0:2:0:0:
267,248,8339,1,0,3:2:0:0:
267,248,8421,1,0,3:2:0:0:
267,248,8503,2,0,P|259:282|252:316,1,70,2|2,3:2|3:2,0:0:0:0:
170,370,8830,2,0,P|135:362|101:355,1,70,8|0,0:2|0:2,0:2:0:0:
45,250,9158,6,0,B|31:216|31:216|45:188|45:188|31:156|33:118,1,140,2|8,3:2|0:2,0:2:0:0:
87,35,9650,2,0,P|121:42|155:49,1,70,2|0,3:2|0:2,0:2:0:0:
226,117,9978,1,0,3:2:0:0:
281,36,10142,2,0,B|329:71|382:65|382:65|408:42,1,140,10|0,0:2|3:2,0:0:0:0:
502,63,10634,2,0,P|494:97|487:131,1,70,2|8,3:2|0:2,0:2:0:0:
400,172,10962,1,0,3:2:0:0:
400,172,11126,2,0,P|407:206|414:240,1,70,2|2,0:2|3:2,0:0:0:0:
355,318,11453,1,8,0:2:0:0:
198,365,11781,6,0,P|167:310|178:247,1,125.999996154785,4|10,3:2|0:2,0:2:0:0:
251,201,12273,2,0,P|243:170|238:139,1,62.9999980773926,2|0,3:2|0:2,0:2:0:0:
155,108,12601,2,0,P|162:77|167:46,1,62.9999980773926,2|8,3:2|0:2,0:2:0:0:
251,16,12929,2,0,B|321:-2|310:35|375:25,2,125.999996154785,2|2|2,0:2|3:2|3:2,0:2:0:0:
167,46,13749,1,2,3:2:0:0:
167,46,13912,1,2,3:2:0:0:
229,107,14076,1,10,0:2:0:0:
120,246,14404,6,0,B|87:241|44:232|44:232|23:250|19:279,1,125.999996154785,2|8,3:2|0:2,0:2:0:0:
71,346,14896,2,0,P|101:338|132:333,1,62.9999980773926,2|0,3:2|0:2,0:2:0:0:
207,284,15224,1,0,3:2:0:0:
207,284,15388,2,0,P|237:291|268:296,1,62.9999980773926,10|0,0:2|0:2,0:2:0:0:
325,365,15716,6,0,P|355:310|344:247,1,125.999996154785,0|8,3:2|0:2,0:2:0:0:
382,173,16208,1,0,3:2:0:0:
382,173,16289,1,0,3:2:0:0:
382,173,16371,2,0,P|413:167|443:160,1,62.9999980773926,2|0,3:2|3:2,0:0:0:0:
501,92,16699,1,8,0:2:0:0:
335,30,17027,6,0,P|272:18|211:4,1,125.999996154785,2|10,3:2|0:2,0:2:0:0:
136,52,17519,2,0,P|143:82|148:113,1,62.9999980773926,2|0,3:2|0:2,0:2:0:0:
222,163,17847,2,0,P|214:193|209:224,1,62.9999980773926,2|8,3:2|0:2,0:2:0:0:
158,297,18175,2,0,P|212:266|275:277,2,125.999996154785,2|2|2,0:2|3:2|3:2,0:2:0:0:
89,351,18994,1,2,3:2:0:0:
89,351,19158,1,2,3:2:0:0:
23,291,19322,1,8,0:2:0:0:
148,166,19650,6,0,B|195:160|195:160|225:172|225:172|249:168|270:167,1,125.999996154785,2|8,3:2|0:2,0:2:0:0:
339,223,20142,2,0,P|331:253|326:284,1,62.9999980773926,2|0,3:2|0:2,0:2:0:0:
415,312,20470,1,2,3:2:0:0:
415,312,20634,2,0,P|420:280|427:250,1,62.9999980773926,8|0,0:2|0:2,0:2:0:0:
495,192,20962,6,0,B|472:158|477:122|477:122|499:103|503:73,1,125.999996154785,0|8,3:2|0:2,0:2:0:0:
437,24,21453,1,2,3:2:0:0:
437,24,21535,1,0,3:2:0:0:
437,24,21617,2,0,P|405:29|375:36,1,62.9999980773926,2|2,3:2|3:2,0:0:0:0:
314,101,21945,1,10,0:2:0:0:
245,45,22109,1,2,0:2:0:0:
177,101,22273,6,0,B|196:147|194:188|194:188|163:211,1,125.999996154785,6|10,3:2|0:2,0:2:0:0:
97,267,22765,2,0,P|66:259|35:254,1,62.9999980773926,2|0,3:2|0:2,0:2:0:0:
17,341,23093,2,0,P|48:346|78:353,1,62.9999980773926,2|8,3:2|0:2,0:2:0:0:
165,333,23421,6,0,P|195:325|226:320,1,62.9999980773926,2|0,0:2|0:2,0:2:0:0:
280,249,23749,2,0,P|310:256|341:261,1,62.9999980773926,2|8,3:2|0:2,0:2:0:0:
357,174,24076,2,0,P|325:168|295:161,1,62.9999980773926,2|0,3:2|3:2,0:0:0:0:
236,94,24404,2,0,P|205:101|174:106,1,62.9999980773926,2|8,3:2|0:2,0:2:0:0:
117,39,24732,1,2,0:2:0:0:
117,39,24896,6,0,P|86:93|97:156,1,125.999996154785,2|8,3:2|0:2,0:2:0:0:
149,224,25388,2,0,P|179:216|210:211,1,62.9999980773926,2|0,3:2|0:2,0:2:0:0:
270,145,25716,1,0,3:2:0:0:
270,145,25880,1,10,0:2:0:0:
432,76,26208,6,0,P|417:137|406:199,1,125.999996154785,2|10,0:2|0:2,0:2:0:0:
470,275,26699,1,2,3:2:0:0:
470,275,26781,1,0,3:2:0:0:
470,275,26863,1,0,3:2:0:0:
405,335,27027,2,0,P|374:327|343:322,1,62.9999980773926,2|8,3:2|0:2,0:2:0:0:
268,370,27355,1,2,0:2:0:0:
206,307,27519,6,0,B|200:259|200:259|212:229|212:229|208:206|207:184,1,125.999996154785,2|8,3:2|0:2,0:2:0:0:
281,135,28011,2,0,P|288:104|293:73,1,62.9999980773926,2|0,3:2|0:2,0:2:0:0:
229,20,28339,1,0,3:2:0:0:
229,20,28503,1,10,0:2:0:0:
86,122,28830,6,0,B|98:152|98:152|86:177|86:177|98:206|96:240,1,125.999996154785,2|10,3:2|0:2,0:2:0:0:
172,286,29322,1,2,0:2:0:0:
247,237,29486,1,0,3:2:0:0:
247,237,29568,1,0,3:2:0:0:
247,237,29650,1,2,3:2:0:0:
318,289,29814,2,0,P|333:285|348:282,3,31.4999990386963,8|8|10|8,0:2|0:2|0:2|0:2,0:2:0:0:
377,296,30142,5,0,0:2:0:0:
377,296,40634,6,0,P|433:283|490:273,2,112,6|0|2,3:2|3:2|3:2,0:2:0:0:
314,351,41453,1,2,0:2:0:0:
314,351,41617,2,0,P|285:344|257:339,1,56,2|0,3:2|0:2,0:2:0:0:
177,363,41945,6,0,B|165:304|165:304|184:281|193:256,1,112,2|0,3:2|3:2,0:2:0:0:
235,185,42437,1,2,0:2:0:0:
235,185,42601,2,0,P|181:174|132:198,1,112,2|0,3:2|3:2,0:2:0:0:
63,248,43093,1,2,0:2:0:0:
26,172,43257,6,0,P|16:116|4:62,1,112,2|0,3:2|3:2,0:2:0:0:
167,21,43912,2,0,P|155:75|145:130,1,112,2|0,3:2|3:2,0:2:0:0:
256,257,44568,2,0,P|309:245|359:270,2,112,2|0|0,3:2|3:2|3:2,0:2:0:0:
186,303,45388,1,0,0:2:0:0:
186,303,45552,2,0,P|157:296|129:291,1,56,0|0,3:2|0:2,0:2:0:0:
76,224,45880,6,0,B|49:202|49:202|0:267|41:352,2,181.999991668702,6|2|2,3:2|0:2|0:2,0:2:0:0:
76,224,47847,1,2,0:2:0:0:
232,353,48503,6,1,B|303:261|358:367|435:235|364:154|302:187|286:205|286:205|282:182|259:120|140:176|194:234|212:264,1,500.499977088929,2|0,0:2|0:2,0:2:0:0:
149,323,50470,5,8,3:2:0:0:
149,323,50634,1,0,3:2:0:0:
40,202,51126,6,0,B|30:150|30:150|45:115|45:115|38:88|35:59,1,146.999995513916,6|8,3:2|0:2,0:2:0:0:
120,2,51617,1,2,3:2:0:0:
189,77,51781,2,0,P|250:114|321:103,1,146.999995513916,2|8,0:2|0:2,0:2:0:0:
404,39,52273,5,2,0:2:0:0:
404,39,52355,1,2,0:2:0:0:
404,39,52437,2,0,P|439:47|475:53,1,73.4999977569581,2|0,3:2|3:2,0:2:0:0:
487,156,52765,2,0,P|450:149|415:141,1,73.4999977569581,10|0,0:2|3:2,0:2:0:0:
324,187,53093,1,2,0:2:0:0:
324,187,53257,1,0,3:2:0:0:
244,121,53421,2,0,P|208:129|172:135,1,73.4999977569581,10|0,0:2|0:2,0:2:0:0:
108,217,53749,6,0,P|70:155|81:84,2,146.999995513916,0|10|0,3:2|0:2|0:2,0:2:0:0:
213,234,54568,1,0,3:2:0:0:
213,234,54732,2,0,P|204:269|198:305,1,73.4999977569581,10|0,0:2|0:2,0:2:0:0:
278,371,55060,2,0,P|313:362|349:356,1,73.4999977569581,2|0,3:2|3:2,0:0:0:0:
431,292,55388,1,10,0:2:0:0:
357,235,55552,5,0,3:2:0:0:
357,235,55634,1,0,3:2:0:0:
357,235,55716,2,0,P|365:199|371:163,1,73.4999977569581,2|0,3:2|3:2,0:0:0:0:
471,134,56044,2,0,P|477:170|485:205,1,73.4999977569581,10|0,0:2|0:2,0:2:0:0:
431,292,56371,5,4,3:2:0:0:
269,164,56699,2,0,P|233:155|197:149,1,73.4999977569581,10|2,0:2|3:2,0:2:0:0:
132,75,57027,1,2,0:2:0:0:
132,75,57191,1,0,3:2:0:0:
48,135,57355,2,0,P|56:170|62:206,1,73.4999977569581,10|0,0:2|0:2,0:2:0:0:
124,289,57683,6,0,B|161:283|209:273|209:273|232:292|237:325,1,146.999995513916,0|8,3:2|0:2,0:2:0:0:
337,378,58175,1,0,3:2:0:0:
337,378,58257,1,0,3:2:0:0:
337,378,58339,1,0,3:2:0:0:
410,305,58503,1,0,3:2:0:0:
410,305,58667,2,0,P|415:268|424:232,1,73.4999977569581,10|0,0:2|0:2,0:2:0:0:
506,170,58994,6,0,P|444:132|373:143,1,146.999995513916,2|10,3:2|0:2,0:2:0:0:
295,211,59486,2,0,P|259:202|222:196,1,73.4999977569581,2|0,3:2|0:2,0:2:0:0:
183,106,59814,1,2,3:2:0:0:
183,106,59978,2,0,P|219:100|255:91,1,73.4999977569581,10|0,0:2|0:2,0:2:0:0:
323,14,60306,5,2,3:2:0:0:
393,88,60470,1,0,3:2:0:0:
503,46,60634,2,0,P|494:81|488:118,1,73.4999977569581,14|0,0:2|3:2,0:0:0:0:
409,184,60962,1,10,3:2:0:0:
489,263,61126,1,8,0:2:0:0:
489,263,61208,1,8,0:2:0:0:
489,263,61289,2,0,P|484:280|481:299,3,36.749998878479,10|8|8|8,0:2|0:2|0:2|0:2,0:2:0:0:
448,339,61617,6,0,B|368:315|384:368|307:352,1,146.999995513916,6|8,3:2|0:2,0:2:0:0:
220,293,62109,1,2,3:2:0:0:
271,203,62273,2,0,B|309:181|345:179|345:179|371:205|405:212,1,146.999995513916,2|8,0:2|0:2,0:2:0:0:
488,151,62765,1,2,0:2:0:0:
433,63,62929,6,0,P|397:71|360:77,1,73.4999977569581,2|0,3:2|3:2,0:2:0:0:
277,16,63257,2,0,P|241:7|204:1,1,73.4999977569581,10|0,0:2|3:2,0:2:0:0:
120,59,63585,1,2,0:2:0:0:
120,59,63749,1,0,3:2:0:0:
183,139,63912,2,0,P|174:174|168:211,1,73.4999977569581,10|0,0:2|0:0,0:2:0:0:
87,275,64240,6,0,P|149:313|220:302,2,146.999995513916,0|10|0,3:2|0:2|0:2,0:2:0:0:
21,201,65060,1,0,3:2:0:0:
21,201,65224,2,0,P|15:164|6:128,1,73.4999977569581,10|2,0:2|0:2,0:0:0:0:
69,46,65552,6,0,P|104:54|141:60,1,73.4999977569581,2|0,3:2|3:2,0:0:0:0:
209,137,65880,1,10,0:2:0:0:
293,78,66044,1,0,3:2:0:0:
378,135,66208,2,0,P|369:170|363:207,1,73.4999977569581,2|0,0:2|3:2,0:0:0:0:
459,244,66535,2,0,P|467:279|473:316,1,73.4999977569581,10|0,0:2|0:2,0:2:0:0:
394,383,66863,5,4,3:2:0:0:
264,222,67191,2,0,B|212:212|212:212|177:227|177:227|150:220|121:217,1,146.999995513916,10|2,0:2|0:2,0:2:0:0:
23,202,67683,1,2,3:2:0:0:
23,202,67847,2,0,P|31:237|37:274,1,73.4999977569581,10|0,0:2|0:2,0:2:0:0:
87,364,68175,6,0,P|149:326|220:337,1,146.999995513916,0|8,3:2|0:2,0:2:0:0:
322,383,68667,1,0,3:2:0:0:
322,383,68749,1,0,3:2:0:0:
322,383,68830,1,0,3:2:0:0:
385,301,68994,1,0,3:2:0:0:
315,224,69158,2,0,P|279:232|242:238,1,73.4999977569581,10|0,0:2|0:2,0:2:0:0:
139,225,69486,6,0,B|124:189|124:189|139:159|139:159|124:126|126:86,1,146.999995513916,2|10,3:2|0:2,0:2:0:0:
195,10,69978,2,0,P|230:18|267:24,1,73.4999977569581,2|0,3:2|0:2,0:2:0:0:
336,101,70306,1,2,3:2:0:0:
405,24,70470,2,0,P|440:33|477:39,1,73.4999977569581,14|0,0:2|0:2,0:2:0:0:
512,139,70798,5,0,3:2:0:0:
467,231,70962,1,0,3:2:0:0:
364,233,71126,2,0,P|329:224|292:218,1,73.4999977569581,8|0,0:2|3:2,0:2:0:0:
207,159,71453,1,10,0:2:0:0:
118,212,71617,1,10,0:2:0:0:
118,212,71699,1,8,0:2:0:0:
118,212,71781,2,0,P|122:229|125:248,3,36.749998878479,10|8|10|8,0:2|0:2|0:2|0:2,0:2:0:0:
107,296,72109,6,0,B|187:272|171:325|248:309,1,146.999995513916,6|8,3:2|0:2,0:0:0:0:
328,375,72601,1,2,3:2:0:0:
405,306,72765,1,2,0:2:0:0:
405,306,72929,2,0,P|410:269|419:234,1,73.4999977569581,2|8,3:2|0:2,0:2:0:0:
360,163,73257,5,2,3:2:0:0:
360,163,73339,1,0,3:2:0:0:
360,163,73421,1,2,3:2:0:0:
269,212,73585,2,0,P|233:202|197:197,1,73.4999977569581,2|8,3:2|0:2,0:2:0:0:
127,120,73912,1,2,3:2:0:0:
215,68,74076,1,2,0:2:0:0:
136,0,74240,2,0,P|100:9|64:14,1,73.4999977569581,2|8,3:2|0:2,0:2:0:0:
7,101,74568,1,2,0:2:0:0:
57,190,74732,6,0,P|119:152|190:163,2,146.999995513916,2|8|2,3:2|0:2|0:2,0:2:0:0:
8,281,75552,1,2,3:2:0:0:
89,344,75716,2,0,P|124:334|160:329,1,73.4999977569581,10|0,0:2|0:2,0:2:0:0:
257,365,76044,6,0,B|268:323|249:279|249:279|274:259|290:232,1,146.999995513916,0|8,3:2|0:2,0:0:0:0:
365,167,76535,1,2,3:2:0:0:
365,167,76617,1,0,3:2:0:0:
365,167,76699,2,0,P|355:131|350:95,1,73.4999977569581,2|2,3:2|3:2,0:0:0:0:
257,48,77027,2,0,P|251:84|242:119,1,73.4999977569581,10|0,0:2|0:2,0:2:0:0:
276,217,77355,5,6,3:2:0:0:
256,192,77519,12,2,79322,0:2:0:0:
276,219,79978,6,0,P|337:185|407:197,1,140,6|8,3:2|0:2,0:2:0:0:
498,223,80470,2,0,P|490:258|483:292,1,70,2|0,3:2|0:2,0:2:0:0:
412,359,80798,1,0,3:2:0:0:
323,317,80962,6,0,B|270:317|236:351|236:351|211:331|193:324,1,140,10|0,0:2|3:2,0:2:0:0:
133,253,81454,2,0,P|140:219|147:185,1,70,2|8,3:2|0:2,0:2:0:0:
229,128,81782,1,0,3:2:0:0:
229,128,81864,1,0,3:2:0:0:
229,128,81946,2,0,P|221:94|214:60,1,70,2|2,3:2|3:2,0:0:0:0:
295,6,82273,2,0,P|329:13|363:20,1,70,8|0,0:2|0:2,0:2:0:0:
436,86,82601,6,0,B|404:110|397:151|397:151|418:175|423:207,1,140,2|8,3:2|0:2,0:2:0:0:
366,287,83093,2,0,P|331:279|297:272,1,70,2|0,3:2|0:2,0:2:0:0:
233,196,83421,1,0,3:2:0:0:
170,271,83585,6,0,P|136:210|148:140,1,140,10|0,0:2|3:2,0:0:0:0:
234,99,84077,2,0,P|225:64|218:30,1,70,2|8,3:2|0:2,0:2:0:0:
122,50,84405,1,2,3:2:0:0:
40,14,84568,1,10,0:2:0:0:
40,14,84650,1,8,0:2:0:0:
40,14,84732,1,10,0:2:0:0:
8,105,84896,2,0,P|16:139|23:173,1,70,10|8,0:2|0:2,0:0:0:0:
79,257,85224,6,0,B|123:239|123:239|159:256|159:256|246:230|225:280|316:262,1,245,6|2,3:2|0:2,0:2:0:0:
380,215,86535,6,0,B|353:266|371:317|371:317|398:290,1,140,2|2,0:2|0:2,0:2:0:0:
