osu file format v14

[General]
AudioFilename: audio.ogg
AudioLeadIn: 0
PreviewTime: 51044
Countdown: 0
SampleSet: Soft
StackLeniency: 0.5
Mode: 0
LetterboxInBreaks: 0
WidescreenStoryboard: 1

[Editor]
DistanceSpacing: 1.4
BeatDivisor: 4
GridSize: 32
TimelineZoom: 1

[Metadata]
Title:NAME (TV Size)
TitleUnicode:NAME (TV Size)
Artist:Tsuzuri
ArtistUnicode:綴
Creator:Sarawatlism
Version:Shabondama's Hard
Source:好きな子がめがねを忘れた
Tags:Suki na Ko ga Megane wo Wasureta The Girl I Like Forgot Her Glasses DECO*27 DECO27 anime japanese jpop pop j-pop op opening [_lost_] conner c_o_n_n_e_r kunka kunkakunkakunkakunka [-shabondama-] centrak_ alevi 堀江晶太 horie shota shouta kemu
BeatmapID:4219343
BeatmapSetID:2024729

[Difficulty]
HPDrainRate:4.5
CircleSize:4
OverallDifficulty:6.5
ApproachRate:8
SliderMultiplier:1.3
SliderTickRate:1

[Events]
//Background and Video events
0,0,"BG.jpg",0,0
Video,-170,"VD.mp4"
//Break Periods
2,30342,39884
//Storyboard Layer 0 (Background)
//Storyboard Layer 1 (Fail)
//Storyboard Layer 2 (Pass)
//Storyboard Layer 3 (Foreground)
//Storyboard Layer 4 (Overlay)
//Storyboard Sound Samples

[TimingPoints]
1290,327.868852459016,4,2,1,50,1,0
1290,-142.857142857143,4,2,1,50,0,0
5224,-105.263157894737,4,2,1,50,0,0
6535,-95.2380952380952,4,2,1,70,0,0
6862,-95.2380952380952,4,2,2,70,0,0
7027,-95.2380952380952,4,2,3,70,0,0
7519,-95.2380952380952,4,2,2,70,0,0
7682,-95.2380952380952,4,2,4,70,0,0
7847,-95.2380952380952,4,2,3,70,0,0
8174,-95.2380952380952,4,2,2,70,0,0
8339,-95.2380952380952,4,2,4,70,0,0
8503,-95.2380952380952,4,2,3,70,0,0
8830,-95.2380952380952,4,2,2,70,0,0
9075,-95.2380952380952,4,2,2,5,0,0
9158,-95.2380952380952,4,2,3,70,0,0
9485,-95.2380952380952,4,2,2,70,0,0
9650,-95.2380952380952,4,2,3,70,0,0
10142,-95.2380952380952,4,2,2,70,0,0
10306,-95.2380952380952,4,2,4,70,0,0
10388,-95.2380952380952,4,2,4,5,0,0
10470,-95.2380952380952,4,2,3,70,0,0
10797,-95.2380952380952,4,2,2,70,0,0
10962,-95.2380952380952,4,2,4,70,0,0
11126,-95.2380952380952,4,2,3,70,0,0
11453,-95.2380952380952,4,2,2,70,0,0
11781,-111.111111111111,4,2,1,60,0,0
22273,-99.9999999999999,4,2,1,60,0,0
22518,-99.9999999999999,4,2,1,5,0,0
22601,-99.9999999999999,4,2,1,60,0,0
30142,-99.9999999999999,4,2,1,40,0,0
40634,-111.111111111111,4,2,1,60,0,0
45880,-200,4,2,1,40,0,0
48503,-200,4,2,1,60,0,0
50634,-200,4,2,2,60,0,0
51126,-86.9565217391304,4,2,1,80,0,1
51453,-86.9565217391304,4,2,5,80,0,1
51617,-86.9565217391304,4,2,1,80,0,1
51781,-86.9565217391304,4,2,4,80,0,1
52108,-86.9565217391304,4,2,5,80,0,1
52273,-86.9565217391304,4,2,6,80,0,1
52437,-86.9565217391304,4,2,4,80,0,1
52765,-86.9565217391304,4,2,7,80,0,1
52928,-86.9565217391304,4,2,1,80,0,1
53093,-86.9565217391304,4,2,4,80,0,1
53421,-86.9565217391304,4,2,7,80,0,1
53585,-86.9565217391304,4,2,1,80,0,1
53667,-86.9565217391304,4,2,1,5,0,1
53749,-86.9565217391304,4,2,4,80,0,1
54076,-86.9565217391304,4,2,7,80,0,1
54240,-86.9565217391304,4,2,5,80,0,1
54732,-86.9565217391304,4,2,7,80,0,1
54896,-86.9565217391304,4,2,6,80,0,1
55060,-86.9565217391304,4,2,4,80,0,1
55388,-86.9565217391304,4,2,7,80,0,1
55551,-86.9565217391304,4,2,1,80,0,1
55716,-86.9565217391304,4,2,4,80,0,1
56044,-86.9565217391304,4,2,7,80,0,1
56289,-86.9565217391304,4,2,7,5,0,1
56371,-86.9565217391304,4,2,1,80,0,1
56698,-86.9565217391304,4,2,7,80,0,1
56863,-86.9565217391304,4,2,1,80,0,1
57027,-86.9565217391304,4,2,4,80,0,1
57355,-86.9565217391304,4,2,7,80,0,1
57437,-86.9565217391304,4,2,6,80,0,1
57683,-86.9565217391304,4,2,5,80,0,1
58175,-86.9565217391304,4,2,4,80,0,1
58339,-86.9565217391304,4,2,5,80,0,1
58667,-86.9565217391304,4,2,7,80,0,1
58994,-86.9565217391304,4,2,4,80,0,1
59239,-86.9565217391304,4,2,4,5,0,1
59322,-86.9565217391304,4,2,7,80,0,1
59486,-86.9565217391304,4,2,1,80,0,1
59650,-86.9565217391304,4,2,5,80,0,1
59813,-86.9565217391304,4,2,1,80,0,1
59978,-86.9565217391304,4,2,7,80,0,1
60141,-86.9565217391304,4,2,4,80,0,1
60306,-86.9565217391304,4,2,5,80,0,1
60634,-86.9565217391304,4,2,1,80,0,1
61944,-86.9565217391304,4,2,5,80,0,1
62109,-86.9565217391304,4,2,1,80,0,1
62273,-86.9565217391304,4,2,4,80,0,1
62600,-86.9565217391304,4,2,5,80,0,1
62765,-86.9565217391304,4,2,1,80,0,1
62929,-86.9565217391304,4,2,4,80,0,1
63257,-86.9565217391304,4,2,7,80,0,1
63420,-86.9565217391304,4,2,1,80,0,1
63585,-86.9565217391304,4,2,4,80,0,1
63912,-86.9565217391304,4,2,7,80,0,1
64157,-86.9565217391304,4,2,7,5,0,1
64240,-86.9565217391304,4,2,5,80,0,1
64567,-86.9565217391304,4,2,7,80,0,1
64732,-86.9565217391304,4,2,5,80,0,1
65224,-86.9565217391304,4,2,7,80,0,1
65388,-86.9565217391304,4,2,6,80,0,1
65552,-86.9565217391304,4,2,4,80,0,1
65880,-86.9565217391304,4,2,7,80,0,1
66043,-86.9565217391304,4,2,1,80,0,1
66208,-86.9565217391304,4,2,4,80,0,1
66535,-86.9565217391304,4,2,7,80,0,1
66780,-86.9565217391304,4,2,7,5,0,1
66863,-86.9565217391304,4,2,1,80,0,1
67190,-86.9565217391304,4,2,7,80,0,1
67355,-86.9565217391304,4,2,1,80,0,1
67519,-86.9565217391304,4,2,4,80,0,1
67682,-86.9565217391304,4,2,1,80,0,1
67847,-86.9565217391304,4,2,7,80,0,1
68011,-86.9565217391304,4,2,4,80,0,1
68175,-86.9565217391304,4,2,5,80,0,1
68666,-86.9565217391304,4,2,4,80,0,1
68830,-86.9565217391304,4,2,5,80,0,1
69158,-86.9565217391304,4,2,7,80,0,1
69486,-86.9565217391304,4,2,4,80,0,1
69731,-86.9565217391304,4,2,4,5,0,1
69814,-86.9565217391304,4,2,7,80,0,1
69978,-86.9565217391304,4,2,1,80,0,1
70142,-86.9565217391304,4,2,5,80,0,1
70305,-86.9565217391304,4,2,1,80,0,1
72436,-86.9565217391304,4,2,5,80,0,1
72601,-86.9565217391304,4,2,1,80,0,1
72765,-86.9565217391304,4,2,4,80,0,1
72928,-86.9565217391304,4,2,1,80,0,1
73093,-86.9565217391304,4,2,5,80,0,1
73256,-86.9565217391304,4,2,1,80,0,1
73421,-86.9565217391304,4,2,4,80,0,1
73584,-86.9565217391304,4,2,1,80,0,1
73749,-86.9565217391304,4,2,5,80,0,1
73912,-86.9565217391304,4,2,1,80,0,1
74076,-86.9565217391304,4,2,4,80,0,1
74239,-86.9565217391304,4,2,1,80,0,1
74404,-86.9565217391304,4,2,7,80,0,1
74567,-86.9565217391304,4,2,1,80,0,1
74732,-86.9565217391304,4,2,4,80,0,1
75059,-86.9565217391304,4,2,5,80,0,1
75388,-86.9565217391304,4,2,4,80,0,1
75551,-86.9565217391304,4,2,1,80,0,1
75716,-86.9565217391304,4,2,7,80,0,1
75879,-86.9565217391304,4,2,1,80,0,1
76044,-86.9565217391304,4,2,5,80,0,1
76535,-86.9565217391304,4,2,1,80,0,1
77355,-86.9565217391304,4,2,1,60,0,0
79978,-95.2380952380952,4,2,1,70,0,0
80305,-95.2380952380952,4,2,2,70,0,0
80470,-95.2380952380952,4,2,3,70,0,0
80962,-95.2380952380952,4,2,2,70,0,0
81125,-95.2380952380952,4,2,4,70,0,0
81289,-95.2380952380952,4,2,3,70,0,0
81616,-95.2380952380952,4,2,2,70,0,0
81781,-95.2380952380952,4,2,4,70,0,0
81945,-95.2380952380952,4,2,3,70,0,0
82273,-95.2380952380952,4,2,2,70,0,0
82518,-95.2380952380952,4,2,2,5,0,0
82601,-95.2380952380952,4,2,3,70,0,0
82928,-95.2380952380952,4,2,2,70,0,0
83093,-95.2380952380952,4,2,3,70,0,0
83585,-95.2380952380952,4,2,2,70,0,0
83749,-95.2380952380952,4,2,4,70,0,0
83830,-95.2380952380952,4,2,4,5,0,0
83912,-95.2380952380952,4,2,3,70,0,0
84239,-95.2380952380952,4,2,2,70,0,0
84404,-95.2380952380952,4,2,1,70,0,0
85224,-153.846153846154,4,2,1,30,0,0

[Colours]
Combo1 : 198,164,210
Combo2 : 52,80,173
Combo3 : 181,53,75
Combo4 : 220,162,137

[HitObjects]
154,33,1290,6,0,P|201:32|247:29,1,90.9999972229005,2|2,2:0|2:0,0:0:0:0:
316,56,1781,2,0,P|332:107|312:143,1,90.9999972229005,2|2,2:0|2:0,0:0:0:0:
253,178,2273,2,0,P|205:176|160:179,1,90.9999972229005,2|2,2:0|2:0,0:0:0:0:
89,198,2765,1,2,2:0:0:0:
89,198,3093,5,2,2:0:0:0:
45,262,3257,2,0,L|-3:262,2,45.4999986114502,2|2|2,2:0|2:0|2:0,0:0:0:0:
93,331,3749,1,2,2:0:0:0:
93,331,3912,6,0,P|145:349|181:332,1,90.9999972229005,2|2,2:0|2:0,0:0:0:0:
231,285,4404,2,0,P|283:267|319:284,1,90.9999972229005,2|2,2:0|2:0,0:0:0:0:
389,313,4896,1,2,2:0:0:0:
389,313,5224,6,0,L|388:343,2,30.8749991755486,10|8|10,2:0|2:0|2:3,0:0:0:0:
392,232,5552,1,8,2:3:0:0:
330,181,5716,5,8,2:0:0:0:
330,181,5798,1,8,2:0:0:0:
330,181,5880,2,0,L|245:194,1,61.7499983510972,6|6,2:3|2:3,0:0:0:0:
192,195,6208,5,10,2:0:0:0:
192,195,6535,6,0,P|126:171|139:98,1,136.499995834351,6|8,1:2|2:0,0:0:0:0:
177,49,7027,2,0,B|221:29|252:59|242:64|263:86|323:77,1,136.499995834351,2|0,1:2|1:0,0:0:0:0:
373,35,7519,2,0,P|405:17|438:17,1,68.2499979171754,10|8,2:0|2:0,0:0:0:0:
485,83,7847,5,8,1:2:0:0:
403,163,8011,2,0,P|410:126|414:94,1,68.2499979171754,2|8,1:2|2:0,0:0:0:0:
479,204,8339,1,8,1:2:0:0:
479,204,8421,1,8,2:0:0:0:
479,204,8503,2,0,P|473:241|468:278,1,68.2499979171754,10|2,2:0|1:2,0:0:0:0:
408,327,8830,2,0,P|356:313|303:301,1,102.374996875763,10|0,2:0|2:0,0:0:0:0:
286,275,9158,6,0,B|238:261|215:295|223:294|201:328|145:314,1,136.499995834351,10|8,1:2|2:0,0:0:0:0:
84,291,9650,2,0,P|38:241|72:182,1,136.499995834351,2|0,1:2|1:0,0:0:0:0:
126,131,10142,2,0,B|170:139|170:139|183:153|183:153|230:163,1,102.374996875763,10|8,2:0|2:0,0:0:0:0:
246,167,10470,1,8,1:2:0:0:
314,67,10634,6,0,P|277:65|246:88,1,68.2499979171754,2|8,1:2|2:0,0:0:0:0:
389,113,10962,1,8,1:2:0:0:
389,113,11044,1,8,2:0:0:0:
389,113,11126,2,0,P|394:69|398:31,1,68.2499979171754,10|2,2:0|1:2,0:0:0:0:
373,202,11453,2,0,P|408:193|443:186,1,68.2499979171754,10|2,2:0|2:0,0:0:0:0:
406,279,11781,6,0,P|360:240|303:250,1,116.999996429443,6|10,1:2|2:0,0:0:0:0:
262,316,12273,2,0,P|226:324|196:328,1,58.4999982147217,2|0,1:2|0:0,0:0:0:0:
143,271,12601,2,0,P|107:262|77:259,1,58.4999982147217,2|10,1:2|2:0,0:0:0:0:
15,215,12929,6,0,P|-11:166|12:113,2,116.999996429443,2|2|2,2:0|1:2|2:0,0:0:0:0:
79,159,13749,1,2,1:2:0:0:
79,159,13912,1,2,1:2:0:0:
161,182,14076,2,0,P|199:173|235:155,1,58.4999982147217,10|2,2:0|2:0,0:0:0:0:
277,103,14404,6,0,P|332:91|373:130,1,116.999996429443,2|10,1:2|2:0,0:0:0:0:
405,199,14896,2,0,P|409:140|416:71,1,116.999996429443,2|2,1:2|1:2,0:0:0:0:
424,0,15388,1,10,2:0:0:0:
193,0,15716,6,0,P|188:58|182:128,1,116.999996429443,2|10,1:2|2:0,0:0:0:0:
132,177,16208,1,2,2:0:0:0:
72,125,16371,2,0,P|73:91|85:60,2,58.4999982147217,2|2|10,1:2|1:2|2:0,0:0:0:0:
0,312,17027,6,0,P|34:278|107:298,1,116.999996429443,2|10,1:2|2:0,0:0:0:0:
164,336,17519,2,0,P|170:306|179:273,1,58.4999982147217,2|0,1:2|0:0,0:0:0:0:
248,238,17847,2,0,P|242:208|233:175,1,58.4999982147217,2|10,1:2|2:0,0:0:0:0:
154,160,18175,6,0,B|112:151|91:173|98:173|75:195|26:186,2,116.999996429443,2|2|2,2:0|1:2|2:0,0:0:0:0:
209,99,18994,1,2,1:2:0:0:
209,99,19158,1,2,1:2:0:0:
288,118,19322,2,0,P|296:88|300:59,1,58.4999982147217,10|2,2:0|2:0,0:0:0:0:
356,0,19650,6,0,B|403:11|403:11|421:27|421:27|472:39,1,116.999996429443,2|10,1:2|2:0,0:0:0:0:
491,116,20142,2,0,B|452:111|433:137|439:138|419:159|380:150,1,116.999996429443,2|2,1:2|1:2,0:0:0:0:
309,116,20634,1,10,2:0:0:0:
57,128,20962,6,0,P|27:138|-4:146,2,58.4999982147217,2|2|10,1:2|1:2|2:0,0:0:0:0:
124,174,21453,1,2,2:0:0:0:
71,262,21617,2,0,P|53:227|59:200,1,58.4999982147217,2|2,1:2|1:2,0:0:0:0:
134,327,21945,2,0,P|101:338|73:348,1,58.4999982147217,10|2,2:0|2:0,0:0:0:0:
165,248,22273,6,0,P|220:239|252:273,1,97.5,6|0,1:2|2:0,0:0:0:0:
261,287,22601,1,10,2:0:0:0:
327,361,22765,2,0,P|334:300|345:219,1,130,2|2,1:2|1:2,0:0:0:0:
388,152,23257,1,10,2:0:0:0:
307,110,23421,6,0,P|275:126|247:133,1,65,2|0,2:0|2:0,0:0:0:0:
183,67,23749,2,0,P|211:52|243:43,1,65,2|10,1:2|2:0,0:0:0:0:
141,141,24076,2,0,P|109:132|80:117,1,65,2|2,2:0|1:2,0:0:0:0:
10,177,24404,1,2,1:2:0:0:
67,266,24568,2,0,P|88:232|83:199,1,65,10|2,2:0|2:0,0:0:0:0:
4,317,24896,6,0,B|53:309|53:309|86:320|86:320|152:311,1,130,2|10,1:2|2:0,0:0:0:0:
216,347,25388,2,0,P|166:322|193:262,1,130,2|0,1:2|1:0,0:0:0:0:
258,204,25880,1,8,2:0:0:0:
321,269,26044,1,2,2:0:0:0:
400,198,26208,6,0,P|362:190|333:181,1,65,2|0,2:0|1:0,0:0:0:0:
454,268,26535,1,10,2:0:0:0:
501,189,26699,2,0,P|489:144|483:116,1,65,2|2,2:0|1:2,0:0:0:0:
420,51,27027,2,0,P|412:82|404:113,1,65,2|10,1:2|2:0,0:0:0:0:
331,169,27355,1,2,2:0:0:0:
266,104,27519,6,0,P|190:93|155:140,1,130,2|10,1:2|2:0,0:0:0:0:
118,210,28011,2,0,B|163:193|190:223|182:226|209:253|250:239,1,130,2|0,1:2|1:0,0:0:0:0:
317,286,28503,2,0,P|347:273|382:262,1,65,8|2,2:0|2:0,0:0:0:0:
366,172,28830,6,0,P|336:185|301:196,1,65,2|0,1:2|1:0,0:0:0:0:
447,200,29158,1,10,2:0:0:0:
493,121,29322,1,2,2:0:0:0:
429,55,29486,1,0,1:0:0:0:
339,68,29650,5,10,2:0:0:0:
339,68,29732,1,10,2:0:0:0:
339,68,29814,2,0,L|292:77,3,32.5,10|8|10|8,1:2|2:0|2:0|2:0,0:0:0:0:
276,81,30142,1,2,2:0:0:0:
325,48,40634,6,0,P|368:18|435:43,1,116.999996429443,6|0,1:2|1:0,0:0:0:0:
473,98,41126,1,0,2:0:0:0:
473,98,41289,2,0,P|464:129|462:155,1,58.4999982147217,2|2,1:2|2:0,0:0:0:0:
455,240,41617,2,0,P|421:230|386:228,1,58.4999982147217,2|0,1:2|2:0,0:0:0:0:
328,268,41945,6,0,B|257:304|257:304|233:304|225:284,1,116.999996429443,2|0,1:2|1:0,0:0:0:0:
184,228,42437,1,2,2:0:0:0:
184,228,42601,2,0,B|182:176|182:176|200:158|200:158|199:110,1,116.999996429443,2|0,1:2|1:0,0:0:0:0:
235,50,43093,1,2,2:0:0:0:
167,15,43257,6,0,P|113:27|28:42,1,116.999996429443,2|0,1:2|1:0,0:0:0:0:
10,184,43912,2,0,P|67:173|124:160,1,116.999996429443,2|0,1:2|1:0,0:0:0:0:
202,183,44404,1,0,2:0:0:0:
202,183,44568,6,0,P|241:226|215:286,1,116.999996429443,2|2,1:2|1:2,0:0:0:0:
261,358,45060,1,2,2:0:0:0:
332,316,45224,2,0,P|366:318|396:326,1,58.4999982147217,2|2,1:2|2:0,0:0:0:0:
468,320,45552,2,0,P|481:287|470:256,1,58.4999982147217,2|2,1:2|2:0,0:0:0:0:
425,201,45880,6,0,B|359:167|293:221|309:233|257:294|182:260,1,260,6|2,1:2|2:0,0:0:0:0:
25,27,48503,5,2,2:0:0:0:
484,202,50470,5,8,2:0:0:0:
445,127,50634,1,4,2:3:0:0:
445,127,51126,6,0,B|349:164|349:164|315:148|323:111,1,149.500002851486,6|10,1:2|2:0,0:0:0:0:
261,43,51617,1,2,1:2:0:0:
177,105,51781,2,0,P|124:52|59:82,1,149.500002851486,2|10,2:0|2:0,0:0:0:0:
32,177,52273,1,10,2:0:0:0:
32,177,52355,1,10,2:0:0:0:
32,177,52437,6,0,P|41:229|43:258,1,74.7500014257431,2|0,1:2|1:0,0:0:0:0:
136,298,52765,2,0,P|127:246|125:217,1,74.7500014257431,10|2,2:0|1:2,0:0:0:0:
226,168,53093,2,0,P|222:205|215:241,1,74.7500014257431,2|0,2:0|1:0,0:0:0:0:
290,329,53421,2,0,P|333:290|405:310,1,112.125002138615,10|2,2:0|2:0,0:0:0:0:
409,307,53749,6,0,P|349:257|381:185,1,149.500002851486,2|10,1:2|2:0,0:0:0:0:
433,116,54240,2,0,B|391:133|351:107|373:99|329:67|287:88,1,149.500002851486,0|0,1:0|1:0,0:0:0:0:
205,139,54732,1,10,2:0:0:0:
118,80,54896,1,10,2:0:0:0:
118,80,54978,1,10,2:0:0:0:
118,80,55060,6,0,P|126:43|131:7,1,74.7500014257431,2|0,1:2|1:0,0:0:0:0:
23,127,55388,2,0,P|31:164|36:200,1,74.7500014257431,10|2,2:0|1:2,0:0:0:0:
141,263,55716,2,0,P|133:226|128:190,1,74.7500014257431,2|0,2:0|1:0,0:0:0:0:
27,310,56044,2,0,P|92:297|148:290,1,112.125002138615,10|0,2:0|2:0,0:0:0:0:
164,271,56371,6,0,B|216:255|245:289|234:294|265:329|314:311,1,149.500002851486,4|10,1:2|2:0,0:0:0:0:
376,269,56863,1,2,1:2:0:0:
339,186,57027,2,0,P|301:198|252:210,1,74.7500014257431,2|0,2:0|1:0,0:0:0:0:
423,195,57355,2,0,P|436:151|417:104,1,74.7500014257431,10|10,2:0|2:0,0:0:0:0:
345,92,57683,6,0,P|332:136|351:183,1,74.7500014257431,2|0,1:2|1:0,0:0:0:0:
413,41,58011,1,10,2:0:0:0:
330,5,58175,1,8,1:2:0:0:
330,5,58257,1,8,2:0:0:0:
330,5,58339,2,0,P|290:14|255:20,1,74.7500014257431,2|0,2:0|1:0,0:0:0:0:
182,71,58667,1,10,2:0:0:0:
182,71,58994,6,0,P|125:31|74:52,1,112.125002138615,2|0,1:2|2:0,0:0:0:0:
68,58,59322,1,10,2:0:0:0:
37,158,59486,2,0,B|94:169|94:169|112:191|112:191|182:206,1,149.500002851486,2|2,1:2|1:2,0:0:0:0:
240,143,59978,2,0,P|228:101|223:55,1,74.7500014257431,10|8,2:0|2:0,0:0:0:0:
312,195,60306,6,0,P|354:183|400:178,1,74.7500014257431,2|0,1:2|1:0,0:0:0:0:
260,268,60634,2,0,P|224:257|187:251,1,74.7500014257431,12|0,2:0|1:0,0:0:0:0:
319,347,60962,1,12,2:0:0:0:
409,262,61126,1,8,2:0:0:0:
409,262,61208,1,8,2:0:0:0:
409,262,61289,2,0,L|471:279,3,37.3750007128716,8|8|8|8,1:2|2:0|2:0|2:0,0:0:0:0:
476,288,61617,6,0,B|471:239|503:201|503:201|468:183|465:140,1,149.500002851486,6|10,1:2|2:0,0:0:0:0:
409,90,62109,1,2,1:2:0:0:
341,148,62273,2,0,B|282:150|282:150|254:134|254:134|189:137,1,149.500002851486,2|10,2:0|2:0,0:0:0:0:
114,97,62765,1,2,2:0:0:0:
114,97,62847,1,2,2:0:0:0:
114,97,62929,6,0,P|125:63|128:23,1,74.7500014257431,2|0,1:2|1:0,0:0:0:0:
36,158,63257,2,0,P|47:192|50:232,1,74.7500014257431,10|2,2:0|1:2,0:0:0:0:
204,227,63585,2,0,P|146:212|121:202,1,74.7500014257431,2|0,2:0|1:0,0:0:0:0:
186,309,63912,2,0,P|220:267|285:280,1,112.125002138615,10|0,2:0|2:0,0:0:0:0:
297,305,64240,6,0,B|286:247|286:247|297:213|297:213|286:147,1,149.500002851486,2|10,1:2|2:0,0:0:0:0:
318,74,64732,2,0,P|390:47|436:109,1,149.500002851486,0|0,1:0|1:0,0:0:0:0:
489,165,65224,1,10,2:0:0:0:
403,247,65388,1,10,2:0:0:0:
403,247,65470,1,10,2:0:0:0:
403,247,65552,6,0,P|405:210|411:170,1,74.7500014257431,2|0,1:2|1:0,0:0:0:0:
496,251,65880,2,0,P|490:287|480:323,1,74.7500014257431,10|2,2:0|1:2,0:0:0:0:
396,358,66208,2,0,P|329:340|308:337,1,74.7500014257431,2|0,2:0|1:0,0:0:0:0:
234,339,66535,2,0,P|279:330|289:269,1,112.125002138615,10|0,2:0|2:0,0:0:0:0:
277,243,66863,6,0,B|209:254|209:254|201:273|201:273|139:283,1,149.500002851486,4|10,1:2|2:0,0:0:0:0:
73,223,67355,1,2,1:2:0:0:
120,146,67519,2,0,P|156:155|205:163,1,74.7500014257431,2|2,2:0|1:2,0:0:0:0:
267,110,67847,1,10,2:0:0:0:
335,167,68011,1,8,2:0:0:0:
335,167,68093,1,8,2:0:0:0:
335,167,68175,6,0,P|370:147|423:145,1,74.7500014257431,2|0,1:2|1:0,0:0:0:0:
451,271,68503,2,0,P|416:250|387:205,1,74.7500014257431,10|8,2:0|1:2,0:0:0:0:
484,119,68830,2,0,P|483:159|459:206,1,74.7500014257431,2|0,2:0|1:0,0:0:0:0:
424,40,69158,1,10,2:0:0:0:
424,40,69486,6,0,P|366:11|306:29,1,112.125002138615,2|0,1:2|2:0,0:0:0:0:
297,37,69814,1,10,2:0:0:0:
254,116,69978,2,0,P|278:63|190:42,1,149.500002851486,2|2,1:2|1:2,0:0:0:0:
130,68,70470,2,0,P|82:61|46:50,1,74.7500014257431,14|0,2:0|2:0,0:0:0:0:
168,152,70798,5,0,1:0:0:0:
168,152,70962,1,0,1:0:0:0:
77,221,71126,2,0,P|84:175|88:135,1,74.7500014257431,8|0,2:0|1:0,0:0:0:0:
153,273,71453,1,10,2:0:0:0:
62,345,71617,2,0,P|35:350|12:357,2,37.3750007128716,10|8|10,2:0|2:0|1:2,0:0:0:0:
153,273,71945,1,10,2:0:0:0:
153,273,72027,1,8,2:0:0:0:
153,273,72109,6,0,B|259:259|259:259|285:274|279:303,1,149.500002851486,6|10,1:2|2:0,0:0:0:0:
344,366,72601,1,2,1:2:0:0:
423,325,72765,2,0,P|428:282|437:248,1,74.7500014257431,2|2,2:0|1:2,0:0:0:0:
339,182,73093,2,0,P|347:218|351:255,1,74.7500014257431,10|2,2:0|2:0,0:0:0:0:
424,166,73421,6,0,P|427:128|436:92,1,74.7500014257431,2|2,1:2|1:2,0:0:0:0:
376,25,73749,1,10,2:0:0:0:
307,82,73912,1,2,1:2:0:0:
307,82,73994,1,0,2:0:0:0:
307,82,74076,2,0,P|245:64|223:55,1,74.7500014257431,2|2,2:0|1:2,0:0:0:0:
267,203,74404,2,0,P|302:190|338:181,1,74.7500014257431,10|2,2:0|2:0,0:0:0:0:
195,140,74732,6,0,B|105:114|105:114|77:134|73:166,1,149.500002851486,2|10,1:2|2:0,0:0:0:0:
139,221,75224,1,0,1:0:0:0:
81,289,75388,2,0,P|44:279|7:273,1,74.7500014257431,2|2,2:0|1:2,0:0:0:0:
147,348,75716,2,0,P|183:342|220:332,1,74.7500014257431,10|2,2:0|2:0,0:0:0:0:
281,266,76044,1,2,1:2:0:0:
347,325,76208,1,0,1:0:0:0:
444,230,76371,5,10,2:0:0:0:
377,166,76535,1,2,1:2:0:0:
377,166,76617,1,2,0:0:0:0:
377,166,76699,2,0,P|364:222|361:248,1,74.7500014257431,10|6,2:3|2:3,0:0:0:0:
443,310,77027,2,0,P|456:254|459:228,1,74.7500014257431,10|2,2:0|2:0,0:0:0:0:
453,119,77355,5,6,1:2:0:0:
453,119,79978,6,0,P|377:109|330:169,1,136.499995834351,6|8,1:2|2:0,0:0:0:0:
278,223,80470,2,0,P|287:154|295:84,1,136.499995834351,2|0,1:2|1:0,0:0:0:0:
220,26,80962,2,0,P|215:63|213:112,1,68.2499979171754,10|8,2:0|2:0,0:0:0:0:
158,172,81289,5,8,1:2:0:0:
79,116,81453,2,0,P|108:93|156:93,1,68.2499979171754,2|8,1:2|2:0,0:0:0:0:
67,205,81781,1,8,1:2:0:0:
67,205,81863,1,8,2:0:0:0:
67,205,81945,2,0,P|34:193|1:186,1,68.2499979171754,10|2,2:0|1:2,0:0:0:0:
12,309,82273,2,0,P|60:293|112:282,1,102.374996875763,10|0,2:0|2:0,0:0:0:0:
133,264,82601,6,0,B|180:249|205:282|193:282|224:316|271:299,1,136.499995834351,10|8,1:2|2:0,0:0:0:0:
335,358,83093,2,0,B|299:319|310:274|310:274|338:258|347:224,1,136.499995834351,2|0,1:2|1:0,0:0:0:0:
272,100,83585,2,0,P|265:151|257:219,1,102.374996875763,10|8,2:0|2:0,0:0:0:0:
254,226,83912,1,8,1:2:0:0:
169,180,84076,6,0,P|176:146|182:113,1,68.2499979171754,2|8,1:2|2:0,0:0:0:0:
109,49,84404,1,2,1:2:0:0:
33,80,84568,1,10,1:2:0:0:
33,80,84650,1,8,2:0:0:0:
33,80,84732,2,0,L|-9:74,2,34.1249989585877,10|10|10,2:0|2:0|1:2,0:0:0:0:
20,161,85060,1,10,2:0:0:0:
57,231,85224,6,0,B|123:245|123:245|144:273|144:273|215:289,1,168.999992263794,6|2,1:2|2:0,0:0:0:0:
320,123,86535,6,0,B|254:137|254:137|233:165|233:165|162:181,1,168.999992263794,2|2,2:0|2:0,0:0:0:0:
